Subcategories

The Corrs - Original Album Series (2011) 5CD Box Set [Re-Up]

Posted By: Designol
The Corrs - Original Album Series (2011) 5CD Box Set [Re-Up]

The Corrs - Original Album Series (2011) 5CD Box Set
XLD | FLAC | Image (Cue&Log) ~ 1.88 Gb (incl 5%) | Mp3 (CBR320/Stereo) ~ 636 Mb (incl 5%) | Scans included
Genre: Pop Rock, Folk Rock, Celtic | Label: Atlantic/Rhino | # 5052498531929 | Time: 04:19:54

2011 issue 68-track 5-CD album set comprised of the best selling and critically acclaimed album releases 'Borrowed Heaven', 'Forgiven Not Forgotten', 'Home', 'In Blue' and 'Talk On Corners'; each album is housed in a mini LP-style card picture sleeve with the complete set presented in a sealed card slipcase.
A photogenic family band comprising three sisters and one brother, the Corrs – vocalist Andrea, drummer Caroline, violinist Sharon and guitarist/keyboard player Jim – blend the music of their Irish background with contemporary pop/rock elements. The quartet formed in 1991 and enjoyed regional popularity in Ireland until 1994, when the American ambassador to the country invited the Corrs to perform at the 1994 World Cup in Boston. The Corrs subsequently expanded their popularity by appearing at the Olympic Games in Atlanta and earning a support slot on Celine Dion's 1996 tour, two gigs that helped pave the way for their well-received debut record. The Corrs' first studio album, Forgiven, Not Forgotten (released via Lava/Atlantic Records in America), became internationally popular, but nowhere more so than their homeland, where the LP's four-times-platinum status made it one of the most popular debuts by an Irish group.

Talk on Corners followed in 1997 and was reissued in expanded form early the following year. The album was instrumental in launching the band's star status in the U.K., where it spawned four Top Ten singles and became the best-selling record of 1998. Talk on Corners eventually sold over 2.9 million copies, making it one of the most successful albums in British history. Meanwhile, singer Andrea Corr – who had made a small appearance in the 1991 film The Commitments – returned to acting with a role in Evita. The group reconvened shortly thereafter to record In Blue, their third studio album, alongside producer Mutt Lange. Boasting a slickly polished sound that was more indebted to pop music than the band's Celtic heritage, In Blue launched the Corrs' first American hit with "Breathless," which also became their first (and only) chart-topping single in the U.K. One year after its release, the band released a concert recording entitled VH1 Presents the Corrs: Live in Dublin, which saw them collaborating with the likes of Bono and Ronnie Wood. A short hiatus followed, as Caroline had a baby and Andrea appeared on the In America soundtrack, contributing vocals to the Bono/Gavin Friday composition "Time Enough for Tears."

A new version of the Oscar-nominated "Time Enough for Tears" appeared on the Corrs' next album, Borrowed Heaven, which marked a return to their folky roots in 2004. Issued one year later, Home brought the musicians even closer to their origins, as it took the bulk of its set list from old Irish standards. Although popular in the Corrs' homeland, Home's traditional sound did not fare well in other countries. All the Way Home: A History of the Corrs, one of the many compilation albums in the band's catalog, followed in 2006.

Biography by John Bush, Allmusic.com
Official Website
Wiki


––––––––––––––––––––––––––––––––––––––––


The Corrs - Original Album Series (2011) 5CD Box Set [Re-Up]

CD1: Forgiven, Not Forgotten (1995)
XLD | FLAC | Image (Cue&Log) ~ 366 Mb (incl 5%) | Mp3 (CBR320/Stereo) ~ 121 Mb (incl 5%) | Scans included | Time: 00:48:43

The appropriately named Corrs are an Irish pop group consisting of Andrea Corr on lead vocals and tin whistle; Caroline Corr on drums, bodhran, and vocals; Jim Corr on keyboards, guitar, and vocals; and Sharon Corr on violin and vocals. The traditional Irish instruments like the bodhran and tin whistle add a twist to the pop melodies of tracks like the title track and "The Right Time," where they are allowed some solo time. The Irish musical background of the band members is most obviously heard in Sharon Corr's violin work, used here more like a traditional Irish fiddle than a true classical violin. There are glimpses of the Corrs' skill as instrumentalists on tracks like "Erin Shore," the introduction on the album. There are a few of these instrumentals placed throughout the album, but unfortunately, none are much longer than two minutes. The focus is on the adult contemporary mid-tempo songs. The Corrs are more reminiscent of vocal pop group Wilson Phillips than traditional Irish bands like the Chieftains.

Review by Susan Cruickshank, Allmusic.com

Tracklist:

1. "Erin Shore" (intro) (instrumental) 0:27
2. "Forgiven, Not Forgotten" 4:15
3. "Heaven Knows" 4:18
4. "Along with the Girls" (instrumental) 0:49
5. "Someday" 3:51
6. "Runaway" 4:24
7. "The Right Time" 4:07
8. "The Minstrel Boy" (instrumental) 2:12
9. "Toss the Feathers" (instrumental) 2:50
10. "Love to Love You" 4:08
11. "Secret Life" 4:31
12. "Carraroe Jig" (instrumental) 0:52
13. "Closer" 4:05
14. "Leave Me Alone" 3:40
15. "Erin Shore" (instrumental) 4:14


X Lossless Decoder version 20100711 (120.5)

XLD extraction logfile from 2012-03-08 11:15:27 +0600

The Corrs / Forgiven, Not Forgotten

Used drive : MATSHITA DVD-R UJ-898 (revision HC09)

Use cdparanoia mode : YES (CDParanoia III 10.2 engine)
Disable audio cache : OK for the drive with cache less than 2750KB
Make use of C2 pointers : NO
Read offset correction : 102
Max retry count : 100
Gap status : Analyzed, Appended

TOC of the extracted CD
Track | Start | Length | Start sector | End sector
––––––––––––––––––––––––––––-
1 | 00:00:00 | 00:27:05 | 0 | 2029
2 | 00:27:05 | 04:15:45 | 2030 | 21199
3 | 04:42:50 | 04:18:27 | 21200 | 40576
4 | 09:01:02 | 00:49:15 | 40577 | 44266
5 | 09:50:17 | 03:51:33 | 44267 | 61624
6 | 13:41:50 | 04:24:57 | 61625 | 81481
7 | 18:06:32 | 04:07:55 | 81482 | 100061
8 | 22:14:12 | 02:12:38 | 100062 | 109999
9 | 24:26:50 | 02:50:20 | 110000 | 122769
10 | 27:16:70 | 04:08:35 | 122770 | 141404
11 | 31:25:30 | 04:31:10 | 141405 | 161739
12 | 35:56:40 | 00:52:55 | 161740 | 165694
13 | 36:49:20 | 04:05:02 | 165695 | 184071
14 | 40:54:22 | 03:40:18 | 184072 | 200589
15 | 44:34:40 | 04:14:05 | 200590 | 219644

List of alternate offset correction values
# | Absolute | Relative | Confidence
–––––––––––––––––––––
1 | 766 | 664 | 200
2 | 1435 | 1333 | 200
3 | 1339 | 1237 | 2
4 | 1429 | 1327 | 2
5 | 668 | 566 | 2

All Tracks
Filename : /Users/Yuriy/Desktop/The Corrs-2011/The Corrs-1995/Forgiven, Not Forgotten.flac
CRC32 hash : 6111EFA2
CRC32 hash (skip zero) : 71E3F561
Statistics
Read error : 0
Skipped (treated as error) : 0
Edge jitter error (maybe fixed) : 0
Atom jitter error (maybe fixed) : 0
Drift error (maybe fixed) : 0
Dropped bytes error (maybe fixed) : 0
Duplicated bytes error (maybe fixed) : 0

Track 01

Pre-gap length : 00:02:00

CRC32 hash : 0B1AB107
CRC32 hash (skip zero) : ACFB4BFD
AccurateRip signature : 053A3235
->Accurately ripped! (confidence 4)
Statistics
Read error : 0
Skipped (treated as error) : 0
Edge jitter error (maybe fixed) : 0
Atom jitter error (maybe fixed) : 0
Drift error (maybe fixed) : 0
Dropped bytes error (maybe fixed) : 0
Duplicated bytes error (maybe fixed) : 0

Track 02

CRC32 hash : EA269008
CRC32 hash (skip zero) : 421BBC95
AccurateRip signature : 208BA378
->Accurately ripped! (confidence 4)
Statistics
Read error : 0
Skipped (treated as error) : 0
Edge jitter error (maybe fixed) : 0
Atom jitter error (maybe fixed) : 0
Drift error (maybe fixed) : 0
Dropped bytes error (maybe fixed) : 0
Duplicated bytes error (maybe fixed) : 0

Track 03

CRC32 hash : F9885738
CRC32 hash (skip zero) : 5BE48DF8
AccurateRip signature : 087E315E
->Accurately ripped! (confidence 4)
Statistics
Read error : 0
Skipped (treated as error) : 0
Edge jitter error (maybe fixed) : 0
Atom jitter error (maybe fixed) : 0
Drift error (maybe fixed) : 0
Dropped bytes error (maybe fixed) : 0
Duplicated bytes error (maybe fixed) : 0

Track 04

CRC32 hash : 9A2B2FEA
CRC32 hash (skip zero) : 680F74C9
AccurateRip signature : 247FF4D2
->Accurately ripped! (confidence 4)
Statistics
Read error : 0
Skipped (treated as error) : 0
Edge jitter error (maybe fixed) : 0
Atom jitter error (maybe fixed) : 0
Drift error (maybe fixed) : 0
Dropped bytes error (maybe fixed) : 0
Duplicated bytes error (maybe fixed) : 0

Track 05

CRC32 hash : 377D235C
CRC32 hash (skip zero) : A4F9E657
AccurateRip signature : 0C61327C
->Accurately ripped! (confidence 4)
Statistics
Read error : 0
Skipped (treated as error) : 0
Edge jitter error (maybe fixed) : 0
Atom jitter error (maybe fixed) : 0
Drift error (maybe fixed) : 0
Dropped bytes error (maybe fixed) : 0
Duplicated bytes error (maybe fixed) : 0

Track 06

Pre-gap length : 00:01:55

CRC32 hash : DAFABF2D
CRC32 hash (skip zero) : C46D2EE5
AccurateRip signature : AE39D794
->Accurately ripped! (confidence 4)
Statistics
Read error : 0
Skipped (treated as error) : 0
Edge jitter error (maybe fixed) : 0
Atom jitter error (maybe fixed) : 0
Drift error (maybe fixed) : 0
Dropped bytes error (maybe fixed) : 0
Duplicated bytes error (maybe fixed) : 0

Track 07

CRC32 hash : 41149963
CRC32 hash (skip zero) : 5EE4F0AB
AccurateRip signature : 9B4F8C70
->Accurately ripped! (confidence 4)
Statistics
Read error : 0
Skipped (treated as error) : 0
Edge jitter error (maybe fixed) : 0
Atom jitter error (maybe fixed) : 0
Drift error (maybe fixed) : 0
Dropped bytes error (maybe fixed) : 0
Duplicated bytes error (maybe fixed) : 0

Track 08

Pre-gap length : 00:00:25

CRC32 hash : CFDB0D93
CRC32 hash (skip zero) : FE33E58C
AccurateRip signature : BB93A80C
->Accurately ripped! (confidence 4)
Statistics
Read error : 0
Skipped (treated as error) : 0
Edge jitter error (maybe fixed) : 0
Atom jitter error (maybe fixed) : 0
Drift error (maybe fixed) : 0
Dropped bytes error (maybe fixed) : 0
Duplicated bytes error (maybe fixed) : 0

Track 09

CRC32 hash : 7F350525
CRC32 hash (skip zero) : FBCE2D5B
AccurateRip signature : AB40A4C6
->Accurately ripped! (confidence 4)
Statistics
Read error : 0
Skipped (treated as error) : 0
Edge jitter error (maybe fixed) : 0
Atom jitter error (maybe fixed) : 0
Drift error (maybe fixed) : 0
Dropped bytes error (maybe fixed) : 0
Duplicated bytes error (maybe fixed) : 0

Track 10

CRC32 hash : CC785EB5
CRC32 hash (skip zero) : 62D36FDA
AccurateRip signature : 28B9506D
->Accurately ripped! (confidence 4)
Statistics
Read error : 0
Skipped (treated as error) : 0
Edge jitter error (maybe fixed) : 0
Atom jitter error (maybe fixed) : 0
Drift error (maybe fixed) : 0
Dropped bytes error (maybe fixed) : 0
Duplicated bytes error (maybe fixed) : 0

Track 11

Pre-gap length : 00:00:20

CRC32 hash : CF85ABF7
CRC32 hash (skip zero) : D1B45192
AccurateRip signature : 9A98436B
->Accurately ripped! (confidence 4)
Statistics
Read error : 0
Skipped (treated as error) : 0
Edge jitter error (maybe fixed) : 0
Atom jitter error (maybe fixed) : 0
Drift error (maybe fixed) : 0
Dropped bytes error (maybe fixed) : 0
Duplicated bytes error (maybe fixed) : 0

Track 12

CRC32 hash : 8E7C9A90
CRC32 hash (skip zero) : B6EA74D1
AccurateRip signature : 7B2865DB
->Accurately ripped! (confidence 4)
Statistics
Read error : 0
Skipped (treated as error) : 0
Edge jitter error (maybe fixed) : 0
Atom jitter error (maybe fixed) : 0
Drift error (maybe fixed) : 0
Dropped bytes error (maybe fixed) : 0
Duplicated bytes error (maybe fixed) : 0

Track 13

Pre-gap length : 00:00:25

CRC32 hash : 2200215D
CRC32 hash (skip zero) : BB8997E3
AccurateRip signature : F61C0C7C
->Accurately ripped! (confidence 4)
Statistics
Read error : 0
Skipped (treated as error) : 0
Edge jitter error (maybe fixed) : 0
Atom jitter error (maybe fixed) : 0
Drift error (maybe fixed) : 0
Dropped bytes error (maybe fixed) : 0
Duplicated bytes error (maybe fixed) : 0

Track 14

CRC32 hash : 2C6F11AC
CRC32 hash (skip zero) : 00842EFE
AccurateRip signature : D13B9F54
->Accurately ripped! (confidence 4)
Statistics
Read error : 0
Skipped (treated as error) : 0
Edge jitter error (maybe fixed) : 0
Atom jitter error (maybe fixed) : 0
Drift error (maybe fixed) : 0
Dropped bytes error (maybe fixed) : 0
Duplicated bytes error (maybe fixed) : 0

Track 15

Pre-gap length : 00:00:60

CRC32 hash : 9BDBC056
CRC32 hash (skip zero) : 6ADC7588
AccurateRip signature : EF1298B7
->Accurately ripped! (confidence 4)
Statistics
Read error : 0
Skipped (treated as error) : 0
Edge jitter error (maybe fixed) : 0
Atom jitter error (maybe fixed) : 0
Drift error (maybe fixed) : 0
Dropped bytes error (maybe fixed) : 0
Duplicated bytes error (maybe fixed) : 0

No errors occurred

End of status report

foobar2000 1.2 / Dynamic Range Meter 1.1.1
log date: 2014-04-11 00:23:49

––––––––––––––––––––––––––––––––––––––––
Analyzed: The Corrs / Forgiven, Not Forgotten
––––––––––––––––––––––––––––––––––––––––

DR Peak RMS Duration Track
––––––––––––––––––––––––––––––––––––––––
DR11 -11.83 dB -25.42 dB 0:27 01-Erin Shore
DR9 -0.01 dB -11.80 dB 4:16 02-Forgiven Not Forgotten
DR8 0.00 dB -10.69 dB 4:18 03-Heaven Knows
DR12 -4.32 dB -19.64 dB 0:49 04-Along With The Girls
DR7 0.00 dB -8.86 dB 3:51 05-Someday
DR8 0.00 dB -10.34 dB 4:25 06-Runaway
DR8 0.00 dB -9.68 dB 4:08 07-The Right Time
DR10 -1.97 dB -16.42 dB 2:13 08-The Minstrel Boy
DR11 0.00 dB -12.42 dB 2:50 09-Toss The Feathers
DR9 0.00 dB -10.32 dB 4:08 10-Love To Love You
DR8 0.00 dB -10.33 dB 4:31 11-Secret Life
DR12 -5.17 dB -21.91 dB 0:53 12-Carraroe Jig
DR9 0.00 dB -12.00 dB 4:05 13-Closer
DR8 0.00 dB -9.93 dB 3:40 14-Leave Me Alone
DR9 0.00 dB -13.00 dB 4:14 15-Erin Shore
––––––––––––––––––––––––––––––––––––––––

Number of tracks: 15
Official DR value: DR9

Samplerate: 44100 Hz
Channels: 2
Bits per sample: 16
Bitrate: 986 kbps
Codec: FLAC
================================================================================


––––––––––––––––––––––––––––––––––––––––


The Corrs - Original Album Series (2011) 5CD Box Set [Re-Up]

CD2: Talk on Corners (1997)
XLD | FLAC | Image (Cue&Log) ~ 457 Mb (incl 5%) | Mp3 (CBR320/Stereo) ~ 149 Mb (incl 5%) | Scans included | Time: 00:56:58

Songs on the Corrs' Talk on Corners fly inoffensively past the window like scenery on a drive through the countryside, with two pretty singers at the wheel. This essentially Irish sister act (with Corr group Andrea, Caroline, and Sharon on vocals, drums, and violin, respectively, and brother Jim on guitar and keyboards) legitimately brings to mind comparisons with another family-based girl group, Wilson Phillips, particularly since the impulses and instincts are truly pop and not so much alt-traditional Celtic (as they are often cited to be). This timely record documents a high-riding point for the Corrs by re-releasing newly mixed versions of "What Can I Do?" and "So Young," both highly compressed digital productions featuring their trademark glass voices and barely discernible acoustic musical instruments. Also on the record: "Queen of Hollywood," "Runaway," "No Good for Me," and their huge international hit ballad "I Never Loved You Anyway." The best and most spirited Celtic cut is "Little Wing," deliciously resting on the contributions of the dropping-by Chieftains. Each and every cut sounds wired for radio play; unlike the less Americanized, riskier Cranberries, the Corrs should enjoy a career as nicely sustained as some of the girls' best musical notes.

Review by Becky Byrkit, Allmusic.com

Tracklist:

1. "Only When I Sleep" (The Corrs, Leiber, Peterson, Shanks) – 4:24
2. "When He's Not Around" (The Corrs) – 4:25
3. "Dreams" (Stevie Nicks) – 4:01
4. "What Can I Do (To Make You Love Me?)" (The Corrs) – 4:18
5. "I Never Loved You Anyway" (The Corrs, Sager) – 4:26
6. "So Young" (The Corrs) – 3:53
7. "Don't Say You Love Me" (The Corrs, Sager) – 4:39
8. "Love Gives Love Takes" (The Corrs, Deviller, Hosein, Leiber, Piersa, Wolff) – 3:42
9. "Hopelessly Addicted" (The Corrs, Leiber) – 4:03
10. "Paddy McCarthy" [instrumental] (The Corrs) – 4:58
11. "Intimacy" (Geraldo, Nowels, Steinberg) – 3:57
12. "Queen of Hollywood" (Ballard, The Corrs, Deviller, Hosein) – 5:02
13. "No Good for Me" (The Corrs) – 4:00
14. "Little Wing" (Jimi Hendrix) – 5:08


X Lossless Decoder version 20100711 (120.5)

XLD extraction logfile from 2012-03-08 11:43:39 +0600

The Corrs / Talk On Corners

Used drive : MATSHITA DVD-R UJ-898 (revision HC09)

Use cdparanoia mode : YES (CDParanoia III 10.2 engine)
Disable audio cache : OK for the drive with cache less than 2750KB
Make use of C2 pointers : NO
Read offset correction : 102
Max retry count : 100
Gap status : Analyzed, Appended

TOC of the extracted CD
Track | Start | Length | Start sector | End sector
––––––––––––––––––––––––––––-
1 | 00:00:00 | 04:24:52 | 0 | 19851
2 | 04:24:52 | 04:25:38 | 19852 | 39764
3 | 08:50:15 | 04:01:60 | 39765 | 57899
4 | 12:52:00 | 04:18:15 | 57900 | 77264
5 | 17:10:15 | 04:26:42 | 77265 | 97256
6 | 21:36:57 | 03:53:08 | 97257 | 114739
7 | 25:29:65 | 04:39:07 | 114740 | 135671
8 | 30:08:72 | 03:42:13 | 135672 | 152334
9 | 33:51:10 | 04:03:27 | 152335 | 170586
10 | 37:54:37 | 04:58:53 | 170587 | 192989
11 | 42:53:15 | 03:57:15 | 192990 | 210779
12 | 46:50:30 | 05:02:10 | 210780 | 233439
13 | 51:52:40 | 04:00:22 | 233440 | 251461
14 | 55:52:62 | 05:07:60 | 251462 | 274546

List of alternate offset correction values
# | Absolute | Relative | Confidence
–––––––––––––––––––––
1 | 1471 | 1369 | 200
2 | 802 | 700 | 118
3 | 138 | 36 | 10

All Tracks
Filename : /Users/Yuriy/Desktop/The Corrs-2011/The Corrs-1997/Talk On Corners.flac
CRC32 hash : E75CAD87
CRC32 hash (skip zero) : F7C9BA36
Statistics
Read error : 0
Skipped (treated as error) : 0
Edge jitter error (maybe fixed) : 0
Atom jitter error (maybe fixed) : 0
Drift error (maybe fixed) : 0
Dropped bytes error (maybe fixed) : 0
Duplicated bytes error (maybe fixed) : 0

Track 01

Pre-gap length : 00:02:00

CRC32 hash : AE5F06E5
CRC32 hash (skip zero) : 2B9A961D
AccurateRip signature : 9093CAFA
->Accurately ripped! (confidence 3)
Statistics
Read error : 0
Skipped (treated as error) : 0
Edge jitter error (maybe fixed) : 0
Atom jitter error (maybe fixed) : 0
Drift error (maybe fixed) : 0
Dropped bytes error (maybe fixed) : 0
Duplicated bytes error (maybe fixed) : 0

Track 02

Pre-gap length : 00:01:17

CRC32 hash : 20FA33BD
CRC32 hash (skip zero) : 5F3BAF50
AccurateRip signature : 98314230
->Accurately ripped! (confidence 3)
Statistics
Read error : 0
Skipped (treated as error) : 0
Edge jitter error (maybe fixed) : 0
Atom jitter error (maybe fixed) : 0
Drift error (maybe fixed) : 0
Dropped bytes error (maybe fixed) : 0
Duplicated bytes error (maybe fixed) : 0

Track 03

Pre-gap length : 00:01:33

CRC32 hash : ED4E868D
CRC32 hash (skip zero) : 895353B9
AccurateRip signature : 97FF3B0D
->Accurately ripped! (confidence 3)
Statistics
Read error : 0
Skipped (treated as error) : 0
Edge jitter error (maybe fixed) : 0
Atom jitter error (maybe fixed) : 0
Drift error (maybe fixed) : 0
Dropped bytes error (maybe fixed) : 0
Duplicated bytes error (maybe fixed) : 0

Track 04

Pre-gap length : 00:01:49

CRC32 hash : B83E7053
CRC32 hash (skip zero) : 6463DDB2
AccurateRip signature : BD91ADFD
->Accurately ripped! (confidence 3)
Statistics
Read error : 0
Skipped (treated as error) : 0
Edge jitter error (maybe fixed) : 0
Atom jitter error (maybe fixed) : 0
Drift error (maybe fixed) : 0
Dropped bytes error (maybe fixed) : 0
Duplicated bytes error (maybe fixed) : 0

Track 05

Pre-gap length : 00:00:59

CRC32 hash : FEB4539B
CRC32 hash (skip zero) : DC1C0C77
AccurateRip signature : 7C0B64C3
->Accurately ripped! (confidence 3)
Statistics
Read error : 0
Skipped (treated as error) : 0
Edge jitter error (maybe fixed) : 0
Atom jitter error (maybe fixed) : 0
Drift error (maybe fixed) : 0
Dropped bytes error (maybe fixed) : 0
Duplicated bytes error (maybe fixed) : 0

Track 06

Pre-gap length : 00:00:37

CRC32 hash : 0D5F86F9
CRC32 hash (skip zero) : 1B187BFB
AccurateRip signature : 209DC164
->Accurately ripped! (confidence 3)
Statistics
Read error : 0
Skipped (treated as error) : 0
Edge jitter error (maybe fixed) : 0
Atom jitter error (maybe fixed) : 0
Drift error (maybe fixed) : 0
Dropped bytes error (maybe fixed) : 0
Duplicated bytes error (maybe fixed) : 0

Track 07

Pre-gap length : 00:02:08

CRC32 hash : 25142F9C
CRC32 hash (skip zero) : 343A4366
AccurateRip signature : 433D35E5
->Accurately ripped! (confidence 3)
Statistics
Read error : 0
Skipped (treated as error) : 0
Edge jitter error (maybe fixed) : 0
Atom jitter error (maybe fixed) : 0
Drift error (maybe fixed) : 0
Dropped bytes error (maybe fixed) : 0
Duplicated bytes error (maybe fixed) : 0

Track 08

Pre-gap length : 00:01:65

CRC32 hash : FB029EE5
CRC32 hash (skip zero) : CED9C3F5
AccurateRip signature : 3CB14F8A
->Accurately ripped! (confidence 3)
Statistics
Read error : 0
Skipped (treated as error) : 0
Edge jitter error (maybe fixed) : 0
Atom jitter error (maybe fixed) : 0
Drift error (maybe fixed) : 0
Dropped bytes error (maybe fixed) : 0
Duplicated bytes error (maybe fixed) : 0

Track 09

Pre-gap length : 00:01:23

CRC32 hash : 2116C06D
CRC32 hash (skip zero) : E0C6F7CC
AccurateRip signature : CA504E71
->Accurately ripped! (confidence 3)
Statistics
Read error : 0
Skipped (treated as error) : 0
Edge jitter error (maybe fixed) : 0
Atom jitter error (maybe fixed) : 0
Drift error (maybe fixed) : 0
Dropped bytes error (maybe fixed) : 0
Duplicated bytes error (maybe fixed) : 0

Track 10

CRC32 hash : EF17961B
CRC32 hash (skip zero) : 4DDDFDEF
AccurateRip signature : 72EA9CE9
->Accurately ripped! (confidence 3)
Statistics
Read error : 0
Skipped (treated as error) : 0
Edge jitter error (maybe fixed) : 0
Atom jitter error (maybe fixed) : 0
Drift error (maybe fixed) : 0
Dropped bytes error (maybe fixed) : 0
Duplicated bytes error (maybe fixed) : 0

Track 11

Pre-gap length : 00:00:28

CRC32 hash : 5F6817D0
CRC32 hash (skip zero) : 3979A13E
AccurateRip signature : 4CCC9388
->Accurately ripped! (confidence 3)
Statistics
Read error : 0
Skipped (treated as error) : 0
Edge jitter error (maybe fixed) : 0
Atom jitter error (maybe fixed) : 0
Drift error (maybe fixed) : 0
Dropped bytes error (maybe fixed) : 0
Duplicated bytes error (maybe fixed) : 0

Track 12

CRC32 hash : D59F2818
CRC32 hash (skip zero) : 826F60CB
AccurateRip signature : 57D180AB
->Accurately ripped! (confidence 3)
Statistics
Read error : 0
Skipped (treated as error) : 0
Edge jitter error (maybe fixed) : 0
Atom jitter error (maybe fixed) : 0
Drift error (maybe fixed) : 0
Dropped bytes error (maybe fixed) : 0
Duplicated bytes error (maybe fixed) : 0

Track 13

CRC32 hash : 40F66B54
CRC32 hash (skip zero) : 3E87BB9C
AccurateRip signature : 951D18A5
->Accurately ripped! (confidence 3)
Statistics
Read error : 0
Skipped (treated as error) : 0
Edge jitter error (maybe fixed) : 0
Atom jitter error (maybe fixed) : 0
Drift error (maybe fixed) : 0
Dropped bytes error (maybe fixed) : 0
Duplicated bytes error (maybe fixed) : 0

Track 14

Pre-gap length : 00:01:62

CRC32 hash : E2A7349F
CRC32 hash (skip zero) : CAEF55AD
AccurateRip signature : 81352EFD
->Accurately ripped! (confidence 3)
Statistics
Read error : 0
Skipped (treated as error) : 0
Edge jitter error (maybe fixed) : 0
Atom jitter error (maybe fixed) : 0
Drift error (maybe fixed) : 0
Dropped bytes error (maybe fixed) : 0
Duplicated bytes error (maybe fixed) : 0

No errors occurred

End of status report

foobar2000 1.2 / Dynamic Range Meter 1.1.1
log date: 2014-04-11 00:24:08

––––––––––––––––––––––––––––––––––––––––
Analyzed: The Corrs / Talk On Corners
––––––––––––––––––––––––––––––––––––––––

DR Peak RMS Duration Track
––––––––––––––––––––––––––––––––––––––––
DR8 0.00 dB -9.52 dB 4:25 01-Only When I Sleep
DR8 0.00 dB -10.45 dB 4:26 02-When He's Not Around
DR7 -1.30 dB -9.75 dB 4:02 03-Dreams
DR8 -0.77 dB -10.96 dB 4:18 04-What Can I Do
DR7 0.00 dB -9.77 dB 4:27 05-I Never Loved You Anyway
DR7 -0.17 dB -9.20 dB 3:53 06-So Young
DR9 -0.18 dB -11.87 dB 4:39 07-Don't Say You Love Me
DR8 -0.37 dB -11.25 dB 3:42 08-Love Gives Love Takes
DR7 -0.69 dB -10.49 dB 4:03 09-Hopelessly Addicted
DR10 -0.18 dB -12.41 dB 4:59 10-Paddy McCarthy
DR8 0.00 dB -10.87 dB 3:57 11-Intimacy
DR6 -0.64 dB -9.17 dB 5:02 12-Queen Of Hollywood
DR7 -0.18 dB -8.27 dB 4:00 13-No Good For Me
DR8 -0.18 dB -10.21 dB 5:08 14-Little Wing
––––––––––––––––––––––––––––––––––––––––

Number of tracks: 14
Official DR value: DR8

Samplerate: 44100 Hz
Channels: 2
Bits per sample: 16
Bitrate: 992 kbps
Codec: FLAC
================================================================================


––––––––––––––––––––––––––––––––––––––––


The Corrs - Original Album Series (2011) 5CD Box Set [Re-Up]

CD3: In Blue (2000)
XLD | FLAC | Image (Cue&Log) ~ 446 Mb (incl 5%) | Mp3 (CBR320/Stereo) ~ 144 Mb (incl 5%) | Scans included | Time: 00:58:55

A very straightforward release from the Corrs, who spend the majority of this outing in full-blown pop mode, with the Celtic elements mostly being relegated to the backgrounds of several songs. The one exception is the closing instrumental, "Rebel Heart," which stirs itself up full-bloodily to provide the album with an anthem. In Blue is a bright, peppy set that bears more than a few comparisons to the work of bands such as the Bangles and Fanny, though the Corrs have an additional advantage in that Caroline Corr is an impressively muscular drummer. The CD includes a HyperCD section with a video for "Breathless" and various web links.

Review by Steven McDonald, Allmusic.com

Tracklist:

1. "Breathless" Corrs, Mutt Lange 3:28
2. "Give Me a Reason" Corrs 3:29
3. "Somebody for Someone" Corrs 4:00
4. "Say" Corrs 4:33
5. "All the Love in the World" Corrs, Lange 4:22
6. "Radio" Corrs 4:14
7. "Irresistible" Corrs, Lange 3:40
8. "One Night" Corrs 4:38
9. "All in a Day" Corrs 3:43
10. "At Your Side" Corrs 3:55
11. "No More Cry" Corrs 2:59
12. "Rain" Corrs 4:15
13. "Give It All Up" Corrs 3:28
14. "Hurt Before" Corrs 4:05
15. "Rebel Heart" Corrs 4:06


X Lossless Decoder version 20100711 (120.5)

XLD extraction logfile from 2012-03-08 12:05:46 +0600

The Corrs / In Blue

Used drive : MATSHITA DVD-R UJ-898 (revision HC09)

Use cdparanoia mode : YES (CDParanoia III 10.2 engine)
Disable audio cache : OK for the drive with cache less than 2750KB
Make use of C2 pointers : NO
Read offset correction : 102
Max retry count : 100
Gap status : Analyzed, Appended

TOC of the extracted CD
Track | Start | Length | Start sector | End sector
––––––––––––––––––––––––––––-
1 | 00:00:00 | 03:28:50 | 0 | 15649
2 | 03:28:50 | 03:29:47 | 15650 | 31371
3 | 06:58:22 | 04:00:65 | 31372 | 49436
4 | 10:59:12 | 04:33:63 | 49437 | 69974
5 | 15:33:00 | 04:22:57 | 69975 | 89681
6 | 19:55:57 | 04:14:45 | 89682 | 108776
7 | 24:10:27 | 03:40:50 | 108777 | 125326
8 | 27:51:02 | 04:38:03 | 125327 | 146179
9 | 32:29:05 | 03:43:30 | 146180 | 162934
10 | 36:12:35 | 03:55:30 | 162935 | 180589
11 | 40:07:65 | 02:59:30 | 180590 | 194044
12 | 43:07:20 | 04:15:27 | 194045 | 213196
13 | 47:22:47 | 03:28:50 | 213197 | 228846
14 | 50:51:22 | 04:05:05 | 228847 | 247226
15 | 54:56:27 | 04:06:13 | 247227 | 265689

List of alternate offset correction values
# | Absolute | Relative | Confidence
–––––––––––––––––––––
1 | 4 | -98 | 200
2 | 138 | 36 | 197
3 | 144 | 42 | 2

All Tracks
Filename : /Users/Yuriy/Desktop/The Corrs-2011/The Corrs-2000/In Blue.flac
CRC32 hash : 4B106108
CRC32 hash (skip zero) : 29EFD459
Statistics
Read error : 0
Skipped (treated as error) : 0
Edge jitter error (maybe fixed) : 0
Atom jitter error (maybe fixed) : 0
Drift error (maybe fixed) : 0
Dropped bytes error (maybe fixed) : 0
Duplicated bytes error (maybe fixed) : 0

Track 01

Pre-gap length : 00:02:00

CRC32 hash : A0E58864
CRC32 hash (skip zero) : DCE42F5D
AccurateRip signature : D0F3544F
->Accurately ripped! (confidence 3)
Statistics
Read error : 0
Skipped (treated as error) : 0
Edge jitter error (maybe fixed) : 0
Atom jitter error (maybe fixed) : 0
Drift error (maybe fixed) : 0
Dropped bytes error (maybe fixed) : 0
Duplicated bytes error (maybe fixed) : 0

Track 02

Pre-gap length : 00:01:48

CRC32 hash : E4EE5CCC
CRC32 hash (skip zero) : E61B52C4
AccurateRip signature : F51F9198
->Accurately ripped! (confidence 3)
Statistics
Read error : 0
Skipped (treated as error) : 0
Edge jitter error (maybe fixed) : 0
Atom jitter error (maybe fixed) : 0
Drift error (maybe fixed) : 0
Dropped bytes error (maybe fixed) : 0
Duplicated bytes error (maybe fixed) : 0

Track 03

CRC32 hash : 62C07410
CRC32 hash (skip zero) : 46C4D959
AccurateRip signature : DAC7F68F
->Accurately ripped! (confidence 3)
Statistics
Read error : 0
Skipped (treated as error) : 0
Edge jitter error (maybe fixed) : 0
Atom jitter error (maybe fixed) : 0
Drift error (maybe fixed) : 0
Dropped bytes error (maybe fixed) : 0
Duplicated bytes error (maybe fixed) : 0

Track 04

Pre-gap length : 00:00:37

CRC32 hash : 7C87B6E7
CRC32 hash (skip zero) : 0E143CA1
AccurateRip signature : 763D9AAB
->Accurately ripped! (confidence 3)
Statistics
Read error : 0
Skipped (treated as error) : 0
Edge jitter error (maybe fixed) : 0
Atom jitter error (maybe fixed) : 0
Drift error (maybe fixed) : 0
Dropped bytes error (maybe fixed) : 0
Duplicated bytes error (maybe fixed) : 0

Track 05

Pre-gap length : 00:01:28

CRC32 hash : ADCCAE1E
CRC32 hash (skip zero) : 27581DDD
AccurateRip signature : 4C924BD1
->Accurately ripped! (confidence 3)
Statistics
Read error : 0
Skipped (treated as error) : 0
Edge jitter error (maybe fixed) : 0
Atom jitter error (maybe fixed) : 0
Drift error (maybe fixed) : 0
Dropped bytes error (maybe fixed) : 0
Duplicated bytes error (maybe fixed) : 0

Track 06

Pre-gap length : 00:00:50

CRC32 hash : AC1B498A
CRC32 hash (skip zero) : 417A774F
AccurateRip signature : A3EE0016
->Accurately ripped! (confidence 3)
Statistics
Read error : 0
Skipped (treated as error) : 0
Edge jitter error (maybe fixed) : 0
Atom jitter error (maybe fixed) : 0
Drift error (maybe fixed) : 0
Dropped bytes error (maybe fixed) : 0
Duplicated bytes error (maybe fixed) : 0

Track 07

Pre-gap length : 00:00:17

CRC32 hash : 33B3B236
CRC32 hash (skip zero) : FA586A9B
AccurateRip signature : 627E1789
->Accurately ripped! (confidence 3)
Statistics
Read error : 0
Skipped (treated as error) : 0
Edge jitter error (maybe fixed) : 0
Atom jitter error (maybe fixed) : 0
Drift error (maybe fixed) : 0
Dropped bytes error (maybe fixed) : 0
Duplicated bytes error (maybe fixed) : 0

Track 08

Pre-gap length : 00:01:42

CRC32 hash : 665128AD
CRC32 hash (skip zero) : 100FBCB5
AccurateRip signature : 7CD65C26
->Accurately ripped! (confidence 3)
Statistics
Read error : 0
Skipped (treated as error) : 0
Edge jitter error (maybe fixed) : 0
Atom jitter error (maybe fixed) : 0
Drift error (maybe fixed) : 0
Dropped bytes error (maybe fixed) : 0
Duplicated bytes error (maybe fixed) : 0

Track 09

CRC32 hash : 3588C54D
CRC32 hash (skip zero) : AD2002C4
AccurateRip signature : 4D9A61A2
->Accurately ripped! (confidence 3)
Statistics
Read error : 0
Skipped (treated as error) : 0
Edge jitter error (maybe fixed) : 0
Atom jitter error (maybe fixed) : 0
Drift error (maybe fixed) : 0
Dropped bytes error (maybe fixed) : 0
Duplicated bytes error (maybe fixed) : 0

Track 10

CRC32 hash : DAEE0E4A
CRC32 hash (skip zero) : 714FF7D5
AccurateRip signature : A0FEDCB4
->Accurately ripped! (confidence 3)
Statistics
Read error : 0
Skipped (treated as error) : 0
Edge jitter error (maybe fixed) : 0
Atom jitter error (maybe fixed) : 0
Drift error (maybe fixed) : 0
Dropped bytes error (maybe fixed) : 0
Duplicated bytes error (maybe fixed) : 0

Track 11

CRC32 hash : 0BAF4DED
CRC32 hash (skip zero) : E35D8CBE
AccurateRip signature : 4813E460
->Accurately ripped! (confidence 3)
Statistics
Read error : 0
Skipped (treated as error) : 0
Edge jitter error (maybe fixed) : 0
Atom jitter error (maybe fixed) : 0
Drift error (maybe fixed) : 0
Dropped bytes error (maybe fixed) : 0
Duplicated bytes error (maybe fixed) : 0

Track 12

Pre-gap length : 00:01:10

CRC32 hash : E004670D
CRC32 hash (skip zero) : C341EB47
AccurateRip signature : 7AB65253
->Accurately ripped! (confidence 3)
Statistics
Read error : 0
Skipped (treated as error) : 0
Edge jitter error (maybe fixed) : 0
Atom jitter error (maybe fixed) : 0
Drift error (maybe fixed) : 0
Dropped bytes error (maybe fixed) : 0
Duplicated bytes error (maybe fixed) : 0

Track 13

Pre-gap length : 00:00:15

CRC32 hash : 34065A4B
CRC32 hash (skip zero) : 1BCA0E9D
AccurateRip signature : A0FB2674
->Accurately ripped! (confidence 3)
Statistics
Read error : 0
Skipped (treated as error) : 0
Edge jitter error (maybe fixed) : 0
Atom jitter error (maybe fixed) : 0
Drift error (maybe fixed) : 0
Dropped bytes error (maybe fixed) : 0
Duplicated bytes error (maybe fixed) : 0

Track 14

Pre-gap length : 00:00:70

CRC32 hash : A1F8C7A8
CRC32 hash (skip zero) : 0AF8BAF4
AccurateRip signature : 6CD86CFE
->Accurately ripped! (confidence 3)
Statistics
Read error : 0
Skipped (treated as error) : 0
Edge jitter error (maybe fixed) : 0
Atom jitter error (maybe fixed) : 0
Drift error (maybe fixed) : 0
Dropped bytes error (maybe fixed) : 0
Duplicated bytes error (maybe fixed) : 0

Track 15

Pre-gap length : 00:03:30

CRC32 hash : 019597D9
CRC32 hash (skip zero) : ADD0CCF7
AccurateRip signature : 75083856
->Accurately ripped! (confidence 3)
Statistics
Read error : 0
Skipped (treated as error) : 0
Edge jitter error (maybe fixed) : 0
Atom jitter error (maybe fixed) : 0
Drift error (maybe fixed) : 0
Dropped bytes error (maybe fixed) : 0
Duplicated bytes error (maybe fixed) : 0

No errors occurred

End of status report

foobar2000 1.2 / Dynamic Range Meter 1.1.1
log date: 2014-04-11 00:24:27

––––––––––––––––––––––––––––––––––––––––
Analyzed: The Corrs / In Blue
––––––––––––––––––––––––––––––––––––––––

DR Peak RMS Duration Track
––––––––––––––––––––––––––––––––––––––––
DR9 -0.10 dB -10.34 dB 3:29 01-Breathless
DR9 -0.10 dB -10.62 dB 3:30 02-Give Me A Reason
DR8 -0.10 dB -10.75 dB 4:01 03-Somebody For Someone
DR9 -0.10 dB -10.20 dB 4:34 04-Say
DR9 -0.10 dB -11.56 dB 4:23 05-All The Love In The World
DR9 -0.10 dB -11.48 dB 4:15 06-Radio
DR8 0.00 dB -10.07 dB 3:41 07-Irresistible
DR9 -0.10 dB -11.56 dB 4:38 08-One Night
DR9 -0.10 dB -10.62 dB 3:43 09-All In A Day
DR9 -0.10 dB -10.34 dB 3:55 10-At Your Side
DR8 -0.10 dB -9.35 dB 2:59 11-No More Cry
DR10 -0.10 dB -11.50 dB 4:15 12-Rain
DR9 -0.10 dB -11.09 dB 3:29 13-Give It All Up
DR11 -0.10 dB -13.34 dB 4:05 14-Hurt Before
DR9 -0.10 dB -11.08 dB 4:06 15-Rebel Heart
––––––––––––––––––––––––––––––––––––––––

Number of tracks: 15
Official DR value: DR9

Samplerate: 44100 Hz
Channels: 2
Bits per sample: 16
Bitrate: 1000 kbps
Codec: FLAC
================================================================================


––––––––––––––––––––––––––––––––––––––––


The Corrs - Original Album Series (2011) 5CD Box Set [Re-Up]

CD4: Borrowed Heaven (2004)
XLD | FLAC | Image (Cue&Log) ~ 346 Mb (incl 5%) | Mp3 (CBR320/Stereo) ~ 110 Mb (incl 5%) | Scans included | Time: 00:45:12

Their detractors still whine about how the Corrs used to be so Celtic (they were somewhat, but not to the degree the bellyaching infers) and now they're so light in the substance department (so was ABBA; so what?). They'll hate this one because Borrowed Heaven is light as a feather, but what harmonies, what presentation. While it's lighter in singles than their better albums, Borrowed Heaven benefits plenty from the bright, slightly electronica, and crystal-clear production courtesy of Olle Romo. While former producers – bombastateers Robert John "Mutt" Lange and Glen Ballard – brought the band big productions with big possibilities, Romo offers a more intimate Corrs, better for sitting in your room than spinning in the sunlight. With no hip-hop or punk angst on Borrowed Heaven, the band is out of touch with 2004 radio, so creating a fan's album ends up both a smart and comfortable move. Minus the bubbly good and pretty vacant kickoff single, "Summer Sunshine," plus a couple mundane fluff fillers, Borrowed Heaven is the most personal Corrs album since their debut, and you can't help but feel that it's due to Romo's light touch. He's out of the picture when need be, but always there with an interesting studio trick when the album starts spinning its wheels. The best example is the exchange between his synth fills and the band's boisterous reel on "Angel," but you can also choose the way he makes the band actually sound funky on "Humdrum" or the way he tones down the Bono and Gavin Friday-penned "Time Enough for Tears" to a believable and touching level. Andrea Corr's performance here is serene and more sincere than the one she did for the In America soundtrack, and it anchors the album. Ladysmith Black Mambazo guest on the title track, a dreamy, Peter Gabriel-styled number with another great performance from Andrea. Lyrically, the more intimate Corrs are fine and forgettable most of the time, but occasionally clichés are delivered in such an earnest manner they're hard to ignore (the death-of-a-loved-one song "Goodbye" opens with the good old "I never thought you would leave"). Borrowed Heaven's lyric sheet is filled with high-school diary hackneyed favorites, but if you like your pop – unadulterated pop – presented and played extremely well, you're cheating yourself if you don't check it out.

Review by David Jeffries, Allmusic.com

Tracklist:

1. "Summer Sunshine" 2:53
2. "Angel" 3:26
3. "Hideaway" 3:17
4. "Long Night" 3:47
5. "Goodbye" 4:11
6. "Time Enough For Tears" 5:03
7. "Humdrum" 3:43
8. "Even If" 3:03
9. "Borrowed Heaven" 4:21
10. "Confidence For Quiet" 3:11
11. "Baby Be Brave" 3:58
12. "Silver Strand" 4:26


X Lossless Decoder version 20100711 (120.5)

XLD extraction logfile from 2012-03-08 12:23:36 +0600

The Corrs / Borrowed Heaven

Used drive : MATSHITA DVD-R UJ-898 (revision HC09)

Use cdparanoia mode : YES (CDParanoia III 10.2 engine)
Disable audio cache : OK for the drive with cache less than 2750KB
Make use of C2 pointers : NO
Read offset correction : 102
Max retry count : 100
Gap status : Analyzed, Appended

TOC of the extracted CD
Track | Start | Length | Start sector | End sector
––––––––––––––––––––––––––––-
1 | 00:00:00 | 02:53:02 | 0 | 12976
2 | 02:53:02 | 03:25:73 | 12977 | 28424
3 | 06:19:00 | 03:17:52 | 28425 | 43251
4 | 09:36:52 | 03:47:70 | 43252 | 60346
5 | 13:24:47 | 04:08:03 | 60347 | 78949
6 | 17:32:50 | 05:03:22 | 78950 | 101696
7 | 22:35:72 | 03:43:05 | 101697 | 118426
8 | 26:19:02 | 03:02:70 | 118427 | 132146
9 | 29:21:72 | 04:21:20 | 132147 | 151741
10 | 33:43:17 | 03:10:63 | 151742 | 166054
11 | 36:54:05 | 03:58:07 | 166055 | 183911
12 | 40:52:12 | 04:25:20 | 183912 | 203806

List of alternate offset correction values
# | Absolute | Relative | Confidence
–––––––––––––––––––––
1 | 1430 | 1328 | 200
2 | 1424 | 1322 | 66
3 | 1302 | 1200 | 4
4 | 754 | 652 | 3
5 | 784 | 682 | 3
6 | 1400 | 1298 | 3
7 | 114 | 12 | 2
8 | 1364 | 1262 | 2

All Tracks
Filename : /Users/Yuriy/Desktop/The Corrs-2011/The Corrs-2004/Borrowed Heaven.flac
CRC32 hash : 3764E380
CRC32 hash (skip zero) : 33A3D06D
Statistics
Read error : 0
Skipped (treated as error) : 0
Edge jitter error (maybe fixed) : 0
Atom jitter error (maybe fixed) : 0
Drift error (maybe fixed) : 0
Dropped bytes error (maybe fixed) : 0
Duplicated bytes error (maybe fixed) : 0

Track 01

Pre-gap length : 00:02:00

CRC32 hash : EF32FFEE
CRC32 hash (skip zero) : AABE85E2
AccurateRip signature : 29F40936
->Accurately ripped! (confidence 3)
Statistics
Read error : 0
Skipped (treated as error) : 0
Edge jitter error (maybe fixed) : 0
Atom jitter error (maybe fixed) : 0
Drift error (maybe fixed) : 0
Dropped bytes error (maybe fixed) : 0
Duplicated bytes error (maybe fixed) : 0

Track 02

CRC32 hash : B96634D2
CRC32 hash (skip zero) : 06B841B6
AccurateRip signature : B6D78125
->Accurately ripped! (confidence 3)
Statistics
Read error : 0
Skipped (treated as error) : 0
Edge jitter error (maybe fixed) : 0
Atom jitter error (maybe fixed) : 0
Drift error (maybe fixed) : 0
Dropped bytes error (maybe fixed) : 0
Duplicated bytes error (maybe fixed) : 0

Track 03

CRC32 hash : 1F065F19
CRC32 hash (skip zero) : BC93EFFB
AccurateRip signature : 2FB04333
->Accurately ripped! (confidence 3)
Statistics
Read error : 0
Skipped (treated as error) : 0
Edge jitter error (maybe fixed) : 0
Atom jitter error (maybe fixed) : 0
Drift error (maybe fixed) : 0
Dropped bytes error (maybe fixed) : 0
Duplicated bytes error (maybe fixed) : 0

Track 04

CRC32 hash : 0CA86AA2
CRC32 hash (skip zero) : C2A50B22
AccurateRip signature : E40151A9
->Accurately ripped! (confidence 3)
Statistics
Read error : 0
Skipped (treated as error) : 0
Edge jitter error (maybe fixed) : 0
Atom jitter error (maybe fixed) : 0
Drift error (maybe fixed) : 0
Dropped bytes error (maybe fixed) : 0
Duplicated bytes error (maybe fixed) : 0

Track 05

Pre-gap length : 00:00:42

CRC32 hash : 108A3D3A
CRC32 hash (skip zero) : D8CB77C4
AccurateRip signature : 8AE47B3F
->Accurately ripped! (confidence 3)
Statistics
Read error : 0
Skipped (treated as error) : 0
Edge jitter error (maybe fixed) : 0
Atom jitter error (maybe fixed) : 0
Drift error (maybe fixed) : 0
Dropped bytes error (maybe fixed) : 0
Duplicated bytes error (maybe fixed) : 0

Track 06

CRC32 hash : 221627A2
CRC32 hash (skip zero) : 19BF1F07
AccurateRip signature : 84DF6591
->Accurately ripped! (confidence 3)
Statistics
Read error : 0
Skipped (treated as error) : 0
Edge jitter error (maybe fixed) : 0
Atom jitter error (maybe fixed) : 0
Drift error (maybe fixed) : 0
Dropped bytes error (maybe fixed) : 0
Duplicated bytes error (maybe fixed) : 0

Track 07

CRC32 hash : B69A04F7
CRC32 hash (skip zero) : 212EC444
AccurateRip signature : B508612E
->Accurately ripped! (confidence 3)
Statistics
Read error : 0
Skipped (treated as error) : 0
Edge jitter error (maybe fixed) : 0
Atom jitter error (maybe fixed) : 0
Drift error (maybe fixed) : 0
Dropped bytes error (maybe fixed) : 0
Duplicated bytes error (maybe fixed) : 0

Track 08

CRC32 hash : 3F182380
CRC32 hash (skip zero) : BC14F3F4
AccurateRip signature : 30D30687
->Accurately ripped! (confidence 3)
Statistics
Read error : 0
Skipped (treated as error) : 0
Edge jitter error (maybe fixed) : 0
Atom jitter error (maybe fixed) : 0
Drift error (maybe fixed) : 0
Dropped bytes error (maybe fixed) : 0
Duplicated bytes error (maybe fixed) : 0

Track 09

CRC32 hash : E7D29010
CRC32 hash (skip zero) : BA98070C
AccurateRip signature : C619163A
->Accurately ripped! (confidence 3)
Statistics
Read error : 0
Skipped (treated as error) : 0
Edge jitter error (maybe fixed) : 0
Atom jitter error (maybe fixed) : 0
Drift error (maybe fixed) : 0
Dropped bytes error (maybe fixed) : 0
Duplicated bytes error (maybe fixed) : 0

Track 10

CRC32 hash : 53E8AF61
CRC32 hash (skip zero) : 86E88468
AccurateRip signature : 2AAEB4EA
->Accurately ripped! (confidence 3)
Statistics
Read error : 0
Skipped (treated as error) : 0
Edge jitter error (maybe fixed) : 0
Atom jitter error (maybe fixed) : 0
Drift error (maybe fixed) : 0
Dropped bytes error (maybe fixed) : 0
Duplicated bytes error (maybe fixed) : 0

Track 11

CRC32 hash : 5026A792
CRC32 hash (skip zero) : 4DE55BC2
AccurateRip signature : 3B022F3B
->Accurately ripped! (confidence 3)
Statistics
Read error : 0
Skipped (treated as error) : 0
Edge jitter error (maybe fixed) : 0
Atom jitter error (maybe fixed) : 0
Drift error (maybe fixed) : 0
Dropped bytes error (maybe fixed) : 0
Duplicated bytes error (maybe fixed) : 0

Track 12

CRC32 hash : F9C0B9E2
CRC32 hash (skip zero) : E7F52EED
AccurateRip signature : 1558AEFF
->Accurately ripped! (confidence 3)
Statistics
Read error : 0
Skipped (treated as error) : 0
Edge jitter error (maybe fixed) : 0
Atom jitter error (maybe fixed) : 0
Drift error (maybe fixed) : 0
Dropped bytes error (maybe fixed) : 0
Duplicated bytes error (maybe fixed) : 0

No errors occurred

End of status report

foobar2000 1.2 / Dynamic Range Meter 1.1.1
log date: 2014-04-11 00:24:40

––––––––––––––––––––––––––––––––––––––––
Analyzed: The Corrs / Borrowed Heaven
––––––––––––––––––––––––––––––––––––––––

DR Peak RMS Duration Track
––––––––––––––––––––––––––––––––––––––––
DR5 -0.60 dB -8.64 dB 2:53 01-Summer Sunshine
DR5 -0.32 dB -7.75 dB 3:26 02-Angel
DR5 -0.02 dB -8.09 dB 3:18 03-Hideway
DR4 -0.02 dB -8.48 dB 3:48 04-Long Night
DR4 -0.02 dB -6.97 dB 4:08 05-Goodbye
DR6 -0.22 dB -9.17 dB 5:03 06-Time Enough For Tears
DR5 -0.31 dB -7.81 dB 3:43 07-Humdrum
DR6 -0.02 dB -8.23 dB 3:03 08-Even If
DR5 -0.83 dB -9.04 dB 4:21 09-Borrowed Heaven
DR5 -0.63 dB -7.93 dB 3:11 10-Confidence For Quiet
DR5 -0.22 dB -7.23 dB 3:58 11-Baby Be Brave
DR5 -0.60 dB -8.36 dB 4:25 12-Silver Strand
––––––––––––––––––––––––––––––––––––––––

Number of tracks: 12
Official DR value: DR5

Samplerate: 44100 Hz
Channels: 2
Bits per sample: 16
Bitrate: 1012 kbps
Codec: FLAC
================================================================================


––––––––––––––––––––––––––––––––––––––––


The Corrs - Original Album Series (2011) 5CD Box Set [Re-Up]

CD5: Home (2005)
XLD | FLAC | Image (Cue&Log) ~ 318 Mb (incl 5%) | Mp3 (CBR320/Stereo) ~ 111 Mb (incl 5%) | Scans included | Time: 00:45:47

The title of the Corrs' fifth full-length studio album, Home, alludes to the fact that the family quartet is returning to its Celtic roots after spending several years pursuing crossover pop success. Not that the group has abandoned the perks of its international fame – this time around, they've gotten superstar producer Mitchell Froom to helm the recording – nor has the group ever been a strictly traditional Celtic group; even on their debut album they worked with producer David Foster, best known for his adult contemporary hits for Celine Dion and Whitney Houston, which isn't exactly traditional. In fact, Froom helps guide the Corrs to make their most traditional Celtic album ever, while retaining the pleasingly polished production of their crossover pop albums. Home also has a shade of the artiness that has marked Froom's past productions – he doesn't simply let the music breathe, he has it paint soundscapes – without getting overwhelmed with trickery. He lets the Corrs takes center stage and they've never sounded better than they do here, due both to the recording and the excellent song selection. The quartet relies heavily on a songbook of their late mother, but among these traditional songs they weave in such contemporary classics as Anna McGarrigle's "Heart Like a Wheel" and Richard Thompson's "Dimming of the Day," while adding Phil Lynott's "Old Town" for a welcome, lighthearted change of pace. It all adds up to a rich, resonant album that's the Corrs' best to date.

Review by Stephen Thomas Erlewine, Allmusic.com

Tracklist:

1. My Lagan Love 4:20
2. Spancill Hill 5:08
3. Peggy Gordon 4:26
4. Black Is The Colour 3:49
5. Heart Like A Wheel 3:53
6. Buachaill On Eirne 3:14
7. Old Hag 3:43
8. Moorlough Shore 4:17
9. Old Town 3:47
10. Dimming Of The Day 2:57
11. Brid Og Ni Mhaille 3:39
12. Haste To The Wedding 2:27


X Lossless Decoder version 20100711 (120.5)

XLD extraction logfile from 2012-03-08 12:49:50 +0600

The Corrs / Home

Used drive : MATSHITA DVD-R UJ-898 (revision HC09)

Use cdparanoia mode : YES (CDParanoia III 10.2 engine)
Disable audio cache : OK for the drive with cache less than 2750KB
Make use of C2 pointers : NO
Read offset correction : 102
Max retry count : 100
Gap status : Analyzed, Appended

TOC of the extracted CD
Track | Start | Length | Start sector | End sector
––––––––––––––––––––––––––––-
1 | 00:00:00 | 04:20:12 | 0 | 19511
2 | 04:20:12 | 05:08:58 | 19512 | 42669
3 | 09:28:70 | 04:26:00 | 42670 | 62619
4 | 13:54:70 | 03:49:25 | 62620 | 79819
5 | 17:44:20 | 03:53:25 | 79820 | 97319
6 | 21:37:45 | 03:14:60 | 97320 | 111929
7 | 24:52:30 | 03:43:72 | 111930 | 128726
8 | 28:36:27 | 04:17:33 | 128727 | 148034
9 | 32:53:60 | 03:47:07 | 148035 | 165066
10 | 36:40:67 | 02:57:45 | 165067 | 178386
11 | 39:38:37 | 03:39:15 | 178387 | 194826
12 | 43:17:52 | 02:27:30 | 194827 | 205881

List of alternate offset correction values
# | Absolute | Relative | Confidence
–––––––––––––––––––––
1 | -526 | -628 | 148
2 | -592 | -694 | 3
3 | -520 | -622 | 3
4 | -1190 | -1292 | 2

All Tracks
Filename : /Users/Yuriy/Desktop/The Corrs-2011/The Corrs-2005/Home.flac
CRC32 hash : 20D66A06
CRC32 hash (skip zero) : C47864F6
Statistics
Read error : 0
Skipped (treated as error) : 0
Edge jitter error (maybe fixed) : 0
Atom jitter error (maybe fixed) : 0
Drift error (maybe fixed) : 0
Dropped bytes error (maybe fixed) : 0
Duplicated bytes error (maybe fixed) : 0

Track 01

Pre-gap length : 00:02:00

CRC32 hash : D4F87779
CRC32 hash (skip zero) : 0B9709A7
AccurateRip signature : 2C0D08C2
->Accurately ripped! (confidence 3)
Statistics
Read error : 0
Skipped (treated as error) : 0
Edge jitter error (maybe fixed) : 0
Atom jitter error (maybe fixed) : 0
Drift error (maybe fixed) : 0
Dropped bytes error (maybe fixed) : 0
Duplicated bytes error (maybe fixed) : 0

Track 02

CRC32 hash : 7FEB9CDC
CRC32 hash (skip zero) : CE9E9511
AccurateRip signature : AB7EC0B0
->Accurately ripped! (confidence 3)
Statistics
Read error : 0
Skipped (treated as error) : 0
Edge jitter error (maybe fixed) : 0
Atom jitter error (maybe fixed) : 0
Drift error (maybe fixed) : 0
Dropped bytes error (maybe fixed) : 0
Duplicated bytes error (maybe fixed) : 0

Track 03

CRC32 hash : 59CCECC1
CRC32 hash (skip zero) : 350BB67D
AccurateRip signature : D4AFC60F
->Accurately ripped! (confidence 3)
Statistics
Read error : 0
Skipped (treated as error) : 0
Edge jitter error (maybe fixed) : 0
Atom jitter error (maybe fixed) : 0
Drift error (maybe fixed) : 0
Dropped bytes error (maybe fixed) : 0
Duplicated bytes error (maybe fixed) : 0

Track 04

CRC32 hash : 55C81526
CRC32 hash (skip zero) : F83F41D8
AccurateRip signature : 23C34A22
->Accurately ripped! (confidence 3)
Statistics
Read error : 0
Skipped (treated as error) : 0
Edge jitter error (maybe fixed) : 0
Atom jitter error (maybe fixed) : 0
Drift error (maybe fixed) : 0
Dropped bytes error (maybe fixed) : 0
Duplicated bytes error (maybe fixed) : 0

Track 05

CRC32 hash : 9E82E9CD
CRC32 hash (skip zero) : 3A4D481D
AccurateRip signature : 7D99258A
->Accurately ripped! (confidence 3)
Statistics
Read error : 0
Skipped (treated as error) : 0
Edge jitter error (maybe fixed) : 0
Atom jitter error (maybe fixed) : 0
Drift error (maybe fixed) : 0
Dropped bytes error (maybe fixed) : 0
Duplicated bytes error (maybe fixed) : 0

Track 06

CRC32 hash : 4B7EFDF2
CRC32 hash (skip zero) : 36E70E74
AccurateRip signature : 7990B932
->Accurately ripped! (confidence 3)
Statistics
Read error : 0
Skipped (treated as error) : 0
Edge jitter error (maybe fixed) : 0
Atom jitter error (maybe fixed) : 0
Drift error (maybe fixed) : 0
Dropped bytes error (maybe fixed) : 0
Duplicated bytes error (maybe fixed) : 0

Track 07

CRC32 hash : F093BB33
CRC32 hash (skip zero) : 2D4FB69D
AccurateRip signature : 3A264700
->Accurately ripped! (confidence 3)
Statistics
Read error : 0
Skipped (treated as error) : 0
Edge jitter error (maybe fixed) : 0
Atom jitter error (maybe fixed) : 0
Drift error (maybe fixed) : 0
Dropped bytes error (maybe fixed) : 0
Duplicated bytes error (maybe fixed) : 0

Track 08

CRC32 hash : 62E89E07
CRC32 hash (skip zero) : 3105B540
AccurateRip signature : 6826486F
->Accurately ripped! (confidence 3)
Statistics
Read error : 0
Skipped (treated as error) : 0
Edge jitter error (maybe fixed) : 0
Atom jitter error (maybe fixed) : 0
Drift error (maybe fixed) : 0
Dropped bytes error (maybe fixed) : 0
Duplicated bytes error (maybe fixed) : 0

Track 09

CRC32 hash : E94EFC0C
CRC32 hash (skip zero) : BBFA4999
AccurateRip signature : 71ACBCD5
->Accurately ripped! (confidence 3)
Statistics
Read error : 0
Skipped (treated as error) : 0
Edge jitter error (maybe fixed) : 0
Atom jitter error (maybe fixed) : 0
Drift error (maybe fixed) : 0
Dropped bytes error (maybe fixed) : 0
Duplicated bytes error (maybe fixed) : 0

Track 10

CRC32 hash : 21EB6959
CRC32 hash (skip zero) : 05C528FE
AccurateRip signature : C218943D
->Accurately ripped! (confidence 3)
Statistics
Read error : 0
Skipped (treated as error) : 0
Edge jitter error (maybe fixed) : 0
Atom jitter error (maybe fixed) : 0
Drift error (maybe fixed) : 0
Dropped bytes error (maybe fixed) : 0
Duplicated bytes error (maybe fixed) : 0

Track 11

Pre-gap length : 00:00:54

CRC32 hash : 10E428B3
CRC32 hash (skip zero) : DC945C23
AccurateRip signature : F9A392EF
->Accurately ripped! (confidence 3)
Statistics
Read error : 0
Skipped (treated as error) : 0
Edge jitter error (maybe fixed) : 0
Atom jitter error (maybe fixed) : 0
Drift error (maybe fixed) : 0
Dropped bytes error (maybe fixed) : 0
Duplicated bytes error (maybe fixed) : 0

Track 12

CRC32 hash : F1CF2339
CRC32 hash (skip zero) : D4875643
AccurateRip signature : 531D203D
->Accurately ripped! (confidence 3)
Statistics
Read error : 0
Skipped (treated as error) : 0
Edge jitter error (maybe fixed) : 0
Atom jitter error (maybe fixed) : 0
Drift error (maybe fixed) : 0
Dropped bytes error (maybe fixed) : 0
Duplicated bytes error (maybe fixed) : 0

No errors occurred

End of status report

foobar2000 1.2 / Dynamic Range Meter 1.1.1
log date: 2014-04-11 00:24:54

––––––––––––––––––––––––––––––––––––––––
Analyzed: The Corrs / Home
––––––––––––––––––––––––––––––––––––––––

DR Peak RMS Duration Track
––––––––––––––––––––––––––––––––––––––––
DR7 -0.10 dB -9.08 dB 4:20 01-My Lagan Love
DR7 -0.10 dB -9.83 dB 5:09 02-Spancil Hill
DR7 -0.10 dB -8.97 dB 4:26 03-Peggy Gordon
DR6 0.00 dB -7.54 dB 3:49 04-Black Is The Colour
DR10 -0.10 dB -12.47 dB 3:53 05-Heart Like A Wheel
DR7 -0.10 dB -9.05 dB 3:15 06-Buachaill On Eirne
DR8 -0.10 dB -9.87 dB 3:44 07-Old Hag
DR6 -0.10 dB -7.77 dB 4:17 08-Moorlough Shore
DR6 -0.10 dB -8.08 dB 3:47 09-Old Town
DR9 -0.10 dB -11.90 dB 2:58 10-Dimming Of The Day
DR9 -0.10 dB -11.62 dB 3:39 11-Brid Og Ni Mhaille
DR7 -0.10 dB -9.40 dB 2:27 12-Haste To The Wedding
––––––––––––––––––––––––––––––––––––––––

Number of tracks: 12
Official DR value: DR7

Samplerate: 44100 Hz
Channels: 2
Bits per sample: 16
Bitrate: 923 kbps
Codec: FLAC
================================================================================


––––––––––––––––––––––––––––––––––––––––

The Corrs - Original Album Series (2011) 5CD Box Set [Re-Up]