The Best Of Mtume & Lucas (2004)

Posted By: JET 1
The Best Of Mtume & Lucas (2004)

The Best Of Mtume & Lucas (2004)
EAC Rip | FLAC (Tracks) +CUE, LOG | 640 MB | Covers Included
Soul | Label: Expansion Records | Catalog Number: CDEXCP 19

This collection of soul/jazz tracks have two things in common: They're all quite sexy, and they were all produced by by the production team of James Mtume and Reggie Lucas. Features performances by Phyllis Hyman, Stephanie Mills, Teddy Pendergrass, the Spinners, and Lou Rawls, among others.

Exact Audio Copy V1.0 beta 3 from 29. August 2011

EAC extraction logfile from 4. October 2014, 12:43

Various / The Best Of Mtume & Lucas

Used drive : GENERIC CDRCB05 Adapter: 4 ID: 0

Read mode : Secure
Utilize accurate stream : Yes
Defeat audio cache : Yes
Make use of C2 pointers : No

Read offset correction : 102
Overread into Lead-In and Lead-Out : No
Fill up missing offset samples with silence : Yes
Delete leading and trailing silent blocks : No
Null samples used in CRC calculations : Yes
Used interface : Native Win32 interface for Win NT & 2000
Gap handling : Appended to previous track

Used output format : User Defined Encoder
Selected bitrate : 1024 kBit/s
Quality : High
Add ID3 tag : No
Command line compressor : C:\Program Files\FLAC\flac.exe
Additional command line options : -8 -V -T "ARTIST=%artist%" -T "TITLE=%title%" -T "ALBUM=%albumtitle%" -T "DATE=%year%" -T "TRACKNUMBER=%tracknr%" -T "GENRE=%genre%" -T "PERFORMER=%albuminterpret%" -T "COMPOSER=%composer%" %haslyrics%–tag-from-file=LYRICS="%lyricsfile%"%haslyrics% -T "ALBUMARTIST=%albumartist%" -T "DISCNUMBER=%cdnumber%" -T "TOTALDISCS=%totalcds%" -T "TOTALTRACKS=%numtracks%" -T "COMMENT=%comment%" %source% -o %dest%


TOC of the extracted CD

Track | Start | Length | Start sector | End sector
––––––––––––––––––––––––––––-
1 | 0:00.00 | 5:11.43 | 0 | 23367
2 | 5:11.43 | 7:37.51 | 23368 | 57693
3 | 12:49.19 | 4:40.52 | 57694 | 78745
4 | 17:29.71 | 5:23.00 | 78746 | 102970
5 | 22:52.71 | 5:11.29 | 102971 | 126324
6 | 28:04.25 | 3:42.67 | 126325 | 143041
7 | 31:47.17 | 4:31.03 | 143042 | 163369
8 | 36:18.20 | 8:04.28 | 163370 | 199697
9 | 44:22.48 | 4:57.02 | 199698 | 221974
10 | 49:19.50 | 5:07.66 | 221975 | 245065
11 | 54:27.41 | 3:58.48 | 245066 | 262963
12 | 58:26.14 | 5:54.72 | 262964 | 289585
13 | 64:21.11 | 5:42.05 | 289586 | 315240
14 | 70:03.16 | 3:28.37 | 315241 | 330877
15 | 73:31.53 | 4:39.12 | 330878 | 351814


Track 1

Filename F:\0\!!!!!POST!!!!\The Best Of Mtume & Lucas (2004)\01 One Minute From Love.wav

Pre-gap length 0:00:02.00

Peak level 99.7 %
Extraction speed 2.5 X
Track quality 100.0 %
Test CRC 487A53C5
Copy CRC 487A53C5
Accurately ripped (confidence 5) [EB38180D] (AR v1)
Copy OK

Track 2

Filename F:\0\!!!!!POST!!!!\The Best Of Mtume & Lucas (2004)\02 You Know How To Love Me.wav

Pre-gap length 0:00:02.68

Peak level 99.7 %
Extraction speed 3.0 X
Track quality 100.0 %
Test CRC 8F324682
Copy CRC 8F324682
Accurately ripped (confidence 5) [353D094F] (AR v1)
Copy OK

Track 3

Filename F:\0\!!!!!POST!!!!\The Best Of Mtume & Lucas (2004)\03 Two Hearts.wav

Pre-gap length 0:00:02.68

Peak level 94.1 %
Extraction speed 3.1 X
Track quality 100.0 %
Test CRC 2BBE7568
Copy CRC 2BBE7568
Accurately ripped (confidence 5) [739B9E66] (AR v1)
Copy OK

Track 4

Filename F:\0\!!!!!POST!!!!\The Best Of Mtume & Lucas (2004)\04 Step In The Light.wav

Pre-gap length 0:00:02.68

Peak level 99.7 %
Extraction speed 3.1 X
Track quality 99.9 %
Test CRC CF936762
Copy CRC CF936762
Accurately ripped (confidence 5) [C542F614] (AR v1)
Copy OK

Track 5

Filename F:\0\!!!!!POST!!!!\The Best Of Mtume & Lucas (2004)\05 Got To Be Love.wav

Pre-gap length 0:00:02.68

Peak level 99.7 %
Extraction speed 3.3 X
Track quality 99.9 %
Test CRC 824A652F
Copy CRC 824A652F
Accurately ripped (confidence 5) [FA981554] (AR v1)
Copy OK

Track 6

Filename F:\0\!!!!!POST!!!!\The Best Of Mtume & Lucas (2004)\06 Now Is The Time For Love.wav

Pre-gap length 0:00:02.68

Peak level 99.7 %
Extraction speed 3.7 X
Track quality 100.0 %
Test CRC D62862EA
Copy CRC D62862EA
Accurately ripped (confidence 5) [5D1405F0] (AR v1)
Copy OK

Track 7

Filename F:\0\!!!!!POST!!!!\The Best Of Mtume & Lucas (2004)\07 Keep Going On.wav

Pre-gap length 0:00:02.68

Peak level 99.7 %
Extraction speed 3.9 X
Track quality 100.0 %
Test CRC AE9505CB
Copy CRC AE9505CB
Accurately ripped (confidence 5) [A72D317E] (AR v1)
Copy OK

Track 8

Filename F:\0\!!!!!POST!!!!\The Best Of Mtume & Lucas (2004)\08 What Cha Gonna Do With Lovin'.wav

Pre-gap length 0:00:02.68

Peak level 99.7 %
Extraction speed 4.1 X
Track quality 99.9 %
Test CRC F128125F
Copy CRC F128125F
Accurately ripped (confidence 4) [81265344] (AR v1)
Copy OK

Track 9

Filename F:\0\!!!!!POST!!!!\The Best Of Mtume & Lucas (2004)\09 Love Lock.wav

Pre-gap length 0:00:02.68

Peak level 99.7 %
Extraction speed 4.4 X
Track quality 100.0 %
Test CRC 677E902F
Copy CRC 677E902F
Accurately ripped (confidence 4) [E9C70B18] (AR v1)
Copy OK

Track 10

Filename F:\0\!!!!!POST!!!!\The Best Of Mtume & Lucas (2004)\10 If I Had A Chance.wav

Pre-gap length 0:00:02.68

Peak level 99.7 %
Extraction speed 4.6 X
Track quality 100.0 %
Test CRC EE3D96CF
Copy CRC EE3D96CF
Accurately ripped (confidence 5) [6B564E29] (AR v1)
Copy OK

Track 11

Filename F:\0\!!!!!POST!!!!\The Best Of Mtume & Lucas (2004)\11 Closer I Get To You.wav

Pre-gap length 0:00:01.69

Peak level 99.7 %
Extraction speed 4.6 X
Track quality 100.0 %
Test CRC EDFD45E5
Copy CRC EDFD45E5
Accurately ripped (confidence 5) [ADEBBD32] (AR v1)
Copy OK

Track 12

Filename F:\0\!!!!!POST!!!!\The Best Of Mtume & Lucas (2004)\12 Juicy Fruit.wav

Pre-gap length 0:00:02.68

Peak level 71.4 %
Extraction speed 4.9 X
Track quality 100.0 %
Test CRC 35AF3503
Copy CRC 35AF3503
Accurately ripped (confidence 5) [3D516D6E] (AR v1)
Copy OK

Track 13

Filename F:\0\!!!!!POST!!!!\The Best Of Mtume & Lucas (2004)\13 Never Too Late For Your Lovin'.wav

Pre-gap length 0:00:02.68

Peak level 83.9 %
Extraction speed 5.1 X
Track quality 100.0 %
Test CRC E96ABAA1
Copy CRC E96ABAA1
Accurately ripped (confidence 5) [8BE324F9] (AR v1)
Copy OK

Track 14

Filename F:\0\!!!!!POST!!!!\The Best Of Mtume & Lucas (2004)\14 Back To You.wav

Pre-gap length 0:00:02.68

Peak level 99.7 %
Extraction speed 4.3 X
Track quality 99.9 %
Test CRC E8926611
Copy CRC E8926611
Accurately ripped (confidence 5) [72318414] (AR v1)
Copy OK

Track 15

Filename F:\0\!!!!!POST!!!!\The Best Of Mtume & Lucas (2004)\15 Under Your Spell.wav

Pre-gap length 0:00:02.68

Peak level 99.7 %
Extraction speed 5.2 X
Track quality 100.0 %
Test CRC 42B197D2
Copy CRC 42B197D2
Accurately ripped (confidence 5) [FD6161FB] (AR v1)
Copy OK


All tracks accurately ripped

No errors occurred

End of status report

==== Log checksum 6B295799B6B75A23B1C8F98903F5FABE407EA7B19FB4FD9670ED132B264695AC ====


Tracklist:

1. One Minute from Love - Mtume, Mark Sadane
2. You Know How to Love Me - Phyllis Hyman, , Mtume
3. Two Hearts - Reggie Lucas, Stephanie Mills, Mtume, Teddy Pendergrass
4. Step in the Light - Mtume, Sunfire
5. Got to Be Love - Mtume,
6. Now Is the Time for Love - Mtume, Lou Rawls
7. Keep Going On - Gary Bartz, , Mtume
8. What Cha Gonna Do With My Lovin' - Stephanie Mills, Mtume
9. Love Lock - Mtume
10. If I Had a Chance - Mtume, Rena Scott
11. Closer I Get to You - Mtume
12. Juicy Fruit - James Mtume
13. Never Too Late for Your Lovin' - Mtume, Sunfire
14. Back to You - Mtume, Lou Rawls
15. Under Your Spell - Phyllis Hyman, , Mtume