Slade: The Slade Collection 81-87 (1991) & The Slade Collection, Vol. 2 79-87 (1993)

Posted By: v3122
Slade: The Slade Collection 81-87 (1991) & The Slade Collection, Vol. 2 79-87 (1993)

Slade: The Slade Collection 81-87 (1991) & The Slade Collection, Vol. 2 79-87 (1993)
EAC | Flac(Image) + Cue + Log & M4A(Tracks) & MP3 CBR 320Kbps
2CD | BMG Ariola | ~ 847 or 854 or 296 Mb | Scans(png, 600dpi) -> 226 Mb
Hard Rock / Glam Rock / Classic Rock

Slade: The Slade Collection 81-87 (1991) & The Slade Collection, Vol. 2 79-87 (1993)

Slade: The Slade Collection 81-87 (1991)
EAC | Flac(Image) + Cue + Log & M4A(Tracks) & MP3 CBR 320Kbps
BMG Ariola, ND 74926 | ~ 413 or 417 or 148 Mb | Scans(png, 600dpi) -> 155 Mb
Hard Rock / Glam Rock / Classic Rock

In the 80's Slade recorded some great albums and some classic singles. However, apart from My Oh My and Run Run Away, the rest of their output was largely ignored. If you own Slade's Greatest Hits and would like to hear some of their minor hits of the 80's this is the CD for you. Tracks range from the great rock songs Lock Up Your Daughters and We'll Bring the House Down to the beautiful ballard, Still the Same. My own favourites are Myzterious Mizster Jones and 7 Year Bitch with a hook once heard never forgotten. There are 17 tracks on this CD, including live versions of Everyday, Gudbye T'Jane and, of course, Mamma Weer All Crazee Now. Buy this CD and you will ask yourself how you missed these songs first time round. Then why not try out some of their 80's albums - my tip, The Amazing Kamikaze Syndrome, My Oh My

By Mr. Alan J. Needs, amazon
Slade: The Slade Collection 81-87 (1991) & The Slade Collection, Vol. 2 79-87 (1993)

Tracklist:

01. Run Runaway
02. Everyday (live)
03. We'll Bring The House Down
04. Ruby Red
05. (And Now The Waltz) C'est La Vie
06. Do You Believe In Miracles
07. Still The Same
08. My Oh My
09. All Join Hands
10. Wheels Ain't Coming Down
11. 7 Year Bitch
12. Myzterious Mizster Jones
13. Lock Up Your Daughters
14. Me And The Boys
15. Gudbye To Jane (live)
16. Mama Weer All Crazee Now (live)
17. Love Is Like A Rock

Exact Audio Copy V1.0 beta 3 from 29. August 2011

EAC extraction logfile from 12. February 2014, 8:30

Slade / The Slade Collection 81-87

Used drive : SONY BD RW BDX-S600U Adapter: 2 ID: 1

Read mode : Secure
Utilize accurate stream : Yes
Defeat audio cache : Yes
Make use of C2 pointers : No

Read offset correction : 48
Overread into Lead-In and Lead-Out : No
Fill up missing offset samples with silence : Yes
Delete leading and trailing silent blocks : No
Null samples used in CRC calculations : Yes
Used interface : Native Win32 interface for Win NT & 2000

Used output format : User Defined Encoder
Selected bitrate : 128 kBit/s
Quality : High
Add ID3 tag : No
Command line compressor : C:\Program Files (x86)\Exact Audio Copy\Flac\flac.exe
Additional command line options : -V -8 -T "Date=%year%" -T "Genre=%genre%" %source%


TOC of the extracted CD

Track | Start | Length | Start sector | End sector
––––––––––––––––––––––––––––-
1 | 0:00.33 | 3:46.00 | 33 | 16982
2 | 3:46.33 | 3:17.10 | 16983 | 31767
3 | 7:03.43 | 3:36.30 | 31768 | 47997
4 | 10:39.73 | 2:55.72 | 47998 | 61194
5 | 13:35.70 | 3:26.53 | 61195 | 76697
6 | 17:02.48 | 4:16.05 | 76698 | 95902
7 | 21:18.53 | 4:13.67 | 95903 | 114944
8 | 25:32.45 | 4:12.25 | 114945 | 133869
9 | 29:44.70 | 4:16.25 | 133870 | 153094
10 | 34:01.20 | 3:40.10 | 153095 | 169604
11 | 37:41.30 | 4:19.33 | 169605 | 189062
12 | 42:00.63 | 3:38.05 | 189063 | 205417
13 | 45:38.68 | 3:30.47 | 205418 | 221214
14 | 49:09.40 | 2:41.08 | 221215 | 233297
15 | 51:50.48 | 4:40.47 | 233298 | 254344
16 | 56:31.20 | 3:01.40 | 254345 | 267959
17 | 59:32.60 | 3:35.48 | 267960 | 284132


Range status and errors

Selected range

Filename D:\Slade discography\Compilations\1991. Slade - The Slade Collection 81 - 87\1991. Slade - The Slade Collection 81 - 87 (BMG Ariola ND 74926,Germany)\Slade - The Slade Collection 81-87.wav

Peak level 89.1 %
Extraction speed 6.8 X
Range quality 99.9 %
Test CRC 336482DE
Copy CRC 336482DE
Copy OK

No errors occurred


AccurateRip summary

Track 1 accurately ripped (confidence 18) [5E7D0C6B] (AR v2)
Track 2 accurately ripped (confidence 16) [61D8316A] (AR v2)
Track 3 accurately ripped (confidence 16) [6D24FFB1] (AR v2)
Track 4 accurately ripped (confidence 16) [49DC92D0] (AR v2)
Track 5 accurately ripped (confidence 16) [DCE0DD5C] (AR v2)
Track 6 accurately ripped (confidence 16) [6B6079A3] (AR v2)
Track 7 accurately ripped (confidence 16) [F736679A] (AR v2)
Track 8 accurately ripped (confidence 18) [C3778280] (AR v2)
Track 9 accurately ripped (confidence 17) [0730BA19] (AR v2)
Track 10 accurately ripped (confidence 16) [5FA31799] (AR v2)
Track 11 accurately ripped (confidence 17) [15B6AC9E] (AR v2)
Track 12 accurately ripped (confidence 16) [DD9D56B4] (AR v2)
Track 13 accurately ripped (confidence 17) [BD879FF6] (AR v2)
Track 14 accurately ripped (confidence 16) [99B9210A] (AR v2)
Track 15 accurately ripped (confidence 16) [CCC90283] (AR v2)
Track 16 accurately ripped (confidence 16) [9EB83F53] (AR v2)
Track 17 accurately ripped (confidence 16) [4DC8C64E] (AR v2)

All tracks accurately ripped

End of status report

foobar2000 1.2.9 / Dynamic Range Meter 1.1.1
log date: 2014-03-17 10:09:33

––––––––––––––––––––––––––––––––––––––––
Analyzed: Slade / The Slade Collection 81-87
––––––––––––––––––––––––––––––––––––––––

DR Peak RMS Duration Track
––––––––––––––––––––––––––––––––––––––––
DR12 -1.00 dB -14.37 dB 3:46 01-Run Runaway
DR10 -1.40 dB -14.08 dB 3:17 02-Everyday (live)
DR11 -2.25 dB -15.14 dB 3:36 03-We'll Bring The House Down
DR10 -3.57 dB -15.57 dB 2:56 04-Ruby Red
DR12 -1.00 dB -16.73 dB 3:27 05-(And Now The Waltz) C'est La Vie
DR12 -1.00 dB -14.43 dB 4:16 06-Do You Believe In Miracles
DR12 -1.00 dB -16.00 dB 4:14 07-Still The Same
DR12 -1.00 dB -15.48 dB 4:12 08-My Oh My
DR12 -3.00 dB -17.10 dB 4:16 09-All Join Hands
DR10 -3.28 dB -15.93 dB 3:40 10-Wheels Ain't Coming Down
DR12 -2.76 dB -16.57 dB 4:19 11-7 Year Bitch
DR13 -3.00 dB -16.71 dB 3:38 12-Myzterious Mizster Jones
DR11 -3.12 dB -16.79 dB 3:31 13-Lock Up Your Daughters
DR12 -1.85 dB -15.89 dB 2:41 14-Me And The Boys
DR9 -1.40 dB -11.96 dB 4:41 15-Gudbye To Jane (live)
DR9 -1.40 dB -12.03 dB 3:02 16-Mama Weer All Crazee Now (live)
DR12 -1.89 dB -15.38 dB 3:36 17-Love Is Like A Rock
––––––––––––––––––––––––––––––––––––––––

Number of tracks: 17
Official DR value: DR11

Samplerate: 44100 Hz
Channels: 2
Bits per sample: 16
Bitrate: 888 kbps
Codec: FLAC

Slade: The Slade Collection 81-87 (1991) & The Slade Collection, Vol. 2 79-87 (1993)

====================

Slade: The Slade Collection 81-87 (1991) & The Slade Collection, Vol. 2 79-87 (1993)

Slade: The Slade Collection, Vol. 2 79-87 (1993)
EAC | Flac(Image) + Cue + Log & M4A(Tracks) & MP3 CBR 320Kbps
BMG Ariola, 74321 18186 2 | ~ 434 or 437 or 148 Mb | Scans(png, 600dpi) -> 71 Mb
Hard Rock / Glam Rock / Classic Rock

Slade were deep into their dark ages by the time Alive, Vol. 2 was released: it was 1978, and they'd not enjoyed a major hit in over two years. Neither was this oddly depressing album going to change that. Although one cannot complain about a track listing that marries older hits with more recent efforts – proof that they'd not yet descended to cabaret status – still there is something unseemly about hearing the likes of "Tak' Me Bak 'Ome," "Mama Weer All Crazee Now" and "Gudbuy T'Jane" having to rub shoulders with "My Baby Left Me" and "One Eyed Jacks."

Of course the performance is as powerful as you could hope. Slade might have lost their edge, but they never forgot how to rock. But compare this set with its six-year-old predecessor and, no matter that Vol. 2 packs five times the hit singles, it's Slade Alive! that you'll be returning to when it comes to getting down and getting with it. The time to release a second Slade live album was during 1973-1974, when they and their audience were at the peak of their game. Here, even the crowd sounds dispirited.

~ AMG
Slade: The Slade Collection 81-87 (1991) & The Slade Collection, Vol. 2 79-87 (1993)

Tracklist:

01. Sing Shout (Knock Yourself Out)
02. The Roaring Silence
03. That Was No Lady That Was My Wife
04. We Won't Give In
05. Razzle Dazzle Man
06. Rock And Roll Preacher
07. I'll Be Three
08. I'm A Rocker
09. Ruby Red
10. Slam The Hammer Down
11. Ooh La La In L.A.
12. Harmony
13. Hey Ho Wish You Well
14. Hold On To Your Hats
15. Cheap 'N' Nasty Luv
16. Little Sheila
17. When I'm Dancin' I Ain't Fightin' (Live)

Exact Audio Copy V1.0 beta 3 from 29. August 2011

EAC extraction logfile from 12. January 2014, 8:29

Slade / The Slade Collection, Vol. 2 79 - 87

Used drive : SONY BD RW BDX-S600U Adapter: 2 ID: 1

Read mode : Secure
Utilize accurate stream : Yes
Defeat audio cache : Yes
Make use of C2 pointers : No

Read offset correction : 48
Overread into Lead-In and Lead-Out : No
Fill up missing offset samples with silence : Yes
Delete leading and trailing silent blocks : No
Null samples used in CRC calculations : Yes
Used interface : Native Win32 interface for Win NT & 2000

Used output format : User Defined Encoder
Selected bitrate : 128 kBit/s
Quality : High
Add ID3 tag : No
Command line compressor : C:\Program Files (x86)\Exact Audio Copy\Flac\flac.exe
Additional command line options : -V -8 -T "Date=%year%" -T "Genre=%genre%" %source%


TOC of the extracted CD

Track | Start | Length | Start sector | End sector
––––––––––––––––––––––––––––-
1 | 0:00.33 | 3:13.00 | 33 | 14507
2 | 3:13.33 | 2:48.45 | 14508 | 27152
3 | 6:02.03 | 2:36.35 | 27153 | 38887
4 | 8:38.38 | 3:37.60 | 38888 | 55222
5 | 12:16.23 | 4:41.35 | 55223 | 76332
6 | 16:57.58 | 5:46.32 | 76333 | 102314
7 | 22:44.15 | 4:31.70 | 102315 | 122709
8 | 27:16.10 | 2:41.48 | 122710 | 134832
9 | 29:57.58 | 2:53.62 | 134833 | 147869
10 | 32:51.45 | 3:25.10 | 147870 | 163254
11 | 36:16.55 | 3:51.73 | 163255 | 180652
12 | 40:08.53 | 3:45.07 | 180653 | 197534
13 | 43:53.60 | 5:19.15 | 197535 | 221474
14 | 49:13.00 | 2:32.65 | 221475 | 232939
15 | 51:45.65 | 3:28.68 | 232940 | 248607
16 | 55:14.58 | 3:57.70 | 248608 | 266452
17 | 59:12.53 | 3:46.55 | 266453 | 283457


Range status and errors

Selected range

Filename D:\Slade discography\Compilations\1993. Slade - The Slade Collection, Vol. 2 79 - 87 (BMG Ariola,74321 18186 2,Germany)\Slade - The Slade Collection, Vol. 2 79 - 87.wav

Peak level 100.0 %
Extraction speed 6.8 X
Range quality 100.0 %
Test CRC 7378BEB7
Copy CRC 7378BEB7
Copy OK

No errors occurred


AccurateRip summary

Track 1 not present in database
Track 2 not present in database
Track 3 not present in database
Track 4 not present in database
Track 5 not present in database
Track 6 not present in database
Track 7 not present in database
Track 8 not present in database
Track 9 not present in database
Track 10 not present in database
Track 11 not present in database
Track 12 not present in database
Track 13 not present in database
Track 14 not present in database
Track 15 not present in database
Track 16 not present in database
Track 17 not present in database

None of the tracks are present in the AccurateRip database

End of status report

foobar2000 1.2.9 / Dynamic Range Meter 1.1.1
log date: 2014-03-17 10:09:10

––––––––––––––––––––––––––––––––––––––––
Analyzed: Slade / The Slade Collection, Vol. 2 79 - 87
––––––––––––––––––––––––––––––––––––––––

DR Peak RMS Duration Track
––––––––––––––––––––––––––––––––––––––––
DR13 -0.41 dB -14.33 dB 3:13 01-Sing Shout (Knock Yourself Out)
DR12 -0.30 dB -13.55 dB 2:49 02-The Roaring Silence
DR10 -0.09 dB -11.55 dB 2:36 03-That Was No Lady That Was My Wife
DR13 0.00 dB -13.90 dB 3:38 04-We Won't Give In
DR12 -0.43 dB -14.57 dB 4:41 05-Razzle Dazzle Man
DR9 -0.63 dB -11.27 dB 5:46 06-Rock And Roll Preacher
DR11 -0.08 dB -11.73 dB 4:32 07-I'll Be Three
DR9 -0.09 dB -10.59 dB 2:42 08-I'm A Rocker
DR9 -0.48 dB -10.68 dB 2:54 09-Ruby Red
DR11 -0.34 dB -13.78 dB 3:25 10-Slam The Hammer Down
DR13 0.00 dB -14.33 dB 3:52 11-Ooh La La In L.A.
DR13 -0.09 dB -13.93 dB 3:45 12-Harmony
DR12 -0.56 dB -14.43 dB 5:19 13-Hey Ho Wish You Well
DR10 -0.09 dB -11.07 dB 2:33 14-Hold On To Your Hats
DR11 -0.09 dB -13.72 dB 3:29 15-Cheap 'N' Nasty Luv
DR12 -0.09 dB -13.60 dB 3:58 16-Little Sheila
DR10 -0.76 dB -13.43 dB 3:47 17-When I'm Dancin' I Ain't Fightin' (Live)
––––––––––––––––––––––––––––––––––––––––

Number of tracks: 17
Official DR value: DR11

Samplerate: 44100 Hz
Channels: 2
Bits per sample: 16
Bitrate: 935 kbps
Codec: FLAC

Slade: The Slade Collection 81-87 (1991) & The Slade Collection, Vol. 2 79-87 (1993)

All thanks go to the original releaser