Subcategories

Steve Hillage - Live At Deeply Vale Festival '78 (2004)

Posted By: popsakov
Steve Hillage - Live At Deeply Vale Festival '78 (2004)

Steve Hillage - Live At Deeply Vale Festival '78 (2004)
2CD | EAC Rip | FLAC (Img) + Cue + Log ~ 757 Mb | MP3 CBR320 ~ 315 Mb
Scans (JPG, 600 dpi) ~ 84 Mb | RAR 5% Recovery
Progressive/Psychedelic Rock | Ozit-Morpheus Records #OZITCD781

Talk to any connoisseur of '70s-era double live albums, and many will agree that Steve Hillage's Live Herald, recorded and released in 1977-1978, rates among the finest jewels that the genre has to offer. So it's astonishing to discover that someone has spent the last 25 years sitting on tapes that knock that set into the dust, both in terms of on-stage excitement and aural enjoyment. Live at Deeply Vale Festival '78 transports the listener back to one of the last truly great festivals staged in the U.K. that decade, a weekend's worth of music that fearlessly ranged across both the traditional rock range and the upcoming punk movement, before climaxing with a Hillage set that the guitarist himself reflects, "[sounds] as exciting now as Live Herald was back then." Hillage's performance, of course, dominates the disc, spreading across one CD and then halfway across another. But, if that's the main attraction, the supporting cast is just as exhilarating. The full concert is followed first by reprises of four songs recorded from the audience, and offering up a surprisingly different view of the proceedings; then come a collection of stage announcements before the Ruts take the stage for a ferocious "Babylon's Burning" and the package wraps up with three songs by Tractor, mainstays of the modern Ozit label, of course, but one of the brightest sparks of the early-'70s British underground as well. This was one of Tractor's last major performances before they faded away – however, 20,000 people left Deeply Vale with the band's presence burned firmly into their minds, and the performance here offers up a glowing testament to their memories.
~ Dave Thompson, All Music

A guitarist who first found fame in the progressive rock era only to later resurface as an ambient techno cult hero, Steve Hillage was born August 2, 1951. In 1967 he co-founded the group Uriel with bassist Mont Campbell, organist Dave Stewart, and drummer Clive Brooks; the unit subsequently continued on as the trio Egg upon Hillage's 1968 departure for university. He did not return to music for another three years, reuniting with Stewart in 1971 in Khan, which recorded the 1972 prog rock effort Space Shanty before soon splitting.

After touring in support of Kevin Ayers, Hillage joined Gong, winning acclaim for his echo- and delay-heavy brand of guitar work over the course of the group's 1972-1975 "Radio Gnome Invisible" trilogy (consisting of the LPs Flying Teapot, Angel's Egg, and You). In 1975 Hillage went solo with the album Fish Rising, the first fruits of a longstanding writing partnership with keyboardist Miquette Giraudy. He next traveled to New York to cut 1976's L, produced by Todd Rundgren and featuring guest appearances from Utopia as well as jazz great Don Cherry.

At the peak of the punk era, Hillage's work was by no means fashionable, but he pressed on regardless; in 1977 he issued Motivation Radio, an album recorded with Malcolm Cecil (the creator of an influential early electronic project, the studio-synthesizer T.O.N.T.O.). He subsequently issued 1978's Green, 1979's Rainbow Dome Musick (an early ambient outing) and Open, and 1983's For to Next/And Not Or, but as interest in his music continued to dwindle, Hillage turned to production, helming records for the likes of Robyn Hitchcock and Simple Minds.

By the close of the 1980s, Hillage had largely disappeared from music; however, in 1989 he was visiting the ambient room of a local club when, much to his surprise, his own Rainbow Dome Musick began to play. He introduced himself to the DJ, one Alex Paterson, and soon Hillage was working with Paterson's seminal group the Orb; out of their collaboration grew a new Hillage-Giraudy project, System 7, a dance collective also comprised of club luminaries including Paterson and fellow DJ Paul Oakenfold.

After debuting with an eponymously titled 1991 LP, System 7 plunged completely into blissed-out ambient sound on 1993's 777, which reached the Top 40 on the U.K. album charts. Released in 1994, Point 3 appeared in two different versions: the first, The Fire Album, offered heavy beats and rhythms, while The Water Album featured drumless mixes of the same music. With 1996's Power of Seven, System 7 turned to Detroit techno, recruiting the services of mixers Carl Craig and Derrick May. The group continued to release studio albums for many years to follow, including Golden Section (1997), Seventh Wave (2001), Encantado (2004), and Phoenix (2008). Hillage also reunited with Gong on the album 2032, released in September of 2009.

~ Jason Ankeny, All Music
Steve Hillage - Live At Deeply Vale Festival '78 (2004)


***************

Steve Hillage - Live At Deeply Vale Festival '78 (2004)

Track List CD1:

01. On Stage Announcement From Dj At Deeply Vale / Saucer Surfing [07:51]
02. Searching For The Spark [10:30]
03. Octave Doctors [04:27]
04. Salmon Song [10:17]
05. Crystal City [05:01]
06. Radio [07:33]
07. Palm Trees [05:22]
08. Light In The Sky [05:15]
09. Hurdy Gurdy Man [07:09]

Exact Audio Copy V1.0 beta 3 from 29. August 2011

EAC extraction logfile from 9. November 2012, 0:41

Steve Hillage / Live at Deeply Vale Festival '78

Used drive : HL-DT-STBDDVDRW GBC-H20N Adapter: 1 ID: 0

Read mode : Secure
Utilize accurate stream : Yes
Defeat audio cache : Yes
Make use of C2 pointers : No

Read offset correction : 667
Overread into Lead-In and Lead-Out : No
Fill up missing offset samples with silence : Yes
Delete leading and trailing silent blocks : No
Null samples used in CRC calculations : Yes
Used interface : Native Win32 interface for Win NT & 2000

Used output format : User Defined Encoder
Selected bitrate : 1024 kBit/s
Quality : High
Add ID3 tag : No
Command line compressor : C:\Program Files\Exact Audio Copy\wavpack.exe
Additional command line options : -hm %source% %dest%


TOC of the extracted CD

Track | Start | Length | Start sector | End sector
––––––––––––––––––––––––––––-
1 | 0:00.00 | 7:50.33 | 0 | 35282
2 | 7:50.33 | 10:29.30 | 35283 | 82487
3 | 18:19.63 | 4:26.30 | 82488 | 102467
4 | 22:46.18 | 10:16.08 | 102468 | 148675
5 | 33:02.26 | 5:00.26 | 148676 | 171201
6 | 38:02.52 | 7:32.36 | 171202 | 205137
7 | 45:35.13 | 5:21.33 | 205138 | 229245
8 | 50:56.46 | 5:14.63 | 229246 | 252858
9 | 56:11.34 | 7:08.26 | 252859 | 284984


Range status and errors

Selected range

Filename C:\Users\ProgDog\Music\ZALIVKI\Steve Hillage - Discography\11 - Live at Deeply Vale Festival 1978 - 2004\Disc One\Steve Hillage - Live at Deeply Vale Festival '78.wav

Peak level 100.0 %
Extraction speed 6.1 X
Range quality 100.0 %
Test CRC 92BE4862
Copy CRC 92BE4862
Copy OK

No errors occurred


AccurateRip summary

Track 1 accurately ripped (confidence 2) [E6E854B8] (AR v1)
Track 2 accurately ripped (confidence 2) [602E5AC8] (AR v1)
Track 3 accurately ripped (confidence 2) [ABC87CD9] (AR v1)
Track 4 accurately ripped (confidence 2) [4E2BDF79] (AR v1)
Track 5 accurately ripped (confidence 2) [AFBF769E] (AR v1)
Track 6 accurately ripped (confidence 2) [53477C40] (AR v1)
Track 7 accurately ripped (confidence 2) [D5705460] (AR v1)
Track 8 accurately ripped (confidence 2) [B3356F73] (AR v1)
Track 9 accurately ripped (confidence 2) [6DAAC510] (AR v1)

All tracks accurately ripped

End of status report

–– CUETools DB Plugin V2.1.3

[CTDB TOCID: FZxKaO.Cu.gRS826Ju3pLkP8LFM-] disk not present in database, Submit result: FZxKaO.Cu.gRS826Ju3pLkP8LFM- has been uploaded


==== Log checksum 5FFA189FDBFBF67244AE578032868B3C0817DD9AB38EE96DA3C1AB6630888A8D ====

foobar2000 1.2.6 / Dynamic Range Meter 1.1.1
log date: 2015-12-01 03:00:16

––––––––––––––––––––––––––––––––––––––––
Analyzed: Steve Hillage / Live at Deeply Vale Festival '78 CD1
––––––––––––––––––––––––––––––––––––––––

DR Peak RMS Duration Track
––––––––––––––––––––––––––––––––––––––––
DR12 0.00 dB -14.18 dB 7:50 01-On Stage Announcement From Dj At Deeply Vale / Saucer Surfing
DR12 0.00 dB -13.82 dB 10:29 02-Searching For The Spark
DR13 0.00 dB -14.64 dB 4:26 03-Octave Doctors
DR11 0.00 dB -13.22 dB 10:16 04-Salmon Song
DR13 0.00 dB -15.47 dB 5:00 05-Crystal City
DR13 0.00 dB -15.29 dB 7:32 06-Radio
DR14 0.00 dB -15.42 dB 5:21 07-Palm Trees
DR11 0.00 dB -12.89 dB 5:15 08-Light In The Sky
DR11 0.00 dB -12.88 dB 7:08 09-Hurdy Gurdy Man
––––––––––––––––––––––––––––––––––––––––

Number of tracks: 9
Official DR value: DR12

Samplerate: 44100 Hz
Channels: 2
Bits per sample: 16
Bitrate: 921 kbps
Codec: FLAC
================================================================================

[CUETools log; Date: 01.12.2015 3:00:14; Version: 2.1.5]
[CTDB TOCID: FZxKaO.Cu.gRS826Ju3pLkP8LFM-] found.
Track | CTDB Status
1 | (2/2) Accurately ripped
2 | (2/2) Accurately ripped
3 | (2/2) Accurately ripped
4 | (2/2) Accurately ripped
5 | (2/2) Accurately ripped
6 | (2/2) Accurately ripped
7 | (2/2) Accurately ripped
8 | (2/2) Accurately ripped
9 | (2/2) Accurately ripped
[AccurateRip ID: 00171399-00a63aba-7d0ed709] found.
Track [ CRC | V2 ] Status
01 [e6e854b8|f7d694c9] (3+0/9) Accurately ripped
02 [602e5ac8|83cc9252] (3+0/9) Accurately ripped
03 [abc87cd9|c50527e8] (3+0/9) Accurately ripped
04 [4e2bdf79|e39052d2] (3+0/9) Accurately ripped
05 [afbf769e|e78400c5] (3+0/9) Accurately ripped
06 [53477c40|1238923d] (3+0/9) Accurately ripped
07 [d5705460|c3640bfd] (3+0/9) Accurately ripped
08 [b3356f73|2356637f] (3+0/7) Accurately ripped
09 [6daac510|08bd9bbd] (3+0/9) Accurately ripped
Offsetted by 664:
01 [e672e426] (4/9) Accurately ripped
02 [2b065d78] (4/9) Accurately ripped
03 [ac78ac61] (4/9) Accurately ripped
04 [209bf52e] (4/9) Accurately ripped
05 [0ae460a1] (4/9) Accurately ripped
06 [ff549b5e] (4/9) Accurately ripped
07 [a397bf2f] (4/9) Accurately ripped
08 [755599ad] (4/7) Accurately ripped
09 [c40c3d4b] (4/9) Accurately ripped

Track Peak [ CRC32 ] [W/O NULL] [ LOG ]
– 100,0 [92BE4862] [338B901C] CRC32
01 100,0 [CD143A9B] [CC202ACF]
02 100,0 [B666C113] [28688DD2]
03 100,0 [4A21499F] [0767EEBA]
04 100,0 [5A721B5A] [25CC74D6]
05 100,0 [0439F7D3] [CD5124CE]
06 100,0 [CC495B41] [F9CC5B26]
07 100,0 [3E297D2F] [971CFFDA]
08 100,0 [3C13FECC] [F0F568EF]
09 100,0 [205DE683] [CFB519E5]

Steve Hillage - Live At Deeply Vale Festival '78 (2004)

Track List CD2:

01. Lunar Musick Suite [04:00]
02. Sun Song (Reprise) [01:29]
03. Activation Meditation [04:12]
04. Glorious Om Riff [04:56]
05. Saucer Surfing [07:26]
06. Searching For The Spark [10:24]
07. Octave Doctors [04:26]
08. Salmon Song [09:22]
09. Some Deeply Vale Festival On Stage Announcements / Babylon's Burning - The Ruts [03:57]
10. More Deeply Vale Background Sounds / The Jester [04:47]
11. Argument For One [06:56]
12. Deeply Vale - Bring What You Expect To Find [05:41]

Exact Audio Copy V1.0 beta 3 from 29. August 2011

EAC extraction logfile from 9. November 2012, 1:57

Steve Hillage / Live at Deeply Vale Festival '78

Used drive : HL-DT-STBDDVDRW GBC-H20N Adapter: 1 ID: 0

Read mode : Secure
Utilize accurate stream : Yes
Defeat audio cache : Yes
Make use of C2 pointers : No

Read offset correction : 667
Overread into Lead-In and Lead-Out : No
Fill up missing offset samples with silence : Yes
Delete leading and trailing silent blocks : No
Null samples used in CRC calculations : Yes
Used interface : Native Win32 interface for Win NT & 2000

Used output format : User Defined Encoder
Selected bitrate : 1024 kBit/s
Quality : High
Add ID3 tag : No
Command line compressor : C:\Program Files\Exact Audio Copy\wavpack.exe
Additional command line options : -hm %source% %dest%


TOC of the extracted CD

Track | Start | Length | Start sector | End sector
––––––––––––––––––––––––––––-
1 | 0:00.00 | 3:59.17 | 0 | 17941
2 | 3:59.17 | 1:29.00 | 17942 | 24616
3 | 5:28.17 | 4:11.23 | 24617 | 43464
4 | 9:39.40 | 4:55.19 | 43465 | 65608
5 | 14:34.59 | 7:25.55 | 65609 | 99038
6 | 22:00.39 | 10:23.11 | 99039 | 145774
7 | 32:23.50 | 4:25.60 | 145775 | 165709
8 | 36:49.35 | 9:21.26 | 165710 | 207810
9 | 46:10.61 | 3:56.02 | 207811 | 225512
10 | 50:06.63 | 4:46.09 | 225513 | 246971
11 | 54:52.72 | 6:55.55 | 246972 | 278151
12 | 61:48.52 | 5:40.25 | 278152 | 303676


Range status and errors

Selected range

Filename C:\Users\ProgDog\Music\ZALIVKI\Steve Hillage - Discography\11 - Live at Deeply Vale Festival 1978 - 2004\Disc Two\Steve Hillage - Live at Deeply Vale Festival '78.wav

Peak level 100.0 %
Extraction speed 6.4 X
Range quality 100.0 %
Test CRC 88D00069
Copy CRC 88D00069
Copy OK

No errors occurred


AccurateRip summary

Track 1 accurately ripped (confidence 2) [1B5A2805] (AR v1)
Track 2 accurately ripped (confidence 2) [0486386D] (AR v1)
Track 3 accurately ripped (confidence 2) [2FDC5ADF] (AR v1)
Track 4 accurately ripped (confidence 2) [40C25B3C] (AR v1)
Track 5 accurately ripped (confidence 2) [C2501093] (AR v1)
Track 6 accurately ripped (confidence 2) [5ECBE02C] (AR v1)
Track 7 accurately ripped (confidence 2) [125A9E49] (AR v1)
Track 8 accurately ripped (confidence 2) [B779902C] (AR v1)
Track 9 accurately ripped (confidence 2) [32E4F5E1] (AR v1)
Track 10 accurately ripped (confidence 2) [4B591485] (AR v1)
Track 11 accurately ripped (confidence 2) [23FC5D3C] (AR v1)
Track 12 accurately ripped (confidence 2) [8DB4C92A] (AR v1)

All tracks accurately ripped

End of status report

–– CUETools DB Plugin V2.1.3

[CTDB TOCID: BOtt4ASMrg1T3p8Sdxj4GL9TzCA-] disk not present in database, Submit result: BOtt4ASMrg1T3p8Sdxj4GL9TzCA- has been uploaded


==== Log checksum E3A1D814ADE17B99CC23407B65404CE06F983506FCB0101A418EB1A9925B032A ====

foobar2000 1.2.6 / Dynamic Range Meter 1.1.1
log date: 2015-12-01 02:57:45

––––––––––––––––––––––––––––––––––––––––
Analyzed: Steve Hillage / Live at Deeply Vale Festival '78 CD2 (1-9)
Tractor / Live at Deeply Vale Festival '78 CD2 (10-12)
––––––––––––––––––––––––––––––––––––––––

DR Peak RMS Duration Track
––––––––––––––––––––––––––––––––––––––––
DR10 -0.25 dB -12.27 dB 3:59 01-Lunar Musick Suite
DR11 0.00 dB -13.09 dB 1:29 02-Sun Song (Reprise)
DR12 -0.56 dB -15.74 dB 4:11 03-Activation Meditation
DR11 0.00 dB -12.98 dB 4:55 04-Glorious Om Riff
DR13 -0.14 dB -15.77 dB 7:26 05-Saucer Surfing
DR13 -0.02 dB -14.97 dB 10:23 06-Searching For The Spark
DR14 -0.40 dB -16.03 dB 4:26 07-Octave Doctors
DR13 0.00 dB -16.02 dB 9:21 08-Salmon Song
DR15 0.00 dB -18.55 dB 3:56 09-Some Deeply Vale Festival On Stage Announcements / Babylon's Burning - The Ruts
DR10 0.00 dB -14.45 dB 4:46 10-More Deeply Vale Background Sounds / The Jester
DR11 -1.45 dB -16.00 dB 6:56 11-Argument For One
DR14 0.00 dB -17.01 dB 5:40 12-Deeply Vale - Bring What You Expect To Find
––––––––––––––––––––––––––––––––––––––––

Number of tracks: 12
Official DR value: DR12

Samplerate: 44100 Hz
Channels: 2
Bits per sample: 16
Bitrate: 628 kbps
Codec: FLAC
================================================================================

[CUETools log; Date: 01.12.2015 2:57:36; Version: 2.1.5]
[CTDB TOCID: BOtt4ASMrg1T3p8Sdxj4GL9TzCA-] found.
Track | CTDB Status
1 | (2/2) Accurately ripped
2 | (2/2) Accurately ripped
3 | (2/2) Accurately ripped
4 | (2/2) Accurately ripped
5 | (2/2) Accurately ripped
6 | (2/2) Accurately ripped
7 | (2/2) Accurately ripped
8 | (2/2) Accurately ripped
9 | (2/2) Accurately ripped
10 | (2/2) Accurately ripped
11 | (2/2) Accurately ripped
12 | (2/2) Accurately ripped
[AccurateRip ID: 001bd61a-010dc56e-8d0fd10c] found.
Track [ CRC | V2 ] Status
01 [1b5a2805|58c2aa34] (03+00/10) Accurately ripped
02 [0486386d|471df975] (03+00/10) Accurately ripped
03 [2fdc5adf|5201625f] (03+00/10) Accurately ripped
04 [40c25b3c|3714a4ac] (03+00/10) Accurately ripped
05 [c2501093|224c0573] (03+00/10) Accurately ripped
06 [5ecbe02c|f815a983] (03+00/10) Accurately ripped
07 [125a9e49|319fa284] (03+00/10) Accurately ripped
08 [b779902c|7fb022e0] (03+00/10) Accurately ripped
09 [32e4f5e1|e6ef353e] (03+00/10) Accurately ripped
10 [4b591485|80a12379] (03+00/10) Accurately ripped
11 [23fc5d3c|3ea52413] (03+00/10) Accurately ripped
12 [8db4c92a|221f4097] (03+00/10) Accurately ripped
Offsetted by 18:
01 [c3b572c9] (04/10) Accurately ripped
02 [f84c901e] (04/10) Accurately ripped
03 [5f19e427] (04/10) Accurately ripped
04 [95ede6c9] (04/10) Accurately ripped
05 [8b21a6b2] (04/10) Accurately ripped
06 [8fbff2af] (04/10) Accurately ripped
07 [8a72300f] (04/10) Accurately ripped
08 [6cbf64c0] (04/10) Accurately ripped
09 [5b83f46a] (04/10) Accurately ripped
10 [64a2fcc6] (04/10) Accurately ripped
11 [c62c85d8] (04/10) Accurately ripped
12 [ff00bf06] (04/10) Accurately ripped

Track Peak [ CRC32 ] [W/O NULL] [ LOG ]
– 100,0 [88D00069] [2DB11302] CRC32
01 97,1 [1AF5B486] [9B53F4ED]
02 100,0 [A42CC287] [2022A43E]
03 93,7 [39FB7DCB] [1E8EA73E]
04 100,0 [AB6A8C7D] [4D24D6CC]
05 98,4 [E543A244] [D4E3350E]
06 99,7 [7A8EDC53] [7CB72B8E]
07 95,5 [2F6E6C31] [7FE860D0]
08 100,0 [F85F0535] [735937B1]
09 100,0 [04758A2B] [64D8707A]
10 100,0 [CD8CE65B] [1783BF7B]
11 84,6 [52EE9873] [65C4738F]
12 99,9 [8AB1EA44] [5B914621]

Line-up / Musicians:

Andy Anderson - drums
John MacKenzie - bass, vocals
Miquette Giraudy - vocals, synthesizer
Steve Hillage - keyboards, vocals, guitar
Christian Boule - glissando
Steve Hillage - Live At Deeply Vale Festival '78 (2004)

Steve Hillage - Live At Deeply Vale Festival '78 (2004)

See also:

Steve Hillage - Live In Germany 1977 (2010)
All thanks go to AD's

Visit my blog!

No mirrors, please!

Download: