Subcategories

Sonny Terry - Wizard of the Harmonica (1971-1991)

Posted By: countryfreak
Sonny Terry - Wizard of the Harmonica (1971-1991)

Sonny Terry - Wizard of the Harmonica (1971-1991)
EAC Rip | FLAC (Tracks) + CUE + LOG | Covers | 363 MB
Genre: Blues/Folk/R&B | Label: Storyville | Catalog Number: STCD 8018
RAR 5% Rec. | Uploaded | Release Date: July 5, 1995

Wizard Of The Harmonica album for sale by Sonny Terry was released Feb 23, 1999 on the Storyville label.Recorded in Copenhagen,Denmark in 1971.Wizard Of The Harmonica buy CD music Personnel:Sonny Terry (vocals, harmonica) Sonny Terry & Brownie McGhee (vocals, harmonica) Leif Johansen (washboard).Wizard Of The Harmonica songs Liner Note Author: Ron Brown. Wizard Of The Harmonica album for sale Recording information: Copenhagen, Denmark (11/13/1971-11/14/1991).Arranger: Sonny Terry. Personnel includes: Sonny Terry, Brownie McGhee.–by cdUniverse

––––––
Tracklist
––––––
1. Diggin' My Potatoes 3:37
2. Harmonica Blues 3:09
3. My Key Won't Fit No More 3:58
4. Fox Chase 2:33
5. Easy Rider 4:08
6. Goin' Down Slow 3:58
7. Take This Hammer 4:08
8. Old Lost John 3:13
9. I'm Crazy 'Bout Your Pie 3:02
10. Freight Train Rollin' On 2:20
11. Pretty Little Girl 2:37
12. Cousin John 2:48
13. I'm Afraid of Fire 3:34
14. Sweetest Girl I Know 3:44
15. Blues with a Whoop 3:19
16. I Woke Up with the Blues 4:45
17. You Can't Get Away 2:59

Personnel:
Sonny Terry - Vocal,Harp
Brownie McGhee - Guitar
Leif Johansson - Washboard
Eric Norregaad - Drums

Sonny Terry - Wizard of the Harmonica (1971-1991)

Exact Audio Copy V0.99 prebeta 3 from 28. July 2007

EAC extraction logfile from 9. January 2011, 12:31

Sonny Terry / Wizard of the Harmonica

Used drive : ATAPI iHAP422 9 Adapter: 0 ID: 2

Read mode : Burst

Read offset correction : 6
Overread into Lead-In and Lead-Out : No
Fill up missing offset samples with silence : Yes
Delete leading and trailing silent blocks : No
Null samples used in CRC calculations : No
Used interface : Native Win32 interface for Win NT & 2000
Gap handling : Appended to previous track

Used output format : User Defined Encoder
Selected bitrate : 96 kBit/s
Quality : High
Add ID3 tag : No
Command line compressor : F:\Program Files\Exact Audio Copy\Flac\flac.exe
Additional command line options : -6 -V -T "artist=%a" -T "title=%t" -T "album=%g" -T "date=%y" -T "tracknumber=%n" -T "genre=%m" -T comment="%e" -T "comment=EAC (T&C In Burst Mode)" %s


TOC of the extracted CD

Track | Start | Length | Start sector | End sector
––––––––––––––––––––––––––––-
1 | 0:00.00 | 3:37.17 | 0 | 16291
2 | 3:37.17 | 3:09.35 | 16292 | 30501
3 | 6:46.52 | 3:58.68 | 30502 | 48419
4 | 10:45.45 | 2:33.62 | 48420 | 59956
5 | 13:19.32 | 4:08.08 | 59957 | 78564
6 | 17:27.40 | 3:58.72 | 78565 | 96486
7 | 21:26.37 | 4:08.45 | 96487 | 115131
8 | 25:35.07 | 3:13.50 | 115132 | 129656
9 | 28:48.57 | 3:02.28 | 129657 | 143334
10 | 31:51.10 | 2:20.60 | 143335 | 153894
11 | 34:11.70 | 2:37.72 | 153895 | 165741
12 | 36:49.67 | 2:48.30 | 165742 | 178371
13 | 39:38.22 | 3:34.13 | 178372 | 194434
14 | 43:12.35 | 3:44.32 | 194435 | 211266
15 | 46:56.67 | 3:19.20 | 211267 | 226211
16 | 50:16.12 | 4:45.15 | 226212 | 247601
17 | 55:01.27 | 2:58.68 | 247602 | 261019


Track 1

Filename J:\Rips\Sonny Terry - 1971 - Wizard of the Harmonica\01 - Diggin' My Potatoes.wav

Pre-gap length 0:00:02.00

Peak level 88.6 %
Test CRC 55C36501
Copy CRC 55C36501
Cannot be verified as accurate (confidence 1) [402E3053], AccurateRip returned [C9A73247]
Copy OK

Track 2

Filename J:\Rips\Sonny Terry - 1971 - Wizard of the Harmonica\02 - Harmonica Blues.wav

Pre-gap length 0:00:03.17

Peak level 76.9 %
Test CRC 934598EF
Copy CRC 934598EF
Cannot be verified as accurate (confidence 1) [9874DE4A], AccurateRip returned [9228B765]
Copy OK

Track 3

Filename J:\Rips\Sonny Terry - 1971 - Wizard of the Harmonica\03 - My Key Won't Fit No More.wav

Pre-gap length 0:00:03.07

Peak level 80.1 %
Test CRC 56034A28
Copy CRC 56034A28
Cannot be verified as accurate (confidence 1) [7F7F0B71], AccurateRip returned [692DE64E]
Copy OK

Track 4

Filename J:\Rips\Sonny Terry - 1971 - Wizard of the Harmonica\04 - Fox Chase.wav

Pre-gap length 0:00:03.58

Peak level 77.7 %
Test CRC 41518F81
Copy CRC 41518F81
Cannot be verified as accurate (confidence 1) [85E41D79], AccurateRip returned [B844CABE]
Copy OK

Track 5

Filename J:\Rips\Sonny Terry - 1971 - Wizard of the Harmonica\05 - Easy Rider.wav

Pre-gap length 0:00:03.12

Peak level 81.8 %
Test CRC FA1F0DA5
Copy CRC FA1F0DA5
Cannot be verified as accurate (confidence 1) [88EAEDE9], AccurateRip returned [081C6D75]
Copy OK

Track 6

Filename J:\Rips\Sonny Terry - 1971 - Wizard of the Harmonica\06 - Goin' Down Slow.wav

Pre-gap length 0:00:03.58

Peak level 100.0 %
Test CRC D249049C
Copy CRC D249049C
Cannot be verified as accurate (confidence 1) [45F50D12], AccurateRip returned [80362900]
Copy OK

Track 7

Filename J:\Rips\Sonny Terry - 1971 - Wizard of the Harmonica\07 - Take This Hammer.wav

Pre-gap length 0:00:05.10

Peak level 85.2 %
Test CRC 143F00B0
Copy CRC 143F00B0
Cannot be verified as accurate (confidence 1) [754FF809], AccurateRip returned [D9F5C19F]
Copy OK

Track 8

Filename J:\Rips\Sonny Terry - 1971 - Wizard of the Harmonica\08 - Old Lost John.wav

Pre-gap length 0:00:02.62

Peak level 100.0 %
Test CRC CF8F536C
Copy CRC CF8F536C
Cannot be verified as accurate (confidence 1) [97CC9BDD], AccurateRip returned [D5E41074]
Copy OK

Track 9

Filename J:\Rips\Sonny Terry - 1971 - Wizard of the Harmonica\09 - I'm Crazy 'Bout Your Pie.wav

Pre-gap length 0:00:04.15

Peak level 85.7 %
Test CRC 468C68DD
Copy CRC 468C68DD
Cannot be verified as accurate (confidence 1) [83D7D6D2], AccurateRip returned [9D3D9C7D]
Copy OK

Track 10

Filename J:\Rips\Sonny Terry - 1971 - Wizard of the Harmonica\10 - Freight Train Rollin' On.wav

Pre-gap length 0:00:03.43

Peak level 72.4 %
Test CRC FD29CCC8
Copy CRC FD29CCC8
Cannot be verified as accurate (confidence 1) [CFF3656B], AccurateRip returned [CE239485]
Copy OK

Track 11

Filename J:\Rips\Sonny Terry - 1971 - Wizard of the Harmonica\11 - Pretty Little Girl.wav

Pre-gap length 0:00:03.68

Peak level 72.8 %
Test CRC 7D66EFBD
Copy CRC 7D66EFBD
Cannot be verified as accurate (confidence 1) [747B582E], AccurateRip returned [FE3690C9]
Copy OK

Track 12

Filename J:\Rips\Sonny Terry - 1971 - Wizard of the Harmonica\12 - Cousin John.wav

Pre-gap length 0:00:03.72

Peak level 89.9 %
Test CRC D84C2E0E
Copy CRC D84C2E0E
Cannot be verified as accurate (confidence 1) [449F3285], AccurateRip returned [8B0F0993]
Copy OK

Track 13

Filename J:\Rips\Sonny Terry - 1971 - Wizard of the Harmonica\13 - I'm Afraid of Fire.wav

Pre-gap length 0:00:03.32

Peak level 61.7 %
Test CRC F0E0EF92
Copy CRC F0E0EF92
Cannot be verified as accurate (confidence 1) [568AF6ED], AccurateRip returned [8E868606]
Copy OK

Track 14

Filename J:\Rips\Sonny Terry - 1971 - Wizard of the Harmonica\14 - Sweetest Girl I Know.wav

Pre-gap length 0:00:05.20

Peak level 76.1 %
Test CRC B8919CFA
Copy CRC B8919CFA
Cannot be verified as accurate (confidence 1) [30E89B1C], AccurateRip returned [2C246857]
Copy OK

Track 15

Filename J:\Rips\Sonny Terry - 1971 - Wizard of the Harmonica\15 - Blues with a Whoop.wav

Pre-gap length 0:00:03.37

Peak level 67.6 %
Test CRC 2081252F
Copy CRC 2081252F
Cannot be verified as accurate (confidence 1) [E9808B07], AccurateRip returned [C786FE1E]
Copy OK

Track 16

Filename J:\Rips\Sonny Terry - 1971 - Wizard of the Harmonica\16 - I Woke Up with the Blues.wav

Pre-gap length 0:00:04.20

Peak level 65.8 %
Test CRC 86B977B4
Copy CRC 86B977B4
Cannot be verified as accurate (confidence 1) [19A407BA], AccurateRip returned [F0C4B7FB]
Copy OK

Track 17

Filename J:\Rips\Sonny Terry - 1971 - Wizard of the Harmonica\17 - You Can't Get Away.wav

Pre-gap length 0:00:04.55

Peak level 70.9 %
Test CRC 7EE839B0
Copy CRC 7EE839B0
Cannot be verified as accurate (confidence 1) [85FA5027], AccurateRip returned [A5E1BA46]
Copy OK


No tracks could be verified as accurate
You may have a different pressing from the one(s) in the database

No errors occurred

End of status report


foobar2000 1.1.14a / Dynamic Range Meter 1.1.1
log date: 2013-04-29 01:33:56

––––––––––––––––––––––––––––––––––––––––
Analyzed: Sonny Terry / Wizard of the Harmonica
––––––––––––––––––––––––––––––––––––––––

DR Peak RMS Duration Track
––––––––––––––––––––––––––––––––––––––––
DR12 -1.04 dB -16.63 dB 3:37 01-Diggin' My Potatoes
DR12 -2.27 dB -18.41 dB 3:09 02-Harmonica Blues
DR12 -1.92 dB -17.57 dB 3:59 03-My Key Won't Fit No More
DR12 -2.19 dB -19.63 dB 2:34 04-Fox Chase
DR12 -1.74 dB -17.03 dB 4:08 05-Easy Rider
DR12 0.00 dB -16.42 dB 3:59 06-Goin' Down Slow
DR12 -1.39 dB -16.73 dB 4:09 07-Take This Hammer
DR12 0.00 dB -17.00 dB 3:14 08-Old Lost John
DR12 -1.34 dB -15.82 dB 3:02 09-I'm Crazy 'Bout Your Pie
DR10 -2.80 dB -18.34 dB 2:21 10-Freight Train Rollin' On
DR13 -2.76 dB -18.07 dB 2:38 11-Pretty Little Girl
DR14 -0.92 dB -19.87 dB 2:48 12-Cousin John
DR12 -4.19 dB -18.64 dB 3:34 13-I'm Afraid of Fire
DR12 -2.36 dB -17.81 dB 3:44 14-Sweetest Girl I Know
DR11 -3.40 dB -17.45 dB 3:19 15-Blues with a Whoop
DR12 -3.63 dB -19.05 dB 4:45 16-I Woke Up with the Blues
DR12 -2.98 dB -18.12 dB 2:59 17-You Can't Get Away
––––––––––––––––––––––––––––––––––––––––

Number of tracks: 17
Official DR value: DR12

Samplerate: 44100 Hz
Channels: 2
Bits per sample: 16
Bitrate: 818 kbps
Codec: FLAC
================================================================================


In case you encounter dead links in any of my posts, please send me a private message !!!!

NO mirrors and/or direct links in your comments, please !!!!

This is not my Rip,not my Scans! All thanks go to original releaser!

****Visit My Blog****
Uploaded

***** Pass: countryfreak *****