Subcategories

Slade - Slade Alive! (1972) [Japan Mini-LP CD 2006]

Posted By: Andi_Deris
Slade - Slade Alive! (1972) [Japan Mini-LP CD 2006]

Slade - Slade Alive! (1972) [Japan Mini-LP CD 2006]
EAC Rip | FLAC: Image+Cue+Log | 262 Mb | MP3 CBR 320 kbps | 102 Mb | Scans | Time: 38:57
Genre: Rock, Glam Rock | Label: Air Mail Archive | Cat.#: AIRAC-1301

Slade Alive! was a live album released by the British rock band Slade. The album was released on 24 March 1972, and reached number two on the UK Albums Chart, as well as being Slade's first album to dent the Billboard 200 in the United States. The album contained original songs, plus cover versions of songs by Ten Years After, The Lovin' Spoonful, Bobby Marchan, and Steppenwolf. The album was recorded live at Command Theatre Studio and mixed at Olympic Studios.



Track Listing

01. Hear Me Calling (5:46)
02. In Like A Shot From My Gun (3:33)
03. Darling Be Home Soon (5:43)
04. Know Who You Are (3:37)
05. Keep On Rocking (6:29)
06. Get Down With It (5:33)
07. Born To Be Wild (8:16)

Produced by Chas Chandler
Remastered by Yoshiro Kuzumaki

The Band

• Noddy Holder - lead vocals, rhythm guitar
• Dave Hill - lead guitar, backing vocals
• Jimmy Lea - bass guitar, backing vocals
• Don Powell - drums

Notes

Japanese Limited Edition, 24-bit Remastered

Exact Audio Copy V1.0 beta 3 from 29. August 2011

EAC extraction logfile from 30. July 2013, 18:34

Slade / Slade Alive

Used drive : Optiarc BDRW BD-M100A Adapter: 0 ID: 0

Read mode : Secure
Utilize accurate stream : Yes
Defeat audio cache : Yes
Make use of C2 pointers : No

Read offset correction : 102
Overread into Lead-In and Lead-Out : No
Fill up missing offset samples with silence : Yes
Delete leading and trailing silent blocks : No
Null samples used in CRC calculations : Yes
Used interface : Native Win32 interface for Win NT & 2000

Used output format : User Defined Encoder
Selected bitrate : 128 kBit/s
Quality : High
Add ID3 tag : No
Command line compressor : C:\Program Files (x86)\Exact Audio Copy\Flac\flac.exe
Additional command line options : -V -8 -T "Date=%year%" -T "Genre=%genre%" %source%


TOC of the extracted CD

Track | Start | Length | Start sector | End sector
––––––––––––––––––––––––––––-
1 | 0:00.00 | 5:46.23 | 0 | 25972
2 | 5:46.23 | 3:33.53 | 25973 | 42000
3 | 9:20.01 | 5:43.07 | 42001 | 67732
4 | 15:03.08 | 3:37.34 | 67733 | 84041
5 | 18:40.42 | 6:29.08 | 84042 | 113224
6 | 25:09.50 | 5:33.39 | 113225 | 138238
7 | 30:43.14 | 8:16.26 | 138239 | 175464


Range status and errors

Selected range

Filename C:\Users\Desktop\Slade-Alive!\Slade - Slade Alive.wav

Peak level 96.6 %
Extraction speed 4.8 X
Range quality 100.0 %
Test CRC FE4275C3
Copy CRC FE4275C3
Copy OK

No errors occurred

End of status report

==== Log checksum 816542B668719CC365FBD8A09613884875EEFC9B5E3A6788FE997F6E8CBA6235 ====


Many thanks to the original uploader: uta5erika5