Subcategories

Slade - Rockers: A Collection of Their Hardest - Hitting Tracks 1969-87 (2000) {2 CD Remastered}

Posted By: hill0
Slade - Rockers: A Collection of Their Hardest - Hitting Tracks 1969-87 (2000) {2 CD Remastered}

Slade - Rockers: A Collection of Their Hardest - Hitting Tracks 1969-87 (2000) {2 CD Remastered}
EAC Rip | FLAC (tracks & cue & log) | 910 MB | MP3 CBR 320 kbps | 302 MB | Full Artwork (PNG) | 147 MB | 2:09:05
Genre: Hard Rock / Glam Rock | Country: UK | Label: Salvo/Union Square Music Ltd. | SALVODCD204

2007 digitally remastered two CD collection from the '70s and '80s British glamsters. Rockers is an the perfect companion to any Slade 'hits' collection, as it documents of one of the UK's greatest bands doing what they do best - Rockin' and Rollin'! Here are 37 blistering tracks spanning the period 1969-87. Stylish double digipak with 20 page booklet containing previously unseen photographs by Barry Plummer plus informative track by track notes by Mojo's Chris Ingham.
Slade - Rockers: A Collection of Their Hardest - Hitting Tracks 1969-87 (2000) {2 CD Remastered}

The sound on this 2-CD set is very good, clean and crisp, with good tonal separation between the instruments and voice. The sound has been remastered,which gives these tracks a great deal of immediacy. The booklet has a number of photographs of the band not seen before. The discs clip in a quad-foldout cardboard package,which also has several photos of the band. The booklet has a track-by-track annotation which helps set these tracks in the SLADE discography.

These tracks are a compendium (1969-1987) of music from a number of SLADE's releases over the years. Starting with "Beginnings",then on to "Play It Loud","Slade Alive!","Slayed","Old New Borrowed And Blue","Slade In Flame","Nobody's Fool",and"Whatever Happened To Slade". The second disc has tracks from-"Return To Base","We'll Bring The House Down","Return To Base","Till Death Us Do Part","MY Oh My","The Amazing Kamikaze Syndrome","Rogue's Gallery","Crackers","You Boyz Make Big Noize" and both discs contain singles from throughout SLADE's career.

As the title suggests, this is a compilation of some of SLADE's most incendiary tracks from their many albums. True to it's title, the pace is almost unrelenting. Track after track of pulverizing music that this band is known for will assault your ears and make you wish you were in the band. If you're looking for some primal R&R, next to hearing SLADE live (''Slade Alive!'', this is the set to purchase. SLADE fans will know what I'm talking about. The uninitiated listener will have their head blown off by this set. Purchase this and be prepared to rock. Play loud!
Amazon
Slade - Rockers: A Collection of Their Hardest - Hitting Tracks 1969-87 (2000) {2 CD Remastered}




Tracklist

DISC 1:
01. Born To Be Wild - 03:25
02. Could I - 02:46
03. The Shape Of Things To Come - 02:18
04. Get Down And Get With It (Live) - 05:35
05. Move Over - 03:46
06. The Whole World's Goin' Crazee - 03:36
07. Look At Last Nite - 03:05
08. Let The Good Times Roll / Feel So Fine - 03:46
09. My Town - 03:08
10. We're Really Gonna Raise The Roof - 03:10
11. Don't Blame Me - 02:33
12. Good Time Gals - 03:34
13. Do We Still Do It - 03:02
14. Standin' On The Corner - 04:54
15. O.K. Yesterday Was Yesterday - 03:59
16. Them Kinda Monkeys Can't Swing - 03:28
17. Scratch My Back - 03:08
18. Be - 03:57
19. Burning In The Heat Of Love - 03:38

DISC 2:
01. Wheels Ain't Coming Down - 03:38
02. Night Starvation - 03:06
03. I'm A Rocker - 02:42
04. Rock 'N' Roll Preacher (Hallelujah I'm On Fire) - 05:47
05. Knuckle Sandwich Nancy - 03:15
06. Let The Rock Roll Out Of Control - 04:02
07. Ruby Red - 02:55
08. Keep Your Hands Off My Power Supply - 03:35
09. Don't Tame A Hurricane - 02:34
10. Slam The Hammer Down - 03:26
11. Cocky Rock Boys (Rule O.K.) - 03:27
12. Myzsterious Mizster Jones - 03:37
13. Time To Rock - 04:10
14. Leave Them Girls Alone - 03:15
15. Let's Have A Party - 01:48
16. Hey Ho Wish You Well - 05:20
17. She's Heavy - 02:37
18. You Boyz Make Big Noize - 03:02

Exact Audio Copy V1.0 beta 3 from 29. August 2011

EAC extraction logfile from 1. September 2013, 13:38

Slade / Rockers (1969-1987) [Disc 1 of 2]

Used drive : HL-DT-STDVDRAM GT51N Adapter: 0 ID: 1

Read mode : Secure
Utilize accurate stream : Yes
Defeat audio cache : Yes
Make use of C2 pointers : No

Read offset correction : 103
Overread into Lead-In and Lead-Out : No
Fill up missing offset samples with silence : Yes
Delete leading and trailing silent blocks : No
Null samples used in CRC calculations : Yes
Used interface : Native Win32 interface for Win NT & 2000
Gap handling : Appended to previous track

Used output format : User Defined Encoder
Selected bitrate : 896 kBit/s
Quality : High
Add ID3 tag : No
Command line compressor : C:\Exact Audio Copy\Flac\flac.EXE
Additional command line options : -8 -V -T "ARTIST=%artist%" -T "TITLE=%title%" -T "ALBUM=%albumtitle%" -T "DATE=%year%" -T "TRACKNUMBER=%tracknr%" -T "TOTALTRACKS=%numtracks%" -T "GENRE=%genre%" -T "ALBUMARTIST=%albumartist%" -T "ALBUM ARTIST=%albumartist%" -T "COMMENT=EAC Secure Mode, Test & Copy, AccurateRip, FLAC -8" %source%


TOC of the extracted CD

Track | Start | Length | Start sector | End sector
––––––––––––––––––––––––––––-
1 | 0:00.00 | 3:25.19 | 0 | 15393
2 | 3:25.19 | 2:45.57 | 15394 | 27825
3 | 6:11.01 | 2:18.35 | 27826 | 38210
4 | 8:29.36 | 5:35.15 | 38211 | 63350
5 | 14:04.51 | 3:45.40 | 63351 | 80265
6 | 17:50.16 | 3:36.34 | 80266 | 96499
7 | 21:26.50 | 3:05.27 | 96500 | 110401
8 | 24:32.02 | 3:45.43 | 110402 | 127319
9 | 28:17.45 | 3:07.45 | 127320 | 141389
10 | 31:25.15 | 3:10.15 | 141390 | 155654
11 | 34:35.30 | 2:33.04 | 155655 | 167133
12 | 37:08.34 | 3:33.61 | 167134 | 183169
13 | 40:42.20 | 3:02.19 | 183170 | 196838
14 | 43:44.39 | 4:54.31 | 196839 | 218919
15 | 48:38.70 | 3:58.72 | 218920 | 236841
16 | 52:37.67 | 3:27.38 | 236842 | 252404
17 | 56:05.30 | 3:08.07 | 252405 | 266511
18 | 59:13.37 | 3:56.47 | 266512 | 284258
19 | 63:10.09 | 3:37.45 | 284259 | 300578


Track 1

Filename C:\Temp\01 - Born To Be Wild.wav

Pre-gap length 0:00:02.00

Peak level 97.7 %
Extraction speed 1.2 X
Track quality 100.0 %
Test CRC 28119170
Copy CRC 28119170
Accurately ripped (confidence 2) [9B319245] (AR v2)
Copy OK

Track 2

Filename C:\Temp\02 - Could I.wav

Peak level 97.7 %
Extraction speed 1.3 X
Track quality 100.0 %
Test CRC 4B649643
Copy CRC 4B649643
Accurately ripped (confidence 2) [29A4836E] (AR v2)
Copy OK

Track 3

Filename C:\Temp\03 - The Shape Of Things To Come.wav

Peak level 97.7 %
Extraction speed 1.0 X
Track quality 99.9 %
Test CRC E4B50F48
Copy CRC E4B50F48
Accurately ripped (confidence 2) [43C20E46] (AR v2)
Copy OK

Track 4

Filename C:\Temp\04 - Get Down And Get With It (Live).wav

Peak level 97.7 %
Extraction speed 1.6 X
Track quality 100.0 %
Test CRC 1A770230
Copy CRC 1A770230
Accurately ripped (confidence 2) [56B6519D] (AR v2)
Copy OK

Track 5

Filename C:\Temp\05 - Move Over.wav

Peak level 97.7 %
Extraction speed 1.6 X
Track quality 100.0 %
Test CRC C7EE01E3
Copy CRC C7EE01E3
Accurately ripped (confidence 2) [48540E17] (AR v2)
Copy OK

Track 6

Filename C:\Temp\06 - The Whole World's Goin' Crazee.wav

Peak level 97.7 %
Extraction speed 1.5 X
Track quality 99.9 %
Test CRC F6A9D03E
Copy CRC F6A9D03E
Accurately ripped (confidence 2) [590F70B9] (AR v2)
Copy OK

Track 7

Filename C:\Temp\07 - Look At Last Nite.wav

Peak level 97.7 %
Extraction speed 1.8 X
Track quality 100.0 %
Test CRC 1281DCEA
Copy CRC 1281DCEA
Accurately ripped (confidence 2) [C828CDD9] (AR v2)
Copy OK

Track 8

Filename C:\Temp\08 - Let The Good Times Roll - Feel So Fine.wav

Peak level 97.7 %
Extraction speed 1.9 X
Track quality 100.0 %
Test CRC 36948C34
Copy CRC 36948C34
Accurately ripped (confidence 2) [B1D53D73] (AR v2)
Copy OK

Track 9

Filename C:\Temp\09 - My Town.wav

Peak level 97.7 %
Extraction speed 1.9 X
Track quality 100.0 %
Test CRC 454EF98E
Copy CRC 454EF98E
Accurately ripped (confidence 2) [DD93589E] (AR v2)
Copy OK

Track 10

Filename C:\Temp\10 - We're Really Gonna Raise The Roof.wav

Peak level 97.7 %
Extraction speed 1.7 X
Track quality 99.9 %
Test CRC BDEA8B72
Copy CRC BDEA8B72
Accurately ripped (confidence 2) [01BF9C64] (AR v2)
Copy OK

Track 11

Filename C:\Temp\11 - Don't Blame Me.wav

Peak level 97.7 %
Extraction speed 1.6 X
Track quality 99.9 %
Test CRC 3654D97B
Copy CRC 3654D97B
Accurately ripped (confidence 2) [16EF6991] (AR v2)
Copy OK

Track 12

Filename C:\Temp\12 - Good Time Gals.wav

Peak level 97.7 %
Extraction speed 1.8 X
Track quality 99.9 %
Test CRC 80140EFB
Copy CRC 80140EFB
Accurately ripped (confidence 2) [305E9390] (AR v2)
Copy OK

Track 13

Filename C:\Temp\13 - Do We Still Do It.wav

Peak level 97.7 %
Extraction speed 1.8 X
Track quality 99.9 %
Test CRC D97D1405
Copy CRC D97D1405
Accurately ripped (confidence 2) [7E1003CF] (AR v2)
Copy OK

Track 14

Filename C:\Temp\14 - Standin' On The Corner.wav

Peak level 97.7 %
Extraction speed 2.3 X
Track quality 100.0 %
Test CRC 58AA2049
Copy CRC 58AA2049
Accurately ripped (confidence 2) [CA8376A5] (AR v2)
Copy OK

Track 15

Filename C:\Temp\15 - O.K. Yesterday Was Yesterday.wav

Peak level 97.7 %
Extraction speed 2.4 X
Track quality 100.0 %
Test CRC 373F9295
Copy CRC 373F9295
Accurately ripped (confidence 2) [87B48113] (AR v2)
Copy OK

Track 16

Filename C:\Temp\16 - Them Kinda Monkeys Can't Swing.wav

Peak level 97.7 %
Extraction speed 2.1 X
Track quality 99.9 %
Test CRC C1B0E3FF
Copy CRC C1B0E3FF
Accurately ripped (confidence 2) [6AA9673F] (AR v2)
Copy OK

Track 17

Filename C:\Temp\17 - Scratch My Back.wav

Peak level 97.7 %
Extraction speed 2.4 X
Track quality 100.0 %
Test CRC B3944B71
Copy CRC B3944B71
Accurately ripped (confidence 2) [939C2FD0] (AR v2)
Copy OK

Track 18

Filename C:\Temp\18 - Be.wav

Peak level 97.7 %
Extraction speed 2.5 X
Track quality 100.0 %
Test CRC ABAB6EEA
Copy CRC ABAB6EEA
Accurately ripped (confidence 2) [38245B3F] (AR v2)
Copy OK

Track 19

Filename C:\Temp\19 - Burning In The Heat Of Love.wav

Peak level 97.7 %
Extraction speed 2.6 X
Track quality 100.0 %
Test CRC 8164D22D
Copy CRC 8164D22D
Accurately ripped (confidence 2) [A3797005] (AR v2)
Copy OK


All tracks accurately ripped

No errors occurred

End of status report

==== Log checksum 161E16808152D76D46D96F424B5E0AB6609798EE3C3D1FCB0ADD3F97261F8D40 ====

Exact Audio Copy V1.0 beta 3 from 29. August 2011

EAC extraction logfile from 1. September 2013, 15:07

Slade / Rockers (1969-1987) [Disc 2 of 2]

Used drive : HL-DT-STDVDRAM GT51N Adapter: 0 ID: 1

Read mode : Secure
Utilize accurate stream : Yes
Defeat audio cache : Yes
Make use of C2 pointers : No

Read offset correction : 103
Overread into Lead-In and Lead-Out : No
Fill up missing offset samples with silence : Yes
Delete leading and trailing silent blocks : No
Null samples used in CRC calculations : Yes
Used interface : Native Win32 interface for Win NT & 2000
Gap handling : Appended to previous track

Used output format : User Defined Encoder
Selected bitrate : 896 kBit/s
Quality : High
Add ID3 tag : No
Command line compressor : C:\Exact Audio Copy\Flac\flac.EXE
Additional command line options : -8 -V -T "ARTIST=%artist%" -T "TITLE=%title%" -T "ALBUM=%albumtitle%" -T "DATE=%year%" -T "TRACKNUMBER=%tracknr%" -T "TOTALTRACKS=%numtracks%" -T "GENRE=%genre%" -T "ALBUMARTIST=%albumartist%" -T "ALBUM ARTIST=%albumartist%" -T "COMMENT=EAC Secure Mode, Test & Copy, AccurateRip, FLAC -8" %source%


TOC of the extracted CD

Track | Start | Length | Start sector | End sector
––––––––––––––––––––––––––––-
1 | 0:00.00 | 3:37.51 | 0 | 16325
2 | 3:37.51 | 3:06.36 | 16326 | 30311
3 | 6:44.12 | 2:42.26 | 30312 | 42487
4 | 9:26.38 | 5:46.55 | 42488 | 68492
5 | 15:13.18 | 3:15.16 | 68493 | 83133
6 | 18:28.34 | 4:02.16 | 83134 | 101299
7 | 22:30.50 | 2:55.02 | 101300 | 114426
8 | 25:25.52 | 3:34.74 | 114427 | 130550
9 | 29:00.51 | 2:33.52 | 130551 | 142077
10 | 31:34.28 | 3:26.33 | 142078 | 157560
11 | 35:00.61 | 3:27.06 | 157561 | 173091
12 | 38:27.67 | 3:36.62 | 173092 | 189353
13 | 42:04.54 | 4:10.01 | 189354 | 208104
14 | 46:14.55 | 3:15.19 | 208105 | 222748
15 | 49:29.74 | 1:47.49 | 222749 | 230822
16 | 51:17.48 | 5:19.39 | 230823 | 254786
17 | 56:37.12 | 2:36.44 | 254787 | 266530
18 | 59:13.56 | 3:01.50 | 266531 | 280155


Track 1

Filename C:\Temp\01 - Wheels Ain't Coming Down.wav

Pre-gap length 0:00:02.00

Peak level 97.7 %
Extraction speed 1.2 X
Track quality 100.0 %
Test CRC 3FDD4C26
Copy CRC 3FDD4C26
Accurately ripped (confidence 2) [32CB5D07] (AR v2)
Copy OK

Track 2

Filename C:\Temp\02 - Night Starvation.wav

Peak level 97.7 %
Extraction speed 1.3 X
Track quality 100.0 %
Test CRC 88BBF848
Copy CRC 88BBF848
Accurately ripped (confidence 2) [3C6CE148] (AR v2)
Copy OK

Track 3

Filename C:\Temp\03 - I'm A Rocker.wav

Peak level 97.7 %
Extraction speed 1.1 X
Track quality 99.9 %
Test CRC 9E70D162
Copy CRC 9E70D162
Accurately ripped (confidence 2) [76EEA5FA] (AR v2)
Copy OK

Track 4

Filename C:\Temp\04 - Rock 'N' Roll Preacher (Hallelujah I'm On Fire).wav

Peak level 97.7 %
Extraction speed 1.6 X
Track quality 100.0 %
Test CRC DB7DC05C
Copy CRC DB7DC05C
Accurately ripped (confidence 2) [82D7A6AC] (AR v2)
Copy OK

Track 5

Filename C:\Temp\05 - Knuckle Sandwich Nancy.wav

Peak level 97.7 %
Extraction speed 1.4 X
Track quality 99.9 %
Test CRC 9F876118
Copy CRC 9F876118
Accurately ripped (confidence 2) [FC1FBC55] (AR v2)
Copy OK

Track 6

Filename C:\Temp\06 - Let The Rock Roll Out Of Control.wav

Peak level 97.7 %
Extraction speed 1.8 X
Track quality 100.0 %
Test CRC B4C3F98C
Copy CRC B4C3F98C
Accurately ripped (confidence 2) [BFBC6A4B] (AR v2)
Copy OK

Track 7

Filename C:\Temp\07 - Ruby Red.wav

Peak level 97.7 %
Extraction speed 1.8 X
Track quality 100.0 %
Test CRC 19F5912A
Copy CRC 19F5912A
Accurately ripped (confidence 2) [9495E890] (AR v2)
Copy OK

Track 8

Filename C:\Temp\08 - Keep Your Hands Off My Power Supply.wav

Peak level 97.7 %
Extraction speed 1.9 X
Track quality 100.0 %
Test CRC F32AD1CC
Copy CRC F32AD1CC
Accurately ripped (confidence 2) [A9A54FB1] (AR v2)
Copy OK

Track 9

Filename C:\Temp\09 - Don't Tame A Hurricane.wav

Peak level 97.7 %
Extraction speed 1.6 X
Track quality 99.9 %
Test CRC D51C5DDD
Copy CRC D51C5DDD
Accurately ripped (confidence 2) [F65F0E05] (AR v2)
Copy OK

Track 10

Filename C:\Temp\10 - Slam The Hammer Down.wav

Peak level 97.7 %
Extraction speed 2.0 X
Track quality 100.0 %
Test CRC 80769BB6
Copy CRC 80769BB6
Accurately ripped (confidence 2) [66937D44] (AR v2)
Copy OK

Track 11

Filename C:\Temp\11 - Cocky Rock Boys (Rule O.K.).wav

Peak level 97.7 %
Extraction speed 2.1 X
Track quality 100.0 %
Test CRC B3379C0B
Copy CRC B3379C0B
Accurately ripped (confidence 2) [2D662CDC] (AR v2)
Copy OK

Track 12

Filename C:\Temp\12 - Myzsterious Mizster Jones.wav

Peak level 97.7 %
Extraction speed 2.2 X
Track quality 100.0 %
Test CRC 6AD398C9
Copy CRC 6AD398C9
Accurately ripped (confidence 2) [4EE455A1] (AR v2)
Copy OK

Track 13

Filename C:\Temp\13 - Time To Rock.wav

Peak level 97.7 %
Extraction speed 2.1 X
Track quality 99.9 %
Test CRC C1E22627
Copy CRC C1E22627
Accurately ripped (confidence 2) [8191F321] (AR v2)
Copy OK

Track 14

Filename C:\Temp\14 - Leave Them Girls Alone.wav

Peak level 97.7 %
Extraction speed 2.3 X
Track quality 100.0 %
Test CRC D1047E88
Copy CRC D1047E88
Accurately ripped (confidence 2) [79421F90] (AR v2)
Copy OK

Track 15

Filename C:\Temp\15 - Let's Have A Party.wav

Peak level 97.7 %
Extraction speed 2.1 X
Track quality 100.0 %
Test CRC 7AE56EB6
Copy CRC 7AE56EB6
Accurately ripped (confidence 2) [8086A246] (AR v2)
Copy OK

Track 16

Filename C:\Temp\16 - Hey Ho Wish You Well.wav

Peak level 97.7 %
Extraction speed 2.6 X
Track quality 100.0 %
Test CRC 17088024
Copy CRC 17088024
Accurately ripped (confidence 2) [9FC45554] (AR v2)
Copy OK

Track 17

Filename C:\Temp\17 - She's Heavy.wav

Peak level 97.7 %
Extraction speed 2.3 X
Track quality 100.0 %
Test CRC F6B261CA
Copy CRC F6B261CA
Accurately ripped (confidence 2) [1870DB79] (AR v2)
Copy OK

Track 18

Filename C:\Temp\18 - You Boyz Make Big Noize.wav

Peak level 97.7 %
Extraction speed 2.5 X
Track quality 100.0 %
Test CRC 4AF1005A
Copy CRC 4AF1005A
Accurately ripped (confidence 2) [36687D9F] (AR v2)
Copy OK


All tracks accurately ripped

No errors occurred

End of status report

==== Log checksum 2BFDF7DC41C84B02EB712C61B32EE3ED955F578455417A2A4457F23C8FE62ED6 ====

[CUETools log; Date: 06.09.2016 17:39:12; Version: 2.1.5]
[CTDB TOCID: Aji9Cz5R_Pw7soZy7YRHqihgfgM-] found.
Track | CTDB Status
1 | (2/2) Accurately ripped
2 | (2/2) Accurately ripped
3 | (2/2) Accurately ripped
4 | (2/2) Accurately ripped
5 | (2/2) Accurately ripped
6 | (2/2) Accurately ripped
7 | (2/2) Accurately ripped
8 | (2/2) Accurately ripped
9 | (2/2) Accurately ripped
10 | (2/2) Accurately ripped
11 | (2/2) Accurately ripped
12 | (2/2) Accurately ripped
13 | (2/2) Accurately ripped
14 | (2/2) Accurately ripped
15 | (2/2) Accurately ripped
16 | (2/2) Accurately ripped
17 | (2/2) Accurately ripped
18 | (2/2) Accurately ripped
19 | (2/2) Accurately ripped
[AccurateRip ID: 002d361f-027af539-1e0fa713] found.
Track [ CRC | V2 ] Status
01 [12aa390b|9b319245] (2+3/5) Accurately ripped
02 [c0b67f92|29a4836e] (2+3/5) Accurately ripped
03 [fff007e6|43c20e46] (2+3/5) Accurately ripped
04 [190c2c4d|56b6519d] (2+3/5) Accurately ripped
05 [4ebbd05e|48540e17] (2+3/5) Accurately ripped
06 [1f0ed386|590f70b9] (2+3/5) Accurately ripped
07 [80da41cd|c828cdd9] (2+3/5) Accurately ripped
08 [da354069|b1d53d73] (2+3/5) Accurately ripped
09 [1136e616|dd93589e] (2+3/5) Accurately ripped
10 [4acf9693|01bf9c64] (2+3/5) Accurately ripped
11 [31e97e75|16ef6991] (2+3/5) Accurately ripped
12 [69d1697c|305e9390] (2+3/5) Accurately ripped
13 [b3e9caea|7e1003cf] (2+3/5) Accurately ripped
14 [bf6a60a3|ca8376a5] (2+3/5) Accurately ripped
15 [02fb4788|87b48113] (2+3/5) Accurately ripped
16 [122d308c|6aa9673f] (2+3/5) Accurately ripped
17 [48498106|939c2fd0] (2+3/5) Accurately ripped
18 [b5ae42bf|38245b3f] (2+3/5) Accurately ripped
19 [af06dab5|a3797005] (2+3/5) Accurately ripped

Track Peak [ CRC32 ] [W/O NULL] [ LOG ]
– 97,7 [7DA21A78] [CE6C1A51]
01 97,7 [28119170] [EABD55E6] CRC32
02 97,7 [4B649643] [9CA779AF] CRC32
03 97,7 [E4B50F48] [0CCFA189] CRC32
04 97,7 [1A770230] [765B31F4] CRC32
05 97,7 [C7EE01E3] [786E83E4] CRC32
06 97,7 [F6A9D03E] [55D54514] CRC32
07 97,7 [1281DCEA] [CB324297] CRC32
08 97,7 [36948C34] [40CAE3E3] CRC32
09 97,7 [454EF98E] [7D98FBE7] CRC32
10 97,7 [BDEA8B72] [ABF7B3EB] CRC32
11 97,7 [3654D97B] [678A5D75] CRC32
12 97,7 [80140EFB] [E05E5AA8] CRC32
13 97,7 [D97D1405] [79CD4376] CRC32
14 97,7 [58AA2049] [36EB6A0B] CRC32
15 97,7 [373F9295] [8DBBB3FC] CRC32
16 97,7 [C1B0E3FF] [647E1604] CRC32
17 97,7 [B3944B71] [4CF5D51D] CRC32
18 97,7 [ABAB6EEA] [DBF1B2E9] CRC32
19 97,7 [8164D22D] [1793C2DB] CRC32

[CUETools log; Date: 06.09.2016 17:41:01; Version: 2.1.5]
[CTDB TOCID: TNPWYkq9sZ_rjfoFpPtah6U7lr0-] found.
Track | CTDB Status
1 | (2/2) Accurately ripped
2 | (2/2) Accurately ripped
3 | (2/2) Accurately ripped
4 | (2/2) Accurately ripped
5 | (2/2) Accurately ripped
6 | (2/2) Accurately ripped
7 | (2/2) Accurately ripped
8 | (2/2) Accurately ripped
9 | (2/2) Accurately ripped
10 | (2/2) Accurately ripped
11 | (2/2) Accurately ripped
12 | (2/2) Accurately ripped
13 | (2/2) Accurately ripped
14 | (2/2) Accurately ripped
15 | (2/2) Accurately ripped
16 | (2/2) Accurately ripped
17 | (2/2) Accurately ripped
18 | (2/2) Accurately ripped
[AccurateRip ID: 002962cb-0225b95c-060e9712] found.
Track [ CRC | V2 ] Status
01 [8bc84599|32cb5d07] (0+3/3) Accurately ripped
02 [32047410|3c6ce148] (0+3/3) Accurately ripped
03 [eaf3b40d|76eea5fa] (0+3/3) Accurately ripped
04 [7841e02c|82d7a6ac] (0+3/3) Accurately ripped
05 [4a938803|fc1fbc55] (0+3/3) Accurately ripped
06 [f8f6fd01|bfbc6a4b] (0+3/3) Accurately ripped
07 [90cf4b5f|9495e890] (0+3/3) Accurately ripped
08 [69cccb9b|a9a54fb1] (0+3/3) Accurately ripped
09 [e3b24dbc|f65f0e05] (0+3/3) Accurately ripped
10 [52ed06f0|66937d44] (0+3/3) Accurately ripped
11 [678b7ca8|2d662cdc] (0+3/3) Accurately ripped
12 [b0be0892|4ee455a1] (0+3/3) Accurately ripped
13 [05df81c2|8191f321] (0+3/3) Accurately ripped
14 [377eb8e6|79421f90] (0+3/3) Accurately ripped
15 [943af8cb|8086a246] (0+3/3) Accurately ripped
16 [27fc5b0f|9fc45554] (0+3/3) Accurately ripped
17 [de1f65cc|1870db79] (0+3/3) Accurately ripped
18 [bc4bf3d8|36687d9f] (0+3/3) Accurately ripped

Track Peak [ CRC32 ] [W/O NULL] [ LOG ]
– 97,7 [96CA9903] [D91B9296]
01 97,7 [3FDD4C26] [6EF14FE9] CRC32
02 97,7 [88BBF848] [D1C1BE1C] CRC32
03 97,7 [9E70D162] [C29226D0] CRC32
04 97,7 [DB7DC05C] [6B212BFD] CRC32
05 97,7 [9F876118] [A2B22FED] CRC32
06 97,7 [B4C3F98C] [B6F09967] CRC32
07 97,7 [19F5912A] [2BFA7BC4] CRC32
08 97,7 [F32AD1CC] [BF1D8FAB] CRC32
09 97,7 [D51C5DDD] [9E7471F8] CRC32
10 97,7 [80769BB6] [74D5410A] CRC32
11 97,7 [B3379C0B] [0F258F09] CRC32
12 97,7 [6AD398C9] [691CCE53] CRC32
13 97,7 [C1E22627] [54C7AF10] CRC32
14 97,7 [D1047E88] [9D44BC69] CRC32
15 97,7 [7AE56EB6] [E7AB7B68] CRC32
16 97,7 [17088024] [95E904C9] CRC32
17 97,7 [F6B261CA] [A51E62E2] CRC32
18 97,7 [4AF1005A] [2060E818] CRC32


Musicians

Noddy Holder – vocals, guitar
Jim Lea – vocals, bass guitar, violin
Dave Hill – vocals, lead guitar
Don Powell – drums

Slade - Rockers: A Collection of Their Hardest - Hitting Tracks 1969-87 (2000) {2 CD Remastered}

All thanks goes to the original releaser
=====