Subcategories

Slade - Alive Vol Two (1978)

Posted By: uff
Slade - Alive Vol Two (1978)

Slade - Alive Vol Two (1978)
Rock | 1cd | EAC Rip | Flac + Cue + Log | covers
Polydor 849 179-2 | rel: 1993 | 340Mb

Slade were deep into their dark ages by the time Alive, Vol. 2 was released: it was 1978, and they'd not enjoyed a major hit in over two years. Neither was this oddly depressing album going to change that. Although one cannot complain about a track listing that marries older hits with more recent efforts – proof that they'd not yet descended to cabaret status – still there is something unseemly about hearing the likes of "Tak' Me Bak 'Ome," "Mama Weer All Crazee Now" and "Gudbuy T'Jane" having to rub shoulders with "My Baby Left Me" and "One Eyed Jacks."
Of course the performance is as powerful as you could hope. Slade might have lost their edge, but they never forgot how to rock. But compare this set with its six-year-old predecessor and, no matter that Vol. 2 packs five times the hit singles, it's Slade Alive! that you'll be returning to when it comes to getting down and getting with it. The time to release a second Slade live album was during 1973-1974, when they and their audience were at the peak of their game. Here, even the crowd sounds dispirited. ~Allmusic

Track listing
01. Get On Up (6:03)
02. Take Me Bak 'Ome (4:21)
03. My Baby Left Me (2:42)
04. Be (3:51)
05. Mama Weer All Crazee Now (3:59)
06. Burning In The Heat Of Love (3:46)
07. Everyday (3:36)
08. Gudbuy T' Jane (4:59)
09. One Eyed Jacks With Moustaches (3:25)
10. C'mon Feel The Noize (4:21)
~ (41:03)

Personnel
- Noddy Holder - lead vocals, rhythm guitar
- Dave Hill - lead guitar
- Jim Lea - bass guitar
- Don Powell - drums


Exact Audio Copy V1.0 beta 3 from 29. August 2011

EAC extraction logfile from 22. November 2013, 15:34

Slade / Slade Alive Vol. Two

Used drive : SONY BD RW BDX-S600U Adapter: 2 ID: 0

Read mode : Secure
Utilize accurate stream : Yes
Defeat audio cache : Yes
Make use of C2 pointers : No

Read offset correction : 48
Overread into Lead-In and Lead-Out : No
Fill up missing offset samples with silence : Yes
Delete leading and trailing silent blocks : No
Null samples used in CRC calculations : Yes
Used interface : Native Win32 interface for Win NT & 2000

Used output format : User Defined Encoder
Selected bitrate : 128 kBit/s
Quality : High
Add ID3 tag : No
Command line compressor : C:\Program Files (x86)\Exact Audio Copy\Flac\flac.exe
Additional command line options : -V -8 -T "Date=%year%" -T "Genre=%genre%" %source%


TOC of the extracted CD

Track | Start | Length | Start sector | End sector
––––––––––––––––––––––––––––-
1 | 0:00.32 | 6:03.15 | 32 | 27271
2 | 6:03.47 | 4:20.38 | 27272 | 46809
3 | 10:24.10 | 2:41.50 | 46810 | 58934
4 | 13:05.60 | 3:51.37 | 58935 | 76296
5 | 16:57.22 | 3:58.43 | 76297 | 94189
6 | 20:55.65 | 3:46.32 | 94190 | 111171
7 | 24:42.22 | 3:35.45 | 111172 | 127341
8 | 28:17.67 | 4:59.08 | 127342 | 149774
9 | 33:17.00 | 3:24.72 | 149775 | 165146
10 | 36:41.72 | 4:21.23 | 165147 | 184744


Range status and errors

Selected range

Filename D:\Slade discography\Live\1978. Slade - Slade Alive Vol. Two\1978. Slade - Slade Alive Vol. Two (Polydor 849 179-2,Germany)\Slade - Slade Alive Vol. Two.wav

Peak level 100.0 %
Extraction speed 6.3 X
Range quality 100.0 %
Test CRC 42491871
Copy CRC 42491871
Copy OK

No errors occurred


AccurateRip summary

Track 1 accurately ripped (confidence 2) [BED60D99] (AR v2)
Track 2 accurately ripped (confidence 2) [05A9A952] (AR v2)
Track 3 accurately ripped (confidence 2) [444E1343] (AR v2)
Track 4 accurately ripped (confidence 2) [A42718E9] (AR v2)
Track 5 accurately ripped (confidence 2) [DE1EE088] (AR v2)
Track 6 accurately ripped (confidence 2) [58D115E8] (AR v2)
Track 7 accurately ripped (confidence 2) [CC66A004] (AR v2)
Track 8 accurately ripped (confidence 2) [C5FABA35] (AR v2)
Track 9 accurately ripped (confidence 2) [6A975847] (AR v2)
Track 10 accurately ripped (confidence 2) [EC54973D] (AR v2)

All tracks accurately ripped

End of status report

–– CUETools DB Plugin V2.1.3

[CTDB TOCID: q53LbPQ8hwH2giQZNM4hWI.U1jA-] disk not present in database, Submit result: discs with pregaps not supported in this protocol version


==== Log checksum FB9DC50B8DF9540D5E52643EF2BCC1D4CD1A5880994A1B38D99243E5D9F01C57 ====



[CUETools log; Date: 2015.11.25. 19:38:20; Version: 2.1.5]
Pregap length 00:00:32.
[CTDB TOCID: q53LbPQ8hwH2giQZNM4hWI.U1jA-] found.
Track | CTDB Status
1 | (3/3) Accurately ripped
2 | (3/3) Accurately ripped
3 | (3/3) Accurately ripped
4 | (3/3) Accurately ripped
5 | (3/3) Accurately ripped
6 | (3/3) Accurately ripped
7 | (3/3) Accurately ripped
8 | (3/3) Accurately ripped
9 | (3/3) Accurately ripped
10 | (3/3) Accurately ripped
[AccurateRip ID: 000fe535-007d367f-9b099f0a] found.
Track [ CRC | V2 ] Status
01 [14619c08|bed60d99] (03+05/10) Accurately ripped
02 [0d7252e4|05a9a952] (03+05/10) Accurately ripped
03 [e336a2ef|444e1343] (03+05/10) Accurately ripped
04 [df834989|a42718e9] (03+05/10) Accurately ripped
05 [b1105368|de1ee088] (03+05/10) Accurately ripped
06 [518e9595|58d115e8] (03+05/10) Accurately ripped
07 [9515e45d|cc66a004] (03+05/10) Accurately ripped
08 [4e33f4f1|c5faba35] (03+05/10) Accurately ripped
09 [bb055b7e|6a975847] (03+05/10) Accurately ripped
10 [e7e3eafa|ec54973d] (03+05/10) Accurately ripped
Offsetted by 2324:
01 [b55bf5a8] (00/10) No match (V2 was not tested)
02 [44d7ca1a] (00/10) No match (V2 was not tested)
03 [1eeed860] (00/10) No match (V2 was not tested)
04 [fde6dd5b] (00/10) No match (V2 was not tested)
05 [61bfcf9f] (00/10) No match (V2 was not tested)
06 [2f5ec2fd] (00/10) No match (V2 was not tested)
07 [3d65b297] (00/10) No match (V2 was not tested)
08 [b25c5666] (00/10) No match (V2 was not tested)
09 [34a984cc] (00/10) No match (V2 was not tested)
10 [672d347d] (00/10) No match (V2 was not tested)

Track Peak [ CRC32 ] [W/O NULL] [ LOG ]
– 100,0 [42491871] [E149DE1A] CRC32
01 98,0 [0038E78C] [BE20895F]
02 95,9 [48ED0533] [116BC73A]
03 100,0 [72DB4402] [E19C4298]
04 100,0 [F33FDE00] [3C23FEFA]
05 94,5 [E2251004] [AA2418FC]
06 100,0 [1CFDBF2C] [F21F8C2A]
07 100,0 [88AEAF87] [84D008FE]
08 100,0 [491F6442] [092CD9E5]
09 92,1 [CFC80E91] [D7A10B9C]
10 97,1 [18452B5F] [4A362ED5]


Thx to alonzo
Oboom

Yunfile


password: asd