Subcategories

Sandy Denny - A Boxful of Treasures (2004) 5 CD Box Set [Re-Up]

Posted By: Designol
Sandy Denny - A Boxful of Treasures (2004) 5 CD Box Set [Re-Up]

Sandy Denny - A Boxful of Treasures (2004) 5 CD Box Set
EAC | FLAC | Tracks (Cue+Log) ~ 2 Gb (incl 5%) | Mp3 (CBR 320/Stereo) ~ 950 Mb (incl 5%) | Full Scans (jpg) ~ 106 Mb
Genre: Folk Rock, British Folk Rock, British Folk, Psychedelic Rock | Label: Fledg'ling | # NEST 5002 | Time: 05:54:56

Sandy Denny - A Boxful of Treasures (2004) 5 CD Box Set [Re-Up]

A Boxful of Treasures is a 2004 compilation box set of recordings by folk rock legend Sandy Denny and comprises solo material and recordings made during her time as a member of Fotheringay, Fairport Convention, and other groups. The fifth CD contains previously unreleased tracks, most of which are demos recorded at Denny's home.
Sandy Denny - A Boxful of Treasures (2004) 5 CD Box Set [Re-Up]

Even before her all-too-tragic passing in 1978, Sandy Denny was touted as England's premiere female folk vocalist. However, gratuitous comparisons with contemporaries Jacqui McShee and Joni Mitchell seem to have been more of an albatross or doubled-edged sword than confirmation of Denny's wholly individualistic style. Depending on which side of the aisle the respective listener and potential consumer sits – as curious enthusiast or dyed-in-the-wool Denny convert – this 88-track compilation can be interpreted as (a) either the final word on the artist or (b) another in a series of multi-disc collections that falls short of offering all the essentials within her voluminous songbook. Parties falling in the latter camp can undoubtedly point to excluded favorites – from Denny's participation as half of Sandy & Johnny, as a member of Fairport Convention, the Strawbs, Fotheringay or on her own – as evidence that only a 'complete' anthology could capture all that Denny has to offer. From that perspective, they would be just as correct as someone whose piqued interests are thoroughly satiated by the nearly six hours of audio included on Boxful of Treasures (2004). The contents are presented in a primarily chronological fashion, commencing with the powerful cover of "3.10 to Yuma" – from Denny's professional debut backed by Roger Evans (guitar) and David Moses (bass) – which had been a hit for pop singer Frankie Lane. Immediately established is Denny's commanding prowess and sensitivity, particularly pervasive on the originals "They Don't Seem to Know You" and appropriately enough "Boxful of Treasure" – a song which would resurface in due time under the name "Fotheringay." These are equalled by Denny's arrangements of "She Moves Through the Fair" and the haunting "Geordie" – all sourced from a smattering of lo-fi homemade recordings in 1967. Other formative zeniths from her collaborations with Evans and Moses are the empathetic overhaul of Jackson C. Frank's "You Never Wanted Me" and joined by Alex Campbell (vocals) on the gospel-infused "This Train." By mid-'68, Denny had become a member of the Strawbs and her contributions to Dave Cousins' "Sail Away to Sea," "Tell Me What You See in Me" and most notably, the first reading of "Who Knows Where the Time Goes" are spotlighted. When contrasted to her incipient demos, both the outstanding and never-before-available "Autopsy" as well as "Now and Then" – which initially turned up on the triple-CD Who Knows Where the Time Goes (1985) – are decidedly more polished, but no less emotionally gripping. As Denny's involvement with Fairport Convention has been widely documented, there are but a few rarities from her '68/'69 stint with the aggregate. One of which is the oft-circulated, yet previously unreleased rendition of "Sir Patrick Spens" lifted off a Top Gear BBC Radio session for John Peel on September 23, 1969. The tunes from the Fairport studio platters What We Did on Our Holidays (1969), Unhalfbricking (1969) and Liege & Lief (1969) are adeptly chosen, if not somewhat obligatory. The same holds true for the eponymous Fotheringay (1970) long-player, with the sizable exception of a newly unearthed take of "Silver Threads & Golden Needles" that is beautiful in its sparseness. Not to mention "Late November," a cut that was on the Island Records various-artists compilation El Pea (1971). Two of the volumes are dedicated to Denny's '70s solo career and luckily there are plenty of nuggets from the era unveiled within and scattered among the offerings from the LPs North Star Grassman and the Ravens (1971), Sandy (1972), Like an Old Fashioned Waltz (1973) and the posthumous BBC Sessions (1997). They include an alternate version of "Next Time Around" (sans string arrangement) circa North Star Grassman. Plus, unaccompanied renderings of "Sweet Rosemary" and "The Lady" from Sandy, in addition to "No End" and "At the End of the Day" (sans strings) from Like an Old Fashioned Waltz. It bears repeating these are all exclusive contents on Boxful of Treasures. By the middle part of the 1970s, the results of Denny's indulgences began to permeate her craft. She returned to the re-formation of Fairport Convention for Rising for the Moon (1974) before splitting again, emerging on what would become her final album Rendezvous (1977). This late period is punctuated with a bevy of rarities and outtakes. A live Fairport interpretation of "John the Gun" and "She Moves Through the Fair" hail from the February '74 shows at the Troubadour in Los Angeles. While an austere piano demo of the Rising for the Moon piece "One More Chance" will be worth the price of admission alone for some. those purchasing first-edition copies of the assemblage will undoubtedly be ecstatic with the fifth or 'bonus' CD, fittingly dubbed "A Collection of Rarities and Demos." Only three of the 17 selections have ever ascended over the years, leaving a host of titles that may be familiar to Denny fans, but certainly not as they appear on this package. Regardless of the consumer's prior knowledge or interest in Sandy Denny, it is here that she is at her most arrestingly poignant. "Take Me Away," "No More Sad Refrains," "Take Away the Load" and "Full Moon" are nothing short of organic aural jewels. As fellow Fairport Convention member Richard Thompson (guitar/vocal) points out in his introductory essay, "Somewhere the taste gurus have … failed to tell us, after 20 years of hindsight opportunity, that Sandy Denny was the greatest British female artist of her generation." Hopefully packages such as this will go a long way in rectifying that and give Denny the lauds she rightly deserves. The 56-page liner book is replete with photos, song-by-song annotations as well as comments and memories by associates ranging from John Renbourn, Danny Thompson, Ashley Hutchings, Linda Thompson, Jerry Donahue, Simon Nichol, Ian Matthews, Dave Mattacks, John "Rabbit" Bundrick and Dave Pegg to producer Joe Boyd and rock & roll family tree designer Pete Frame – among others.
Review by Lindsay Planer, Allmusic.com
Maddy Prior, Jacqui McShee, and June Tabor all give her a run for her money, but the late Sandy Denny remains the pre-eminent British folk-rock singer. In addition to recording several albums of her own, Denny was an integral force behind the best work of the most respected British folk-rock band of all, Fairport Convention, and also contributed mightily to recordings by the Strawbs and Fotheringay. It's impossible for words to fully evoke the haunting, spectral presence of her powerful and penetrating alto voice, which seemed to bring the mythology of English moors and folktales to life in contemporary, 20th century settings.

Denny was studying to be a nurse when she began to pursue music seriously in the mid-'60s, partially at the encouragement of the then-struggling Simon & Garfunkel, whom she met when they were still unknown. She was also friendly with the American folk singer Jackson Frank, and recorded a couple of his songs on her first album (now available as The Original Sandy Denny). While this solo acoustic recording was her most traditional folk effort, it showed considerable potential, which she came closer to realizing on the 1967 album she recorded as a member of the Strawbs. This found her singing with fuller folk-rock arrangements, and also included her first recorded composition, "Who Knows Where the Time Goes." The song gave Denny her first international recognition when Judy Collins recorded it in 1968.

Denny was tapped to replace Judy Dyble in Fairport Convention in 1968, and is prominently featured on their late-'60s albums What We Did on Our Holidays, Unhalfbricking, and Liege and Lief. These are not only recognized as Fairport's best work, but as some of the finest British folk-rock records of all time. Although Denny shared the lead vocal chores with other members of the group, it was her singing that highlighted the best tracks, such as "Tam Lin," "Fotheringay," and "Autopsy" (the last two of which she wrote).

Denny left Fairport Convention in 1970, and while both she and Fairport would produce some worthwhile work in the future, it's fair to say that neither band nor singer would reach the same peaks again. She formed the short-lived Fotheringay, which also included her future husband Trevor Lucas on guitar, but which disbanded after one decent album (a planned second LP was never completed). She recorded a few solo albums for Island in the 1970s that sometimes suffered from unsympathetic over-production and weak material, though the highlights are worth hearing. There was also an unremarkable album of oldies covers that she helped out with as a member of the Bunch, a British folk supersession of sorts that also included Richard Thompson. When mainstream rock listeners heard her voice in the 1970s, however, it was usually not on her own records, but as a guest vocalist on Led Zeppelin's "The Battle of Evermore."

Much of the best of Denny's later solo work, oddly, is found on live and BBC recordings, some of which surfaced on the box set Who Knows Where the Time Goes? (others appear on the bootleg Dark the Night). While Denny was a first-rate folk-rock singer, she usually didn't mesh well with mainstream rock or hard rock arrangements, and the live work usually framed her vocals in more appropriately sparse settings. She joined Fairport again for a while in the mid-'70s, appearing on the 1975 album Rising for the Moon, but the reunion didn't really excite either the participants or the audiences, and she left for good in 1976. Her final LP, Rendezvous, came out in 1977; the following year, she died from injuries sustained in a fall down a flight of stairs. In 1998, Island released Gold Dust, a recording of her final live performance taped at London's Royalty Theatre on November 27, 1977.

Official Website
Wiki


Sandy Denny - A Boxful of Treasures (2004) 5 CD Box Set [Re-Up]

Sandy Denny - A Boxful of Treasures (2004) 5 CD Box Set [Re-Up]

Disc One:
EAC | FLAC | Tracks (Cue+Log) ~ 315 Mb (incl 5%) | Mp3 (CBR 320, Stereo) ~ 182 Mb (incl 5%) | Time: 01:06:27


Tracklist:
1. 3.10 to Yuma
2. She Moves Through the Fair (home recording) (Previously Unreleased)
3. Boxful of Treasure (home recording) (Previously Unreleased)
4. They Don't Seem to Know You (home recording) (Previously Unreleased)
5. Go Your Way My Love (home recording)
6. Geordie (home recording)
7. Been on the Road So Long
8. Alex Campbell & Friends - You Never Wanted Me
9. Alex Campbell & Friends - This Train
10. Sandy Denny & the Strawbs - Sail Away to the Sea
11. Sandy Denny & the Strawbs - Tell Me What You See In Me
12. Sandy Denny & the Strawbs - Who Knows Where the Time Goes?
13. Autopsy (demo) (Previously Unreleased)
14. Now and Then (demo)
15. Fairport Convention - I Don't Know Where I Stand (radio session)
16. Fairport Convention - Bird on a Wire (radio session)
17. Fairport Convention - Fotheringay
18. Fairport Convention - Nottamun Town
19. Fairport Convention - Meet on the Ledge


EAC extraction logfile from 26. May 2008, 23:02 for CD
Sandy Denny / A Boxful Of Treasures CD1

Used drive : HL-DT-STDVD-RW GSA-H11N Adapter: 1 ID: 0
Read mode : Secure with NO C2, accurate stream, disable cache
Read offset correction : 667
Overread into Lead-In and Lead-Out : No

Used output format : C:\Users\Pepe\Downloads\Flac\flac-1.1.4-win\bin\flac.exe (User Defined Encoder)
320 kBit/s
Additional command line options : -8 -V -T "artist=%a" -T "title=%t" -T "album=%g" -T "date=%y" -T "tracknumber=%n" -T "genre=%m" %s

Other options :
Fill up missing offset samples with silence : Yes
Delete leading and trailing silent blocks : No
Native Win32 interface for Win NT & 2000


Track 1
Filename C:\Users\Pepe\Documents\Azureus Downloads\Sandy Denny - A Boxful Of Treasures (2004)\Disc1\01 - 3.10 To Yuma.wav

Pre-gap length 0:00:02.00

Peak level 71.7 %
Track quality 100.0 %
Test CRC D5B2507C
Copy CRC D5B2507C
Copy OK

Track 2
Filename C:\Users\Pepe\Documents\Azureus Downloads\Sandy Denny - A Boxful Of Treasures (2004)\Disc1\02 - She Moves Through The Fair.wav

Peak level 50.0 %
Track quality 100.0 %
Test CRC 5D8EEFDE
Copy CRC 5D8EEFDE
Copy OK

Track 3
Filename C:\Users\Pepe\Documents\Azureus Downloads\Sandy Denny - A Boxful Of Treasures (2004)\Disc1\03 - Boxful Of Treasure.wav

Peak level 72.1 %
Track quality 100.0 %
Test CRC 501C936D
Copy CRC 501C936D
Copy OK

Track 4
Filename C:\Users\Pepe\Documents\Azureus Downloads\Sandy Denny - A Boxful Of Treasures (2004)\Disc1\04 - They Don't Seem To Know You.wav

Peak level 63.9 %
Track quality 99.9 %
Test CRC FE6FC826
Copy CRC FE6FC826
Copy OK

Track 5
Filename C:\Users\Pepe\Documents\Azureus Downloads\Sandy Denny - A Boxful Of Treasures (2004)\Disc1\05 - Go Your Way My Love.wav

Peak level 55.7 %
Track quality 100.0 %
Test CRC 1ED87C66
Copy CRC 1ED87C66
Copy OK

Track 6
Filename C:\Users\Pepe\Documents\Azureus Downloads\Sandy Denny - A Boxful Of Treasures (2004)\Disc1\06 - Geordie.wav

Peak level 71.7 %
Track quality 100.0 %
Test CRC 734E6377
Copy CRC 734E6377
Copy OK

Track 7
Filename C:\Users\Pepe\Documents\Azureus Downloads\Sandy Denny - A Boxful Of Treasures (2004)\Disc1\07 - Been On The Road So Long.wav

Peak level 71.7 %
Track quality 99.9 %
Test CRC EBCD2FEC
Copy CRC EBCD2FEC
Copy OK

Track 8
Filename C:\Users\Pepe\Documents\Azureus Downloads\Sandy Denny - A Boxful Of Treasures (2004)\Disc1\08 - You Never Wanted Me.wav

Peak level 71.7 %
Track quality 100.0 %
Test CRC F1533AF4
Copy CRC F1533AF4
Copy OK

Track 9
Filename C:\Users\Pepe\Documents\Azureus Downloads\Sandy Denny - A Boxful Of Treasures (2004)\Disc1\09 - This Train.wav

Peak level 71.7 %
Track quality 100.0 %
Test CRC 96B6D3A6
Copy CRC 96B6D3A6
Copy OK

Track 10
Filename C:\Users\Pepe\Documents\Azureus Downloads\Sandy Denny - A Boxful Of Treasures (2004)\Disc1\10 - Sail Away To The Sea.wav

Peak level 53.3 %
Track quality 100.0 %
Test CRC ECCCEB06
Copy CRC ECCCEB06
Copy OK

Track 11
Filename C:\Users\Pepe\Documents\Azureus Downloads\Sandy Denny - A Boxful Of Treasures (2004)\Disc1\11 - Tell Me What You See In Me.wav

Peak level 54.4 %
Track quality 100.0 %
Test CRC 59A6C612
Copy CRC 59A6C612
Copy OK

Track 12
Filename C:\Users\Pepe\Documents\Azureus Downloads\Sandy Denny - A Boxful Of Treasures (2004)\Disc1\12 - Who Knows Where The Time Goes.wav

Peak level 60.0 %
Track quality 100.0 %
Test CRC D5F05694
Copy CRC D5F05694
Copy OK

Track 13
Filename C:\Users\Pepe\Documents\Azureus Downloads\Sandy Denny - A Boxful Of Treasures (2004)\Disc1\13 - Autopsy.wav

Peak level 63.4 %
Track quality 100.0 %
Test CRC B3160707
Copy CRC B3160707
Copy OK

Track 14
Filename C:\Users\Pepe\Documents\Azureus Downloads\Sandy Denny - A Boxful Of Treasures (2004)\Disc1\14 - Now And Then.wav

Peak level 71.7 %
Track quality 100.0 %
Test CRC BFC82ACA
Copy CRC BFC82ACA
Copy OK

Track 15
Filename C:\Users\Pepe\Documents\Azureus Downloads\Sandy Denny - A Boxful Of Treasures (2004)\Disc1\15 - I Don't Know Where I Stand.wav

Peak level 71.7 %
Track quality 100.0 %
Test CRC FA2420E8
Copy CRC FA2420E8
Copy OK

Track 16
Filename C:\Users\Pepe\Documents\Azureus Downloads\Sandy Denny - A Boxful Of Treasures (2004)\Disc1\16 - Bird On A Wire.wav

Peak level 71.4 %
Track quality 100.0 %
Test CRC 146AF008
Copy CRC 146AF008
Copy OK

Track 17
Filename C:\Users\Pepe\Documents\Azureus Downloads\Sandy Denny - A Boxful Of Treasures (2004)\Disc1\17 - Fotheringay.wav

Peak level 71.7 %
Track quality 100.0 %
Test CRC BB62997D
Copy CRC BB62997D
Copy OK

Track 18
Filename C:\Users\Pepe\Documents\Azureus Downloads\Sandy Denny - A Boxful Of Treasures (2004)\Disc1\18 - Nottamun Town.wav

Peak level 71.1 %
Track quality 99.9 %
Test CRC 13E7E36D
Copy CRC 13E7E36D
Copy OK

Track 19
Filename C:\Users\Pepe\Documents\Azureus Downloads\Sandy Denny - A Boxful Of Treasures (2004)\Disc1\19 - Meet On The Ledge.wav

Peak level 71.7 %
Track quality 100.0 %
Test CRC 92BBD3B5
Copy CRC 92BBD3B5
Copy OK

No errors occured


End of status report

AUDIOCHECKER v2.0 beta (build 457) - by Dester - opdester@freemail.hu
~~~~~~~~~~~~~~~~~~~~~~~~~~~~~~~~~~
-=== DO NOT EDIT THIS FILE! ===-

Path: …\Disc1

01 -=- 01 - 3.10 To Yuma.flac -=- CDDA (100%)
02 -=- 02 - She Moves Through The Fair.flac -=- CDDA (100%)
03 -=- 03 - Boxful Of Treasure.flac -=- CDDA (100%)
04 -=- 04 - They Don't Seem To Know You.flac -=- CDDA (100%)
05 -=- 05 - Go Your Way My Love.flac -=- CDDA (100%)
06 -=- 06 - Geordie.flac -=- CDDA (100%)
07 -=- 07 - Been On The Road So Long.flac -=- CDDA (100%)
08 -=- 08 - You Never Wanted Me.flac -=- CDDA (100%)
09 -=- 09 - This Train.flac -=- CDDA (100%)
10 -=- 10 - Sail Away To The Sea.flac -=- CDDA (99%)
11 -=- 11 - Tell Me What You See In Me.flac -=- CDDA (100%)
12 -=- 12 - Who Knows Where The Time Goes.flac -=- CDDA (100%)
13 -=- 13 - Autopsy.flac -=- CDDA (100%)
14 -=- 14 - Now And Then.flac -=- CDDA (100%)
15 -=- 15 - I Don't Know Where I Stand.flac -=- CDDA (99%)
16 -=- 16 - Bird On A Wire.flac -=- CDDA (100%)
17 -=- 17 - Fotheringay.flac -=- CDDA (100%)
18 -=- 18 - Nottamun Town.flac -=- CDDA (100%)
19 -=- 19 - Meet On The Ledge.flac -=- CDDA (99%)

Summary 99,84% CDDA

262063620

[CUETools log; Date: 03.06.2011 2:52:52; Version: 2.1.1]
[CTDB TOCID: 3lR2XEjk1S1g4aTh1mthGT77XPo-] disk not present in database.
[AccurateRip ID: 002d8fd6-0281bf76-160f9413] found.
Track [ CRC ] Status
01 [e5d62bb8] (05/19) Accurately ripped
02 [1f001287] (05/19) Accurately ripped
03 [5a1bc7ae] (05/19) Accurately ripped
04 [d5293b43] (05/19) Accurately ripped
05 [07eea038] (05/19) Accurately ripped
06 [dbb4b408] (05/19) Accurately ripped
07 [9a7cfa0d] (05/19) Accurately ripped
08 [e65a8e75] (05/19) Accurately ripped
09 [04870445] (05/19) Accurately ripped
10 [9c3dc8ea] (05/19) Accurately ripped
11 [ecd7c292] (05/19) Accurately ripped
12 [bb15168e] (05/19) Accurately ripped
13 [05c3ec6a] (05/19) Accurately ripped
14 [74e324bc] (05/19) Accurately ripped
15 [abf4a395] (05/19) Accurately ripped
16 [320056cd] (05/19) Accurately ripped
17 [c382bff0] (05/19) Accurately ripped
18 [b81ae171] (05/19) Accurately ripped
19 [7bcb3838] (05/19) Accurately ripped
Offsetted by 104:
01 [84efebab] (12/19) Accurately ripped
02 [7b71a0e2] (12/19) Accurately ripped
03 [5f757cc0] (12/19) Accurately ripped
04 [0a37d376] (12/19) Accurately ripped
05 [f99ab909] (12/19) Accurately ripped
06 [a83fe149] (12/19) Accurately ripped
07 [02b2abe0] (12/19) Accurately ripped
08 [b01d7802] (12/19) Accurately ripped
09 [3d553e01] (12/19) Accurately ripped
10 [4d919b96] (12/19) Accurately ripped
11 [ba96ab42] (12/19) Accurately ripped
12 [fd3439b2] (12/19) Accurately ripped
13 [2247c078] (12/19) Accurately ripped
14 [4bc7ca95] (12/19) Accurately ripped
15 [9c290930] (12/19) Accurately ripped
16 [37da8bca] (12/19) Accurately ripped
17 [e86b17f5] (12/19) Accurately ripped
18 [567d3161] (12/19) Accurately ripped
19 [c679cc6d] (12/19) Accurately ripped

Track Peak [ CRC32 ] [W/O NULL] [ LOG ]
– 72,1 [595F776A] [1B4D1783]
01 71,7 [D5B2507C] [0A40943B] CRC32
02 50,0 [5D8EEFDE] [15684045] CRC32
03 72,1 [501C936D] [911C9868] CRC32
04 63,9 [FE6FC826] [7562B6A0] CRC32
05 55,7 [1ED87C66] [82D853F8] CRC32
06 71,7 [734E6377] [2E2D7A1E] CRC32
07 71,7 [EBCD2FEC] [98EC017B] CRC32
08 71,7 [F1533AF4] [49567084] CRC32
09 71,7 [96B6D3A6] [8BC2C32A] CRC32
10 53,3 [ECCCEB06] [A08F2C21] CRC32
11 54,4 [59A6C612] [ACBAF54C] CRC32
12 60,0 [D5F05694] [4DF8C788] CRC32
13 63,4 [B3160707] [CA47AE44] CRC32
14 71,7 [BFC82ACA] [37DCA47C] CRC32
15 71,7 [FA2420E8] [08F1F130] CRC32
16 71,4 [146AF008] [EC1AF556] CRC32
17 71,7 [BB62997D] [D59CC9E7] CRC32
18 71,1 [13E7E36D] [58C68A77] CRC32
19 71,7 [92BBD3B5] [3BA84B0D] CRC32


Sandy Denny - A Boxful of Treasures (2004) 5 CD Box Set [Re-Up]

Sandy Denny - A Boxful of Treasures (2004) 5 CD Box Set [Re-Up]

Disc Two:
EAC | FLAC | Tracks (Cue+Log) ~ 468 Mb (incl 5%) | Mp3 (CBR 320, Stereo) ~ 206 Mb (incl 5%) | Time: 01:17:04


Tracklist:
1. Fairport Convention - Si Tu Dois Partir
2. Fairport Convention - Cajun Woman
3. Fairport Convention - The Ballad of Easy Rider
4. Fairport Convention - A Sailor's Life
5. Fairport Convention - Fairport Convention - Reynardine
6. Fairport Convention - Fairport Convention - Farewell Farewell
7. Fairport Convention - Tam Lin
8. Fairport Convention - Sir Patrick Spens (radio session) (Previously Unreleased)
9. Fotheringay - The Pond and the Stream
10. Fotheringay - The Sea
11. Fotheringay - The Banks of the Nile
12. Fotheringay - Silver Threads and Golden Needles (Previously Unreleased)
13. The Lowlands of Holland (radio session)
14. Fotheringay - Nothing More
15. Fotheringay - Gypsy Davey
16. Fotheringay - Late November


EAC extraction logfile from 26. May 2008, 23:57 for CD
Sandy Denny / A Boxful Of Treasures CD2

Used drive : HL-DT-STDVD-RW GSA-H11N Adapter: 1 ID: 0
Read mode : Secure with NO C2, accurate stream, disable cache
Read offset correction : 667
Overread into Lead-In and Lead-Out : No

Used output format : C:\Users\Pepe\Downloads\Flac\flac-1.1.4-win\bin\flac.exe (User Defined Encoder)
320 kBit/s
Additional command line options : -8 -V -T "artist=%a" -T "title=%t" -T "album=%g" -T "date=%y" -T "tracknumber=%n" -T "genre=%m" %s

Other options :
Fill up missing offset samples with silence : Yes
Delete leading and trailing silent blocks : No
Native Win32 interface for Win NT & 2000


Track 1
Filename C:\Users\Pepe\Documents\Azureus Downloads\Sandy Denny - A Boxful Of Treasures (2004)\Disc2\01 - Si Tu Dois Partir.wav

Pre-gap length 0:00:02.00

Peak level 98.8 %
Track quality 100.0 %
Test CRC 15526B58
Copy CRC 15526B58
Copy OK

Track 2
Filename C:\Users\Pepe\Documents\Azureus Downloads\Sandy Denny - A Boxful Of Treasures (2004)\Disc2\02 - Cajun Woman.wav

Pre-gap length 0:00:02.58

Peak level 98.8 %
Track quality 100.0 %
Test CRC 9A14A124
Copy CRC 9A14A124
Copy OK

Track 3
Filename C:\Users\Pepe\Documents\Azureus Downloads\Sandy Denny - A Boxful Of Treasures (2004)\Disc2\03 - The Ballad Of Easy Rider.wav

Pre-gap length 0:00:02.58

Peak level 98.8 %
Track quality 100.0 %
Test CRC 901CECCD
Copy CRC 901CECCD
Copy OK

Track 4
Filename C:\Users\Pepe\Documents\Azureus Downloads\Sandy Denny - A Boxful Of Treasures (2004)\Disc2\04 - A Sailor's Life.wav

Pre-gap length 0:00:02.58

Peak level 98.8 %
Track quality 100.0 %
Test CRC 30ED4D12
Copy CRC 30ED4D12
Copy OK

Track 5
Filename C:\Users\Pepe\Documents\Azureus Downloads\Sandy Denny - A Boxful Of Treasures (2004)\Disc2\05 - Reynardine.wav

Pre-gap length 0:00:02.58

Peak level 98.8 %
Track quality 99.9 %
Test CRC 3726D91D
Copy CRC 3726D91D
Copy OK

Track 6
Filename C:\Users\Pepe\Documents\Azureus Downloads\Sandy Denny - A Boxful Of Treasures (2004)\Disc2\06 - Farewell Farewell.wav

Pre-gap length 0:00:02.58

Peak level 89.6 %
Track quality 100.0 %
Test CRC C358DEEC
Copy CRC C358DEEC
Copy OK

Track 7
Filename C:\Users\Pepe\Documents\Azureus Downloads\Sandy Denny - A Boxful Of Treasures (2004)\Disc2\07 - Tam Lin.wav

Pre-gap length 0:00:02.58

Peak level 98.8 %
Track quality 100.0 %
Test CRC E619B715
Copy CRC E619B715
Copy OK

Track 8
Filename C:\Users\Pepe\Documents\Azureus Downloads\Sandy Denny - A Boxful Of Treasures (2004)\Disc2\08 - Sir Patrick Spens.wav

Pre-gap length 0:00:02.58

Peak level 98.8 %
Track quality 100.0 %
Test CRC 7B9B6366
Copy CRC 7B9B6366
Copy OK

Track 9
Filename C:\Users\Pepe\Documents\Azureus Downloads\Sandy Denny - A Boxful Of Treasures (2004)\Disc2\09 - The Pond And The Stream.wav

Pre-gap length 0:00:02.58

Peak level 77.9 %
Track quality 100.0 %
Test CRC 1F9619B2
Copy CRC 1F9619B2
Copy OK

Track 10
Filename C:\Users\Pepe\Documents\Azureus Downloads\Sandy Denny - A Boxful Of Treasures (2004)\Disc2\10 - The Sea.wav

Pre-gap length 0:00:02.58

Peak level 79.0 %
Track quality 100.0 %
Test CRC B4881F21
Copy CRC B4881F21
Copy OK

Track 11
Filename C:\Users\Pepe\Documents\Azureus Downloads\Sandy Denny - A Boxful Of Treasures (2004)\Disc2\11 - The Banks Of The Nile.wav

Pre-gap length 0:00:02.58

Peak level 79.1 %
Track quality 100.0 %
Test CRC CE2C10FF
Copy CRC CE2C10FF
Copy OK

Track 12
Filename C:\Users\Pepe\Documents\Azureus Downloads\Sandy Denny - A Boxful Of Treasures (2004)\Disc2\12 - Silver Treads And Golden Needles.wav

Pre-gap length 0:00:02.58

Peak level 98.8 %
Track quality 100.0 %
Test CRC 70FAF512
Copy CRC 70FAF512
Copy OK

Track 13
Filename C:\Users\Pepe\Documents\Azureus Downloads\Sandy Denny - A Boxful Of Treasures (2004)\Disc2\13 - The Lowlands Of Holland.wav

Pre-gap length 0:00:02.58

Peak level 98.8 %
Track quality 100.0 %
Test CRC 505AA879
Copy CRC 505AA879
Copy OK

Track 14
Filename C:\Users\Pepe\Documents\Azureus Downloads\Sandy Denny - A Boxful Of Treasures (2004)\Disc2\14 - Nothing More.wav

Pre-gap length 0:00:02.58

Peak level 98.8 %
Track quality 99.9 %
Test CRC 0153CD69
Copy CRC 0153CD69
Copy OK

Track 15
Filename C:\Users\Pepe\Documents\Azureus Downloads\Sandy Denny - A Boxful Of Treasures (2004)\Disc2\15 - Gypsy Davey.wav

Pre-gap length 0:00:02.58

Peak level 98.8 %
Track quality 99.9 %
Test CRC 1B34371F
Copy CRC 1B34371F
Copy OK

Track 16
Filename C:\Users\Pepe\Documents\Azureus Downloads\Sandy Denny - A Boxful Of Treasures (2004)\Disc2\16 - Late November.wav

Pre-gap length 0:00:02.58

Peak level 98.8 %
Track quality 99.9 %
Test CRC AA8F0DB2
Copy CRC AA8F0DB2
Copy OK

No errors occured


End of status report

AUDIOCHECKER v2.0 beta (build 457) - by Dester - opdester@freemail.hu
~~~~~~~~~~~~~~~~~~~~~~~~~~~~~~~~~~
-=== DO NOT EDIT THIS FILE! ===-

Path: …\Disc2

01 -=- 01 - Si Tu Dois Partir.flac -=- CDDA (100%)
02 -=- 02 - Cajun Woman.flac -=- CDDA (100%)
03 -=- 03 - The Ballad Of Easy Rider.flac -=- CDDA (100%)
04 -=- 04 - A Sailor's Life.flac -=- CDDA (100%)
05 -=- 05 - Reynardine.flac -=- CDDA (100%)
06 -=- 06 - Farewell Farewell.flac -=- CDDA (100%)
07 -=- 07 - Tam Lin.flac -=- CDDA (100%)
08 -=- 08 - Sir Patrick Spens.flac -=- CDDA (100%)
09 -=- 09 - The Pond And The Stream.flac -=- CDDA (100%)
10 -=- 10 - The Sea.flac -=- CDDA (100%)
11 -=- 11 - The Banks Of The Nile.flac -=- CDDA (100%)
12 -=- 12 - Silver Treads And Golden Needles.flac -=- CDDA (100%)
13 -=- 13 - The Lowlands Of Holland.flac -=- CDDA (100%)
14 -=- 14 - Nothing More.flac -=- CDDA (99%)
15 -=- 15 - Gypsy Davey.flac -=- CDDA (100%)
16 -=- 16 - Late November.flac -=- CDDA (100%)

Summary 99,94% CDDA

221306564

[CUETools log; Date: 03.06.2011 2:53:30; Version: 2.1.1]
[CTDB TOCID: f9fVK0dBAsvh8yC3lpVbLlTQkQs-] disk not present in database.
[AccurateRip ID: 002d7219-02274ec3-e7123a10] found.
Track [ CRC ] Status
01 [424f1b00] (3/3) Accurately ripped
02 [52a13d1e] (3/3) Accurately ripped
03 [3c61c219] (3/3) Accurately ripped
04 [6d0a40bd] (3/3) Accurately ripped
05 [e6063e90] (3/3) Accurately ripped
06 [01b0f1db] (3/3) Accurately ripped
07 [160a1cb0] (3/3) Accurately ripped
08 [e663c057] (3/3) Accurately ripped
09 [2f878a2e] (3/3) Accurately ripped
10 [848cf878] (3/3) Accurately ripped
11 [870ab501] (3/3) Accurately ripped
12 [f119a82f] (3/3) Accurately ripped
13 [a14ded87] (3/3) Accurately ripped
14 [a1f256de] (3/3) Accurately ripped
15 [0762fc37] (3/3) Accurately ripped
16 [96af4be6] (3/3) Accurately ripped
Offsetted by 6:
01 [466f43be] (0/3) No match but offset
02 [6c7684a6] (0/3) No match but offset
03 [67c3d514] (0/3) No match but offset
04 [894734ca] (0/3) No match but offset
05 [dd6d8514] (0/3) No match but offset
06 [0bf0c029] (0/3) No match but offset
07 [e99332cc] (0/3) No match but offset
08 [d4980ccb] (0/3) No match but offset
09 [f34f5e68] (0/3) No match but offset
10 [d3760074] (0/3) No match but offset
11 [fd970798] (0/3) No match but offset
12 [50b51551] (0/3) No match but offset
13 [75f047aa] (0/3) No match but offset
14 [72c67d7f] (0/3) No match but offset
15 [32bb4324] (0/3) No match but offset
16 [8428d883] (0/3) No match but offset

Track Peak [ CRC32 ] [W/O NULL] [ LOG ]
– 98,8 [BF79474D] [96BCB143]
01 98,8 [15526B58] [09211E24] CRC32
02 98,8 [9A14A124] [CE8B056E] CRC32
03 98,8 [901CECCD] [399CBF2F] CRC32
04 98,8 [30ED4D12] [84C246FE] CRC32
05 98,8 [3726D91D] [A04A298E] CRC32
06 89,6 [C358DEEC] [4DC4DDB2] CRC32
07 98,8 [E619B715] [8227A6E2] CRC32
08 98,8 [7B9B6366] [ABBDAA48] CRC32
09 77,9 [1F9619B2] [FB9B7652] CRC32
10 79,0 [B4881F21] [5364054C] CRC32
11 79,1 [CE2C10FF] [2C234A6D] CRC32
12 98,8 [70FAF512] [2174C698] CRC32
13 98,8 [505AA879] [31A20520] CRC32
14 98,8 [0153CD69] [A673C1A9] CRC32
15 98,8 [1B34371F] [823B5862] CRC32
16 98,8 [AA8F0DB2] [16E6A95D] CRC32


Sandy Denny - A Boxful of Treasures (2004) 5 CD Box Set [Re-Up]

Sandy Denny - A Boxful of Treasures (2004) 5 CD Box Set [Re-Up]

Disc Three:
EAC | FLAC | Tracks (Cue+Log) ~ 421 Mb (incl 5%) | Mp3 (CBR 320, Stereo) ~ 191 Mb (incl 5%) | Time: 01:09:40


Tracklist:
1. The North Star Grassman and the Ravens
2. Next Time Around (alternate take without strings) (Previously Unreleased)
3. Blackwaterside
4. The Sea Captain
5. Ian Matthews - Thro' My Eyes
6. The Bunch - Learning the Game
7. Here In Silence
8. Bruton Town (radio session)
9. Sweet Rosemary (demo) (Previously Unreleased)
10. After Halloween (demo)
11. The Lady (demo) (Previously Unreleased)
12. The Music Weaver
13. Ecoute Ecoute
14. Quiet Joys of Brotherhood
15. It'll Take a Long Time
16. No End (solo alternate take) (Previously Unreleased)
17. Bushes and Briars (radio session)
18. Walking the Floor Over You


EAC extraction logfile from 27. May 2008, 7:00 for CD
Sandy Denny / A Boxful Of Treasures CD3

Used drive : HL-DT-STDVD-RW GSA-H11N Adapter: 1 ID: 0
Read mode : Secure with NO C2, accurate stream, disable cache
Read offset correction : 667
Overread into Lead-In and Lead-Out : No

Used output format : C:\Users\Pepe\Downloads\Flac\flac-1.1.4-win\bin\flac.exe (User Defined Encoder)
320 kBit/s
Additional command line options : -8 -V -T "artist=%a" -T "title=%t" -T "album=%g" -T "date=%y" -T "tracknumber=%n" -T "genre=%m" %s

Other options :
Fill up missing offset samples with silence : Yes
Delete leading and trailing silent blocks : No
Native Win32 interface for Win NT & 2000


Track 1
Filename C:\Users\Pepe\Documents\Azureus Downloads\Sandy Denny - A Boxful Of Treasures (2004)\Disc3\01 - The North Star Grassman And The Ravens.wav

Pre-gap length 0:00:02.00

Peak level 98.8 %
Track quality 100.0 %
Test CRC 3F84CB78
Copy CRC 3F84CB78
Copy OK

Track 2
Filename C:\Users\Pepe\Documents\Azureus Downloads\Sandy Denny - A Boxful Of Treasures (2004)\Disc3\02 - Next Time Around.wav

Pre-gap length 0:00:02.58

Peak level 98.8 %
Track quality 100.0 %
Test CRC D35CC4A0
Copy CRC D35CC4A0
Copy OK

Track 3
Filename C:\Users\Pepe\Documents\Azureus Downloads\Sandy Denny - A Boxful Of Treasures (2004)\Disc3\03 - Blackwaterside.wav

Pre-gap length 0:00:02.58

Peak level 98.8 %
Track quality 99.9 %
Test CRC 5850CCE6
Copy CRC 5850CCE6
Copy OK

Track 4
Filename C:\Users\Pepe\Documents\Azureus Downloads\Sandy Denny - A Boxful Of Treasures (2004)\Disc3\04 - The Sea Captain.wav

Pre-gap length 0:00:02.58

Peak level 98.8 %
Track quality 100.0 %
Test CRC 3E416876
Copy CRC 3E416876
Copy OK

Track 5
Filename C:\Users\Pepe\Documents\Azureus Downloads\Sandy Denny - A Boxful Of Treasures (2004)\Disc3\05 - Thro' My Eyes.wav

Pre-gap length 0:00:02.58

Peak level 98.8 %
Track quality 100.0 %
Test CRC 7BE6884C
Copy CRC 7BE6884C
Copy OK

Track 6
Filename C:\Users\Pepe\Documents\Azureus Downloads\Sandy Denny - A Boxful Of Treasures (2004)\Disc3\06 - Learning The Game.wav

Pre-gap length 0:00:02.58

Peak level 98.8 %
Track quality 100.0 %
Test CRC 13909485
Copy CRC 13909485
Copy OK

Track 7
Filename C:\Users\Pepe\Documents\Azureus Downloads\Sandy Denny - A Boxful Of Treasures (2004)\Disc3\07 - Here In Silence.wav

Pre-gap length 0:00:02.58

Peak level 98.8 %
Track quality 100.0 %
Test CRC 635AA9ED
Copy CRC 635AA9ED
Copy OK

Track 8
Filename C:\Users\Pepe\Documents\Azureus Downloads\Sandy Denny - A Boxful Of Treasures (2004)\Disc3\08 - Bruton Town.wav

Pre-gap length 0:00:02.58

Peak level 98.8 %
Track quality 100.0 %
Test CRC 3FC8031E
Copy CRC 3FC8031E
Copy OK

Track 9
Filename C:\Users\Pepe\Documents\Azureus Downloads\Sandy Denny - A Boxful Of Treasures (2004)\Disc3\09 - Sweet Rosemary.wav

Pre-gap length 0:00:02.58

Peak level 73.9 %
Track quality 100.0 %
Test CRC D8272E88
Copy CRC D8272E88
Copy OK

Track 10
Filename C:\Users\Pepe\Documents\Azureus Downloads\Sandy Denny - A Boxful Of Treasures (2004)\Disc3\10 - After Halloween.wav

Pre-gap length 0:00:02.58

Peak level 98.8 %
Track quality 100.0 %
Test CRC 47CB975C
Copy CRC 47CB975C
Copy OK

Track 11
Filename C:\Users\Pepe\Documents\Azureus Downloads\Sandy Denny - A Boxful Of Treasures (2004)\Disc3\11 - The Lady.wav

Pre-gap length 0:00:02.58

Peak level 98.8 %
Track quality 100.0 %
Test CRC 2451A074
Copy CRC 2451A074
Copy OK

Track 12
Filename C:\Users\Pepe\Documents\Azureus Downloads\Sandy Denny - A Boxful Of Treasures (2004)\Disc3\12 - The Music Weaver.wav

Pre-gap length 0:00:02.58

Peak level 98.8 %
Track quality 99.9 %
Test CRC 9D9D7445
Copy CRC 9D9D7445
Copy OK

Track 13
Filename C:\Users\Pepe\Documents\Azureus Downloads\Sandy Denny - A Boxful Of Treasures (2004)\Disc3\13 - Ecoute Ecoute.wav

Pre-gap length 0:00:02.58

Peak level 98.8 %
Track quality 100.0 %
Test CRC E68448B8
Copy CRC E68448B8
Copy OK

Track 14
Filename C:\Users\Pepe\Documents\Azureus Downloads\Sandy Denny - A Boxful Of Treasures (2004)\Disc3\14 - Quiet Joys Of Brotherhood.wav

Pre-gap length 0:00:02.58

Peak level 98.8 %
Track quality 100.0 %
Test CRC 0F1DFBAF
Copy CRC 0F1DFBAF
Copy OK

Track 15
Filename C:\Users\Pepe\Documents\Azureus Downloads\Sandy Denny - A Boxful Of Treasures (2004)\Disc3\15 - It'll Take A Long Time.wav

Pre-gap length 0:00:02.58

Peak level 98.8 %
Track quality 100.0 %
Test CRC 743EAA75
Copy CRC 743EAA75
Copy OK

Track 16
Filename C:\Users\Pepe\Documents\Azureus Downloads\Sandy Denny - A Boxful Of Treasures (2004)\Disc3\16 - No End.wav

Pre-gap length 0:00:02.58

Peak level 98.8 %
Track quality 100.0 %
Test CRC 29395833
Copy CRC 29395833
Copy OK

Track 17
Filename C:\Users\Pepe\Documents\Azureus Downloads\Sandy Denny - A Boxful Of Treasures (2004)\Disc3\17 - Bushes And Briars.wav

Pre-gap length 0:00:02.58

Peak level 98.8 %
Track quality 100.0 %
Test CRC A7BA43FD
Copy CRC A7BA43FD
Copy OK

Track 18
Filename C:\Users\Pepe\Documents\Azureus Downloads\Sandy Denny - A Boxful Of Treasures (2004)\Disc3\18 - Walking The Floor Over You.wav

Pre-gap length 0:00:02.58

Peak level 98.8 %
Track quality 100.0 %
Test CRC 5777A21A
Copy CRC 5777A21A
Copy OK

No errors occured


End of status report

AUDIOCHECKER v2.0 beta (build 457) - by Dester - opdester@freemail.hu
~~~~~~~~~~~~~~~~~~~~~~~~~~~~~~~~~~
-=== DO NOT EDIT THIS FILE! ===-

Path: …\Disc3

01 -=- 01 - The North Star Grassman And The Ravens.flac -=- CDDA (100%)
02 -=- 02 - Next Time Around.flac -=- CDDA (100%)
03 -=- 03 - Blackwaterside.flac -=- CDDA (99%)
04 -=- 04 - The Sea Captain.flac -=- CDDA (100%)
05 -=- 05 - Thro' My Eyes.flac -=- CDDA (100%)
06 -=- 06 - Learning The Game.flac -=- CDDA (100%)
07 -=- 07 - Here In Silence.flac -=- CDDA (100%)
08 -=- 08 - Bruton Town.flac -=- CDDA (100%)
09 -=- 09 - Sweet Rosemary.flac -=- CDDA (100%)
10 -=- 10 - After Halloween.flac -=- CDDA (99%)
11 -=- 11 - The Lady.flac -=- CDDA (100%)
12 -=- 12 - The Music Weaver.flac -=- CDDA (100%)
13 -=- 13 - Ecoute Ecoute.flac -=- CDDA (100%)
14 -=- 14 - Quiet Joys Of Brotherhood.flac -=- CDDA (100%)
15 -=- 15 - It'll Take A Long Time.flac -=- CDDA (99%)
16 -=- 16 - No End.flac -=- CDDA (100%)
17 -=- 17 - Bushes And Briars.flac -=- CDDA (100%)
18 -=- 18 - Walking The Floor Over You.flac -=- CDDA (100%)

Summary 99,83% CDDA

178991988

[CUETools log; Date: 03.06.2011 2:54:06; Version: 2.1.1]
[CTDB TOCID: bOWc5uIxGjj.DOvFvYfxXEBWlwM-] disk not present in database.
[AccurateRip ID: 002b76bd-024790f8-ed108412] found.
Track [ CRC ] Status
01 [978ee270] (3/3) Accurately ripped
02 [596f9c13] (3/3) Accurately ripped
03 [b67b248f] (3/3) Accurately ripped
04 [3cf9a889] (3/3) Accurately ripped
05 [412e13bd] (3/3) Accurately ripped
06 [2f37383d] (3/3) Accurately ripped
07 [2a24f222] (3/3) Accurately ripped
08 [90f051ca] (3/3) Accurately ripped
09 [027ef30b] (3/3) Accurately ripped
10 [dfdace7a] (3/3) Accurately ripped
11 [9ed178a6] (3/3) Accurately ripped
12 [30e64451] (3/3) Accurately ripped
13 [f357f478] (3/3) Accurately ripped
14 [497b53ae] (3/3) Accurately ripped
15 [f216c863] (3/3) Accurately ripped
16 [b1b4ee4d] (3/3) Accurately ripped
17 [8dc7da0a] (3/3) Accurately ripped
18 [fc84eebb] (3/3) Accurately ripped
Offsetted by -478:
01 [f2b16e46] (0/3) No match but offset
02 [8dde4ab4] (0/3) No match but offset
03 [75534582] (0/3) No match but offset
04 [36ed7239] (0/3) No match but offset
05 [59a7350c] (0/3) No match but offset
06 [d442fe44] (0/3) No match but offset
07 [9312d894] (0/3) No match but offset
08 [9a11a9e6] (0/3) No match but offset
09 [d4db62a5] (0/3) No match but offset
10 [46b26fee] (0/3) No match but offset
11 [d2631283] (0/3) No match but offset
12 [ba40b09d] (0/3) No match but offset
13 [7c7b3b59] (0/3) No match but offset
14 [251aca7a] (0/3) No match but offset
15 [a9d3eecf] (0/3) No match but offset
16 [c54a3e2b] (0/3) No match but offset
17 [2fb7fce2] (0/3) No match but offset
18 [3ad09da4] (0/3) No match but offset

Track Peak [ CRC32 ] [W/O NULL] [ LOG ]
– 98,8 [D97D898D] [2BC3A793]
01 98,8 [3F84CB78] [C6CDCA13] CRC32
02 98,8 [D35CC4A0] [7C09B950] CRC32
03 98,8 [5850CCE6] [AACD35E0] CRC32
04 98,8 [3E416876] [48C80DD1] CRC32
05 98,8 [7BE6884C] [60804123] CRC32
06 98,8 [13909485] [44A89330] CRC32
07 98,8 [635AA9ED] [5975B84D] CRC32
08 98,8 [3FC8031E] [7FB03BC9] CRC32
09 73,9 [D8272E88] [5E10C4C7] CRC32
10 98,8 [47CB975C] [0DE0E3DB] CRC32
11 98,8 [2451A074] [067CDFA1] CRC32
12 98,8 [9D9D7445] [44F2C69C] CRC32
13 98,8 [E68448B8] [BFA39F54] CRC32
14 98,8 [0F1DFBAF] [4B3811AB] CRC32
15 98,8 [743EAA75] [41AD57C5] CRC32
16 98,8 [29395833] [6C22DD1A] CRC32
17 98,8 [A7BA43FD] [B6E45F7D] CRC32
18 98,8 [5777A21A] [C987652E] CRC32


Sandy Denny - A Boxful of Treasures (2004) 5 CD Box Set [Re-Up]

Sandy Denny - A Boxful of Treasures (2004) 5 CD Box Set [Re-Up]

Disc Four:
EAC | FLAC | Tracks (Cue+Log) ~ 478 Mb (incl 5%) | Mp3 (CBR 320, Stereo) ~ 202 Mb (incl 5%) | Time: 01:14:55


Tracklist:
1. Whispering Grass (radio session)
2. Solo
3. At the End of the Day (alternate take without strings) (Previously Unreleased)
4. Like an Old Fashioned Waltz
5. Until the Real Thing Comes Along (radio session)
6. Fairport Convention - John the Gun (live) (Previously Unreleased)
7. Fairport Convention - She Moves Through the Fair (live) (Previously Unreleased)
8. One More Chance (demo) (Previously Unreleased)
9. King and Queen of England (home recording)
10. Fairport Convention - Rising for the Moon
11. Fairport Convention - White Dress
12. I'm a Dreamer
13. By the Time It Gets Dark (Previously Unreleased)
14. No More Sad Refrains
15. Losing Game (Previously Unreleased)
16. Easy to Slip
17. Full Moon
18. Moments (final studio recording)


EAC extraction logfile from 27. May 2008, 8:29 for CD
Sandy Denny / A Boxful Of Treasures CD4

Used drive : HL-DT-STDVD-RW GSA-H11N Adapter: 1 ID: 0
Read mode : Secure with NO C2, accurate stream, disable cache
Read offset correction : 667
Overread into Lead-In and Lead-Out : No

Used output format : C:\Users\Pepe\Downloads\Flac\flac-1.1.4-win\bin\flac.exe (User Defined Encoder)
320 kBit/s
Additional command line options : -8 -V -T "artist=%a" -T "title=%t" -T "album=%g" -T "date=%y" -T "tracknumber=%n" -T "genre=%m" %s

Other options :
Fill up missing offset samples with silence : Yes
Delete leading and trailing silent blocks : No
Native Win32 interface for Win NT & 2000


Track 1
Filename C:\Users\Pepe\Documents\Azureus Downloads\Sandy Denny - A Boxful Of Treasures (2004)\Disc4\01 - Whispering Grass.wav

Pre-gap length 0:00:02.00

Peak level 98.8 %
Track quality 100.0 %
Test CRC 637442BC
Copy CRC 637442BC
Copy OK

Track 2
Filename C:\Users\Pepe\Documents\Azureus Downloads\Sandy Denny - A Boxful Of Treasures (2004)\Disc4\02 - Solo.wav

Peak level 98.8 %
Track quality 100.0 %
Test CRC 38C6E2B7
Copy CRC 38C6E2B7
Copy OK

Track 3
Filename C:\Users\Pepe\Documents\Azureus Downloads\Sandy Denny - A Boxful Of Treasures (2004)\Disc4\03 - At The End Of The Day.wav

Peak level 87.9 %
Track quality 100.0 %
Test CRC 80C0F6BD
Copy CRC 80C0F6BD
Copy OK

Track 4
Filename C:\Users\Pepe\Documents\Azureus Downloads\Sandy Denny - A Boxful Of Treasures (2004)\Disc4\04 - Like An Old Fashioned Waltz.wav

Peak level 98.8 %
Track quality 100.0 %
Test CRC C9AC90C4
Copy CRC C9AC90C4
Copy OK

Track 5
Filename C:\Users\Pepe\Documents\Azureus Downloads\Sandy Denny - A Boxful Of Treasures (2004)\Disc4\05 - Until The Real Thing Comes Along.wav

Peak level 98.8 %
Track quality 100.0 %
Test CRC E1DD9201
Copy CRC E1DD9201
Copy OK

Track 6
Filename C:\Users\Pepe\Documents\Azureus Downloads\Sandy Denny - A Boxful Of Treasures (2004)\Disc4\06 - John The Gun.wav

Peak level 98.8 %
Track quality 99.9 %
Test CRC 94180FCE
Copy CRC 94180FCE
Copy OK

Track 7
Filename C:\Users\Pepe\Documents\Azureus Downloads\Sandy Denny - A Boxful Of Treasures (2004)\Disc4\07 - She Moves Through The Fair.wav

Peak level 98.8 %
Track quality 100.0 %
Test CRC 93E18C04
Copy CRC 93E18C04
Copy OK

Track 8
Filename C:\Users\Pepe\Documents\Azureus Downloads\Sandy Denny - A Boxful Of Treasures (2004)\Disc4\08 - One More Chance.wav

Peak level 98.8 %
Track quality 100.0 %
Test CRC AF70984B
Copy CRC AF70984B
Copy OK

Track 9
Filename C:\Users\Pepe\Documents\Azureus Downloads\Sandy Denny - A Boxful Of Treasures (2004)\Disc4\09 - King And Queen Of England.wav

Peak level 98.8 %
Track quality 100.0 %
Test CRC 0CEE3307
Copy CRC 0CEE3307
Copy OK

Track 10
Filename C:\Users\Pepe\Documents\Azureus Downloads\Sandy Denny - A Boxful Of Treasures (2004)\Disc4\10 - Rising For The Moon.wav

Peak level 98.8 %
Track quality 100.0 %
Test CRC 00C8138D
Copy CRC 00C8138D
Copy OK

Track 11
Filename C:\Users\Pepe\Documents\Azureus Downloads\Sandy Denny - A Boxful Of Treasures (2004)\Disc4\11 - White Dress.wav

Peak level 98.8 %
Track quality 99.9 %
Test CRC 29AE7DEA
Copy CRC 29AE7DEA
Copy OK

Track 12
Filename C:\Users\Pepe\Documents\Azureus Downloads\Sandy Denny - A Boxful Of Treasures (2004)\Disc4\12 - I'm A Dreamer.wav

Peak level 98.8 %
Track quality 100.0 %
Test CRC 4C52D83B
Copy CRC 4C52D83B
Copy OK

Track 13
Filename C:\Users\Pepe\Documents\Azureus Downloads\Sandy Denny - A Boxful Of Treasures (2004)\Disc4\13 - By The Time It Gets Dark.wav

Peak level 98.8 %
Track quality 100.0 %
Test CRC 17AA0BAF
Copy CRC 17AA0BAF
Copy OK

Track 14
Filename C:\Users\Pepe\Documents\Azureus Downloads\Sandy Denny - A Boxful Of Treasures (2004)\Disc4\14 - No More Sad Refrains.wav

Peak level 98.8 %
Track quality 100.0 %
Test CRC 5A8ADBC2
Copy CRC 5A8ADBC2
Copy OK

Track 15
Filename C:\Users\Pepe\Documents\Azureus Downloads\Sandy Denny - A Boxful Of Treasures (2004)\Disc4\15 - Losing Game.wav

Peak level 98.8 %
Track quality 100.0 %
Test CRC 07A5C3BD
Copy CRC 07A5C3BD
Copy OK

Track 16
Filename C:\Users\Pepe\Documents\Azureus Downloads\Sandy Denny - A Boxful Of Treasures (2004)\Disc4\16 - Easy To Slip.wav

Peak level 98.8 %
Track quality 100.0 %
Test CRC C75C3BB7
Copy CRC C75C3BB7
Copy OK

Track 17
Filename C:\Users\Pepe\Documents\Azureus Downloads\Sandy Denny - A Boxful Of Treasures (2004)\Disc4\17 - Full Moon.wav

Peak level 98.8 %
Track quality 99.9 %
Test CRC 547B1D1C
Copy CRC 547B1D1C
Copy OK

Track 18
Filename C:\Users\Pepe\Documents\Azureus Downloads\Sandy Denny - A Boxful Of Treasures (2004)\Disc4\18 - Moments.wav

Peak level 98.8 %
Track quality 100.0 %
Test CRC 922704BA
Copy CRC 922704BA
Copy OK

No errors occured


End of status report

AUDIOCHECKER v2.0 beta (build 457) - by Dester - opdester@freemail.hu
~~~~~~~~~~~~~~~~~~~~~~~~~~~~~~~~~~
-=== DO NOT EDIT THIS FILE! ===-

Path: …\Disc4

01 -=- 01 - Whispering Grass.flac -=- CDDA (100%)
02 -=- 02 - Solo.flac -=- CDDA (100%)
03 -=- 03 - At The End Of The Day.flac -=- CDDA (100%)
04 -=- 04 - Like An Old Fashioned Waltz.flac -=- CDDA (100%)
05 -=- 05 - Until The Real Thing Comes Along.flac -=- CDDA (100%)
06 -=- 06 - John The Gun.flac -=- CDDA (99%)
07 -=- 07 - She Moves Through The Fair.flac -=- CDDA (100%)
08 -=- 08 - One More Chance.flac -=- CDDA (100%)
09 -=- 09 - King And Queen Of England.flac -=- CDDA (100%)
10 -=- 10 - Rising For The Moon.flac -=- CDDA (99%)
11 -=- 11 - White Dress.flac -=- CDDA (100%)
12 -=- 12 - I'm A Dreamer.flac -=- CDDA (99%)
13 -=- 13 - By The Time It Gets Dark.flac -=- CDDA (100%)
14 -=- 14 - No More Sad Refrains.flac -=- CDDA (100%)
15 -=- 15 - Losing Game.flac -=- CDDA (100%)
16 -=- 16 - Easy To Slip.flac -=- CDDA (100%)
17 -=- 17 - Full Moon.flac -=- CDDA (100%)
18 -=- 18 - Moments.flac -=- CDDA (100%)

Summary 99,83% CDDA

102054500

[CUETools log; Date: 03.06.2011 2:54:44; Version: 2.1.1]
[CTDB TOCID: FlEB59iQIMJeJ9ySwF2RWWy68dQ-] disk not present in database.
[AccurateRip ID: 00331a9d-02a192cf-1b119012] found.
Track [ CRC ] Status
01 [c6f1534e] (03/16) Accurately ripped
02 [3bf59c21] (03/16) Accurately ripped
03 [58e0d81f] (03/16) Accurately ripped
04 [3190cc0f] (03/16) Accurately ripped
05 [fddc0e0b] (03/16) Accurately ripped
06 [228e294b] (03/16) Accurately ripped
07 [8dfa9b9c] (03/16) Accurately ripped
08 [79caf65d] (03/16) Accurately ripped
09 [4273efed] (03/16) Accurately ripped
10 [f3b336e6] (03/16) Accurately ripped
11 [073fdb31] (03/16) Accurately ripped
12 [31d711db] (03/16) Accurately ripped
13 [a6a09ee6] (03/16) Accurately ripped
14 [5f1c3378] (03/16) Accurately ripped
15 [c31b4605] (03/16) Accurately ripped
16 [4697239d] (03/16) Accurately ripped
17 [0d01a8ba] (03/15) Accurately ripped
18 [78d8ee88] (03/16) Accurately ripped
Offsetted by 104:
01 [ad341810] (11/16) Accurately ripped
02 [51feb226] (11/16) Accurately ripped
03 [fe065952] (11/16) Accurately ripped
04 [89f9ccae] (11/16) Accurately ripped
05 [109173e5] (11/16) Accurately ripped
06 [92ddfe88] (11/16) Accurately ripped
07 [e3e1633f] (11/16) Accurately ripped
08 [5ab56473] (11/16) Accurately ripped
09 [984387ec] (11/16) Accurately ripped
10 [dba08cbb] (11/16) Accurately ripped
11 [902dad8b] (11/16) Accurately ripped
12 [0679b4b5] (11/16) Accurately ripped
13 [aa79b6b2] (11/16) Accurately ripped
14 [5b1429a6] (11/16) Accurately ripped
15 [2295c29f] (11/16) Accurately ripped
16 [b7c68829] (11/16) Accurately ripped
17 [4b818da9] (10/15) Accurately ripped
18 [0d6eec50] (11/16) Accurately ripped

Track Peak [ CRC32 ] [W/O NULL] [ LOG ]
– 98,8 [67338D4B] [B439673C]
01 98,8 [637442BC] [3F6E1E18] CRC32
02 98,8 [38C6E2B7] [2F694F60] CRC32
03 87,9 [80C0F6BD] [C7BA12EE] CRC32
04 98,8 [C9AC90C4] [A1CB2C90] CRC32
05 98,8 [E1DD9201] [0461D8B3] CRC32
06 98,8 [94180FCE] [77A8222C] CRC32
07 98,8 [93E18C04] [7F70FE5D] CRC32
08 98,8 [AF70984B] [9D5900BF] CRC32
09 98,8 [0CEE3307] [ED95DC2E] CRC32
10 98,8 [00C8138D] [5C81D722] CRC32
11 98,8 [29AE7DEA] [CCFE55AB] CRC32
12 98,8 [4C52D83B] [0701E3A8] CRC32
13 98,8 [17AA0BAF] [52DE57A8] CRC32
14 98,8 [5A8ADBC2] [63919D38] CRC32
15 98,8 [07A5C3BD] [B0B4E4CF] CRC32
16 98,8 [C75C3BB7] [14A4BC5C] CRC32
17 98,8 [547B1D1C] [9BE76CD5] CRC32
18 98,8 [922704BA] [34240312] CRC32


Sandy Denny - A Boxful of Treasures (2004) 5 CD Box Set [Re-Up]

Sandy Denny - A Boxful of Treasures (2004) 5 CD Box Set [Re-Up]

Disc Five:
EAC | FLAC | Tracks (Cue+Log) ~ 383 Mb (incl 5%) | Mp3 (CBR 320, Stereo) ~ 176 Mb (incl 5%) | Time: 01:06:46


Tracklist:
1. One Way Donkey Ride (demo) (Previously Unreleased)
2. I'm a Dreamer (demo) (Previously Unreleased)
3. Take Me Away (demo) (Previously Unreleased)
4. Rising For the Moon (demo) (Previously Unreleased)
5. Still Waters Run Deep (demo) (Previously Unreleased)
6. All Our Days (demo) (Previously Unreleased)
7. No More Sad Refrains (demo) (Previously Unreleased)
8. By the Time It Gets Dark (demo) (Previously Unreleased)
9. The Music Weaver (demo)
10. What Is True? (demo)
11. Stranger to Himself (demo)
12. Take Away the Load (demo)
13. By the Time It Gets Dark (alternate take) (Previously Unreleased)
14. Full Moon (home recording) (Previously Unreleased)
15. Fairport Convention - Knockin' on Heaven's Door (live)
16. Fairport Convention - It'll Take a Long Time (live) (Previously Unreleased)
17. Fairport Convention - Who Knows Where the Time Goes? (live)


EAC extraction logfile from 27. May 2008, 9:07 for CD
Sandy Denny / A Boxful Of Treasures CD5

Used drive : HL-DT-STDVD-RW GSA-H11N Adapter: 1 ID: 0
Read mode : Secure with NO C2, accurate stream, disable cache
Read offset correction : 667
Overread into Lead-In and Lead-Out : No

Used output format : C:\Users\Pepe\Downloads\Flac\flac-1.1.4-win\bin\flac.exe (User Defined Encoder)
320 kBit/s
Additional command line options : -8 -V -T "artist=%a" -T "title=%t" -T "album=%g" -T "date=%y" -T "tracknumber=%n" -T "genre=%m" %s

Other options :
Fill up missing offset samples with silence : Yes
Delete leading and trailing silent blocks : No
Native Win32 interface for Win NT & 2000


Track 1
Filename C:\Users\Pepe\Documents\Azureus Downloads\Sandy Denny - A Boxful Of Treasures (2004)\Disc5\01 - One Way Donkey Ride.wav

Pre-gap length 0:00:02.00

Peak level 90.8 %
Track quality 100.0 %
Test CRC 9FA6F046
Copy CRC 9FA6F046
Copy OK

Track 2
Filename C:\Users\Pepe\Documents\Azureus Downloads\Sandy Denny - A Boxful Of Treasures (2004)\Disc5\02 - I'm A Dreamer.wav

Peak level 83.1 %
Track quality 99.9 %
Test CRC 1A02337F
Copy CRC 1A02337F
Copy OK

Track 3
Filename C:\Users\Pepe\Documents\Azureus Downloads\Sandy Denny - A Boxful Of Treasures (2004)\Disc5\03 - Take Me Away.wav

Peak level 84.8 %
Track quality 99.9 %
Test CRC B0664BB3
Copy CRC B0664BB3
Copy OK

Track 4
Filename C:\Users\Pepe\Documents\Azureus Downloads\Sandy Denny - A Boxful Of Treasures (2004)\Disc5\04 - Rising For The Moon.wav

Peak level 98.8 %
Track quality 100.0 %
Test CRC D0C7019C
Copy CRC D0C7019C
Copy OK

Track 5
Filename C:\Users\Pepe\Documents\Azureus Downloads\Sandy Denny - A Boxful Of Treasures (2004)\Disc5\05 - Still Waters Run Deep.wav

Peak level 89.7 %
Track quality 100.0 %
Test CRC 3C80CEDE
Copy CRC 3C80CEDE
Copy OK

Track 6
Filename C:\Users\Pepe\Documents\Azureus Downloads\Sandy Denny - A Boxful Of Treasures (2004)\Disc5\06 - All Our Days.wav

Peak level 78.1 %
Track quality 100.0 %
Test CRC F1B842C4
Copy CRC F1B842C4
Copy OK

Track 7
Filename C:\Users\Pepe\Documents\Azureus Downloads\Sandy Denny - A Boxful Of Treasures (2004)\Disc5\07 - No More Sad Refrains.wav

Peak level 88.2 %
Track quality 99.9 %
Test CRC 56DC9338
Copy CRC 56DC9338
Copy OK

Track 8
Filename C:\Users\Pepe\Documents\Azureus Downloads\Sandy Denny - A Boxful Of Treasures (2004)\Disc5\08 - By The Time It Gets Dark.wav

Peak level 98.8 %
Track quality 99.9 %
Test CRC 6939A803
Copy CRC 6939A803
Copy OK

Track 9
Filename C:\Users\Pepe\Documents\Azureus Downloads\Sandy Denny - A Boxful Of Treasures (2004)\Disc5\09 - The Music Weaver.wav

Peak level 88.2 %
Track quality 99.9 %
Test CRC 3F417036
Copy CRC 3F417036
Copy OK

Track 10
Filename C:\Users\Pepe\Documents\Azureus Downloads\Sandy Denny - A Boxful Of Treasures (2004)\Disc5\10 - What Is True.wav

Peak level 95.8 %
Track quality 100.0 %
Test CRC 4E38A503
Copy CRC 4E38A503
Copy OK

Track 11
Filename C:\Users\Pepe\Documents\Azureus Downloads\Sandy Denny - A Boxful Of Treasures (2004)\Disc5\11 - Stranger To Himself.wav

Peak level 85.6 %
Track quality 100.0 %
Test CRC 4DB6B3A9
Copy CRC 4DB6B3A9
Copy OK

Track 12
Filename C:\Users\Pepe\Documents\Azureus Downloads\Sandy Denny - A Boxful Of Treasures (2004)\Disc5\12 - Take Away The Load.wav

Peak level 94.8 %
Track quality 100.0 %
Test CRC 75E1E5C0
Copy CRC 75E1E5C0
Copy OK

Track 13
Filename C:\Users\Pepe\Documents\Azureus Downloads\Sandy Denny - A Boxful Of Treasures (2004)\Disc5\13 - By The Time It Gets Dark.wav

Peak level 98.8 %
Track quality 100.0 %
Test CRC 96609E55
Copy CRC 96609E55
Copy OK

Track 14
Filename C:\Users\Pepe\Documents\Azureus Downloads\Sandy Denny - A Boxful Of Treasures (2004)\Disc5\14 - Full Moon.wav

Peak level 93.4 %
Track quality 99.9 %
Test CRC A0F9D1F7
Copy CRC A0F9D1F7
Copy OK

Track 15
Filename C:\Users\Pepe\Documents\Azureus Downloads\Sandy Denny - A Boxful Of Treasures (2004)\Disc5\15 - Knockin' On Heaven's Door.wav

Peak level 98.8 %
Track quality 100.0 %
Test CRC AB4D04F9
Copy CRC AB4D04F9
Copy OK

Track 16
Filename C:\Users\Pepe\Documents\Azureus Downloads\Sandy Denny - A Boxful Of Treasures (2004)\Disc5\16 - It'll Take A Long Time.wav

Peak level 98.8 %
Track quality 100.0 %
Test CRC 76F29B47
Copy CRC 76F29B47
Copy OK

Track 17
Filename C:\Users\Pepe\Documents\Azureus Downloads\Sandy Denny - A Boxful Of Treasures (2004)\Disc5\17 - Who Knows Where The Time Goes.wav

Peak level 98.8 %
Track quality 100.0 %
Test CRC 6268B123
Copy CRC 6268B123
Copy OK

No errors occured


End of status report

AUDIOCHECKER v2.0 beta (build 457) - by Dester - opdester@freemail.hu
~~~~~~~~~~~~~~~~~~~~~~~~~~~~~~~~~~
-=== DO NOT EDIT THIS FILE! ===-

Path: …\Disc5

01 -=- 01 - One Way Donkey Ride.flac -=- CDDA (100%)
02 -=- 02 - I'm A Dreamer.flac -=- CDDA (100%)
03 -=- 03 - Take Me Away.flac -=- CDDA (100%)
04 -=- 04 - Rising For The Moon.flac -=- CDDA (100%)
05 -=- 05 - Still Waters Run Deep.flac -=- CDDA (100%)
06 -=- 06 - All Our Days.flac -=- CDDA (100%)
07 -=- 07 - No More Sad Refrains.flac -=- CDDA (100%)
08 -=- 08 - By The Time It Gets Dark.flac -=- CDDA (99%)
09 -=- 09 - The Music Weaver.flac -=- CDDA (100%)
10 -=- 10 - What Is True.flac -=- CDDA (100%)
11 -=- 11 - Stranger To Himself.flac -=- CDDA (100%)
12 -=- 12 - Take Away The Load.flac -=- CDDA (100%)
13 -=- 13 - By The Time It Gets Dark.flac -=- CDDA (100%)
14 -=- 14 - Full Moon.flac -=- CDDA (100%)
15 -=- 15 - Knockin' On Heaven's Door.flac -=- CDDA (100%)
16 -=- 16 - It'll Take A Long Time.flac -=- CDDA (100%)
17 -=- 17 - Who Knows Where The Time Goes.flac -=- CDDA (99%)

Summary 99,88% CDDA

254721668

[CUETools log; Date: 03.06.2011 2:55:19; Version: 2.1.1]
[CTDB TOCID: cdlmoCXjHpl06lfXH2egMkwna_U-] disk not present in database.
[AccurateRip ID: 00266c1f-01e4fb4c-e50fa711] found.
Track [ CRC ] Status
01 [7b26a81a] (04/17) Accurately ripped
02 [07e93890] (04/17) Accurately ripped
03 [93b152fd] (04/17) Accurately ripped
04 [49fdf190] (04/17) Accurately ripped
05 [ad50f44d] (04/17) Accurately ripped
06 [911aa5ef] (04/17) Accurately ripped
07 [a0f7c2f6] (04/17) Accurately ripped
08 [72235635] (04/17) Accurately ripped
09 [1392834f] (04/17) Accurately ripped
10 [5fbfe19c] (04/17) Accurately ripped
11 [b171595a] (04/17) Accurately ripped
12 [51aed517] (04/17) Accurately ripped
13 [7acfddd5] (04/17) Accurately ripped
14 [1fce906e] (04/17) Accurately ripped
15 [86a638ee] (04/17) Accurately ripped
16 [4aad13e6] (04/17) Accurately ripped
17 [c935898e] (04/17) Accurately ripped
Offsetted by 104:
01 [9b1b4cbc] (11/17) Accurately ripped
02 [e26b833f] (11/17) Accurately ripped
03 [3105fbbb] (11/17) Accurately ripped
04 [d056d716] (11/17) Accurately ripped
05 [30abc119] (11/17) Accurately ripped
06 [bce6ed49] (11/17) Accurately ripped
07 [16aff3d3] (11/17) Accurately ripped
08 [35f30a63] (11/17) Accurately ripped
09 [8ed61684] (11/17) Accurately ripped
10 [81fa3dc0] (11/17) Accurately ripped
11 [dc3b0fc2] (11/17) Accurately ripped
12 [e40b69bd] (11/17) Accurately ripped
13 [42b2b3f7] (11/17) Accurately ripped
14 [2f0a03eb] (11/17) Accurately ripped
15 [3bc7ec5d] (11/17) Accurately ripped
16 [a00c4a75] (11/17) Accurately ripped
17 [e8182963] (00/17) No match but offset

Track Peak [ CRC32 ] [W/O NULL] [ LOG ]
– 98,8 [C10A2F2C] [DAB29705]
01 90,8 [9FA6F046] [8CBD8E20] CRC32
02 83,1 [1A02337F] [B1EA8099] CRC32
03 84,8 [B0664BB3] [E60ACE21] CRC32
04 98,8 [D0C7019C] [341F5807] CRC32
05 89,7 [3C80CEDE] [39E75F37] CRC32
06 78,1 [F1B842C4] [671A27F1] CRC32
07 88,2 [56DC9338] [EC540648] CRC32
08 98,8 [6939A803] [5C46EECC] CRC32
09 88,2 [3F417036] [6B9C6496] CRC32
10 95,8 [4E38A503] [193E0A95] CRC32
11 85,6 [4DB6B3A9] [21696AC0] CRC32
12 94,8 [75E1E5C0] [98F61E46] CRC32
13 98,8 [96609E55] [5F0B81A9] CRC32
14 93,4 [A0F9D1F7] [CDD2F84A] CRC32
15 98,8 [AB4D04F9] [0C6F21A6] CRC32
16 98,8 [76F29B47] [5D073BE4] CRC32
17 98,8 [6268B123] [B68CEF47] CRC32


All thanks to Corvin von Amber for lossless