Subcategories

Rush - Replay X3 (2006) (3DVD+CD)

Posted By: uff
Rush - Replay X3 (2006) (3DVD+CD)

Rush - Replay X3 (2006) (3DVD+CD)
DVD5+2xDVD9 | VIDEO_TS | MPEG-2 Video, NTSC 4:3 (720:480), 29.97fps, ~10000kbps | LPCM 2.0; DD 5.1, 448kbps; DTS 5.1, 1536kbps | 59+63+89 min | 4600+4900+6800Mb
1CD | Flac + Cue + Log | 470Mb
rock | Anthem B0006649-50 | HQ covers | recorded: 1981, 1984 & 1988

Rush Replay X 3 is a DVD box set of three separate filmed concert presentations by the Canadian band Rush, released on June 13, 2006. The three shows presented are Exit… Stage Left, Grace Under Pressure Tour, and A Show of Hands, which were originally released individually in 1982, 1985, and 1989 respectively on VHS and Laserdisc. For Replay X 3, each filmed concert has been remixed in 5.1 surround sound by Rush guitarist and co-producer Alex Lifeson. The box set also includes a previously unreleased CD audio version of the Grace Under Pressure Tour video.

Tracks:
Disc one: Exit… Stage Left
1. Intro ("The Camera Eye") - 2:15
2. "Limelight" - 4:38
3. "Tom Sawyer" - 5:00
4. "The Trees" - 4:47
5. "Xanadu" - 12:32
6. "Red Barchetta" - 6:37
7. "Freewill" - 5:50
8. "Closer to the Heart" - 3:30
9. "YYZ" - 1:25
10. "By-Tor and the Snow Dog" - 4:13
11. "In the End" - 1:42
12. "In the Mood" - 1:35
13. "2112: Finale" - 2:42

Disc two: Grace Under Pressure Tour
1. Intro
2. "The Spirit of Radio"
3. "The Enemy Within"
4. "The Weapon"
5. "Witch Hunt"
6. "New World Man"
7. "Distant Early Warning"
8. "Red Sector A"
9. "Closer to the Heart"
10. "YYZ"
11. "2112: Temples Of Syrinx"
12. "Tom Sawyer"
13. "Vital Signs"
14. "Finding My Way"
15. "In the Mood"

Disc three: A Show of Hands
1. Intro
2. "The Big Money"
3. "Marathon"
4. "Turn the Page"
5. "Prime Mover"
6. "Manhattan Project"
7. "Closer to the Heart"
8. "Red Sector A"
9. "Force Ten"
10. "Mission"
11. "Territories"
12. "YYZ" †
13. "The Rhythm Method" (drum solo)
14. "The Spirit of Radio"
15. "Tom Sawyer"
16. "2112 Overture"
17. "The Temples of Syrinx"
18. "La Villa Strangiato"
19. "In the Mood"

The CD:
Same track list and times as for DVD 2


EAC extraction logfile from 30. June 2007, 10:08 for CD
Rush / Grace Under Pressure Tour Soundtrack

Used drive : PIONEER DVD-RW DVR-110D Adapter: 1 ID: 0
Read mode : Secure with NO C2, accurate stream, disable cache
Read offset correction : 48
Overread into Lead-In and Lead-Out : No

Used output format : Internal WAV Routines
44.100 Hz; 16 Bit; Stereo

Other options :
Fill up missing offset samples with silence : Yes
Delete leading and trailing silent blocks : No
Installed external ASPI interface


Range status and errors
Selected range
Filename R:\Rush - Grace Under Pressure Tour Soundtrack.wav

Peak level 99.7 %
Range quality 100.0 %
CRC EA9D5187
Copy OK

No errors occured

End of status report



[CUETools log; Date: 2013.03.01. 9:39:32; Version: 2.1.4]
[CTDB TOCID: 7zDNQsOAbSu5rworPuwr0xlUUQA-] found.
Track | CTDB Status
1 | (13/13) Accurately ripped
2 | (13/13) Accurately ripped
3 | (13/13) Accurately ripped
4 | (13/13) Accurately ripped
5 | (13/13) Accurately ripped
6 | (13/13) Accurately ripped
7 | (13/13) Accurately ripped
8 | (13/13) Accurately ripped
9 | (13/13) Accurately ripped
10 | (13/13) Accurately ripped
11 | (13/13) Accurately ripped
12 | (13/13) Accurately ripped
[AccurateRip ID: 00195415-00f3f27e-8e0e260c] found.
Track [ CRC | V2 ] Status
01 [6990d602|8f668d0b] (52+06/63) Accurately ripped
02 [bc2b84a4|0c95f9d1] (52+06/63) Accurately ripped
03 [eab63c02|da8c3c63] (52+06/63) Accurately ripped
04 [6319281a|42a95d7e] (51+06/62) Accurately ripped
05 [a0b1d468|69b4e256] (52+06/63) Accurately ripped
06 [5ccb39c3|464e19b7] (52+06/63) Accurately ripped
07 [b87d1946|00019fd2] (52+06/63) Accurately ripped
08 [ffc980cd|83e1ae26] (53+06/64) Accurately ripped
09 [3e933ccd|f9c26b89] (52+06/63) Accurately ripped
10 [13b86faf|05a92c66] (52+06/63) Accurately ripped
11 [6253e9bd|53b1bc62] (52+06/63) Accurately ripped
12 [16e0c57f|41d4c5be] (52+06/63) Accurately ripped
Offsetted by -694:
01 [7796a86c] (05/63) Accurately ripped
02 [add526b8] (05/63) Accurately ripped
03 [32730a3a] (05/63) Accurately ripped
04 [88b46afc] (05/62) Accurately ripped
05 [9472d05b] (05/63) Accurately ripped
06 [ad078094] (05/63) Accurately ripped
07 [b938127f] (05/63) Accurately ripped
08 [ceac8dc5] (05/64) Accurately ripped
09 [c20c6f85] (05/63) Accurately ripped
10 [a58a40f7] (05/63) Accurately ripped
11 [007cae84] (05/63) Accurately ripped
12 [8e1ebbc3] (05/63) Accurately ripped

Track Peak [ CRC32 ] [W/O NULL]
– 99,7 [EA9D5187] [3BB5ADD2]
01 97,7 [8811897D] [F742E2ED]
02 99,7 [0C58A2A5] [DBBE8AFB]
03 99,7 [43CA71ED] [D6E5669C]
04 99,7 [41AE894D] [BFBA2D06]
05 99,7 [6720A028] [14F9C4EF]
06 99,7 [44598752] [931629BF]
07 99,7 [06D1C7EC] [531A8EEC]
08 99,7 [E427F31D] [96517433]
09 99,7 [271DC9CE] [F8855107]
10 99,7 [68C7C701] [0A6B8AAA]
11 99,7 [7B088749] [4CCB2423]
12 99,7 [82E4D425] [E2A8DED2]

Rush - Replay X3 (2006) (3DVD+CD)

Rush - Replay X3 (2006) (3DVD+CD)

Rush - Replay X3 (2006) (3DVD+CD)

Big thx to the original uploader