Rush - A Show Of Hands (1988) [Epic/Sony Records, 25·8P-5162]

Posted By: v3122
Rush - A Show Of Hands (1988) [Epic/Sony Records, 25·8P-5162]

John Hackett - Another Life (2015)
EAC | Flac(Image) + Cue + Log & MP3 CBR 320Kbps
Esoteric Antenna, EANT21038 | ~ 297 or 115 Mb | Scans(png) -> 258 Mb
Progressive Rock

Although keyboards dominated Rush's 1989 double live set A Show of Hands, it's a definite improvement over its somewhat flat predecessor, 1981 's Exit…Stage Left. The band's music isn't as hard rock-based as it previously was, evidenced by the more modern-sounding compositions selected for this third live album (the first Rush album to be produced completely by the band). The only tracks from the pre-1982 period to be featured are "Closer to the Heart," which is expanded to include a jamming section at the end, and the spooky "Witch Hunt," originally from 1981's Moving Pictures. The remainder of the album's track list is comprised of Rush's best compositions from 1982-1987, such as "Subdivisions," "Distant Early Warning," "Force Ten," "Time Stand Still," and "Red Sector A," as well as several tracks that have been forgotten over time ("Marathon," "Turn the Page," "Mission," etc.). Also featured for the first time on a live Rush album is a completely unaccompanied drum solo by Neil Peart – the intricate "Rhythm Method." The inspired A Show of Hands is an excellent snapshot of Rush in concert during the mid- to late '80s.

by Greg Prato, allmusic
Rush - A Show Of Hands (1988) [Epic/Sony Records, 25·8P-5162]


Rush - A Show Of Hands (1988):

Rush - A Show Of Hands (1988) [Epic/Sony Records, 25·8P-5162]

Tracklist:

01. Intro 00:53
02. The Big Money 05:59
03. Subdivisions 05:23
04. Marathon 06:40
05. Turn the Page 04:41
06. Manhattan Project 05:19
07. Mission 05:47
08. Distant Early Warning 05:16
09. Mystic Rhythms 05:34
10. Witch Hunt (Pt. III of "Fear") 03:59
11. The Rhythm Method (Peart) 04:38
12. Force Ten (Lifeson, Lee, Peart, Pye Dubois) 04:58
13. Time Stand Still 05:12
14. Red Sector A 05:18
15. Closer to the Heart (Lifeson, Lee, Peart, Peter Talbot) 04:56

Geddy Lee – bass guitar, synthesizers, vocals
Alex Lifeson – electric and acoustic guitars, synthesizers
Neil Peart – drums, percussion


Exact Audio Copy V1.2 from 12. August 2016

EAC extraction logfile from 21. December 2016, 19:58

Rush / A Show Of Hands

Used drive : MATSHITADVD-RAM UJ8A0AS Adapter: 1 ID: 0

Read mode : Secure
Utilize accurate stream : Yes
Defeat audio cache : Yes
Make use of C2 pointers : No

Read offset correction : 102
Overread into Lead-In and Lead-Out : No
Fill up missing offset samples with silence : Yes
Delete leading and trailing silent blocks : No
Null samples used in CRC calculations : Yes
Used interface : Native Win32 interface for Win NT & 2000

Used output format : Internal WAV Routines
Sample format : 44.100 Hz; 16 Bit; Stereo


TOC of the extracted CD

Track | Start | Length | Start sector | End sector
––––––––––––––––––––––––––––-
1 | 0:00.00 | 0:53.12 | 0 | 3986
2 | 0:53.12 | 5:59.15 | 3987 | 30926
3 | 6:52.27 | 5:22.65 | 30927 | 55141
4 | 12:15.17 | 6:39.53 | 55142 | 85119
5 | 18:54.70 | 4:41.30 | 85120 | 106224
6 | 23:36.25 | 5:18.47 | 106225 | 130121
7 | 28:54.72 | 5:46.38 | 130122 | 156109
8 | 34:41.35 | 5:15.40 | 156110 | 179774
9 | 39:57.00 | 5:33.55 | 179775 | 204804
10 | 45:30.55 | 3:58.47 | 204805 | 222701
11 | 49:29.27 | 4:38.03 | 222702 | 243554
12 | 54:07.30 | 4:57.45 | 243555 | 265874
13 | 59:05.00 | 5:11.47 | 265875 | 289246
14 | 64:16.47 | 5:18.35 | 289247 | 313131
15 | 69:35.07 | 4:55.63 | 313132 | 335319


Range status and errors

Selected range

Filename F:\Alexharvey\Rush - A Show Of Hands.wav

Peak level 95.5 %
Extraction speed 4.3 X
Range quality 100.0 %
Test CRC 620D67CC
Copy CRC 620D67CC
Copy OK

No errors occurred


AccurateRip summary

Track 1 accurately ripped (confidence 5) [0324AFF4] (AR v2)
Track 2 accurately ripped (confidence 5) [76B98DFF] (AR v2)
Track 3 accurately ripped (confidence 5) [45861B75] (AR v2)
Track 4 accurately ripped (confidence 5) [AF992B2E] (AR v2)
Track 5 accurately ripped (confidence 5) [D8886999] (AR v2)
Track 6 accurately ripped (confidence 5) [32C0FF39] (AR v2)
Track 7 accurately ripped (confidence 5) [135AF978] (AR v2)
Track 8 accurately ripped (confidence 5) [F59468E0] (AR v2)
Track 9 accurately ripped (confidence 5) [98512F0C] (AR v2)
Track 10 accurately ripped (confidence 6) [ED20836E] (AR v2)
Track 11 accurately ripped (confidence 5) [52DCDA87] (AR v2)
Track 12 accurately ripped (confidence 5) [FC27638F] (AR v2)
Track 13 accurately ripped (confidence 5) [07922F33] (AR v2)
Track 14 accurately ripped (confidence 4) [CE6CBB4C] (AR v2)
Track 15 accurately ripped (confidence 5) [529F9CD2] (AR v2)

All tracks accurately ripped

End of status report

–– CUETools DB Plugin V2.1.6

[CTDB TOCID: 3k1pVYEUpDlQkiRCXjMfsZK_Gkk-] found
Submit result: 3k1pVYEUpDlQkiRCXjMfsZK_Gkk- has been confirmed
Track | CTDB Status
1 | (7/7) Accurately ripped
2 | (7/7) Accurately ripped
3 | (7/7) Accurately ripped
4 | (7/7) Accurately ripped
5 | (7/7) Accurately ripped
6 | (7/7) Accurately ripped
7 | (7/7) Accurately ripped
8 | (7/7) Accurately ripped
9 | (7/7) Accurately ripped
10 | (7/7) Accurately ripped
11 | (7/7) Accurately ripped
12 | (7/7) Accurately ripped
13 | (7/7) Accurately ripped
14 | (6/7) Accurately ripped
15 | (6/7) Accurately ripped


==== Log checksum 5D74CA5567F1CCAD32C2A0D4D2C3CBC9D5736EB4DB8DFAAA1177C17E094CB149 ====

foobar2000 1.2.9 / Dynamic Range Meter 1.1.1
log date: 2016-12-22 21:59:45

––––––––––––––––––––––––––––––––––––––––
Analyzed: Rush / A Show Of Hands
––––––––––––––––––––––––––––––––––––––––

DR Peak RMS Duration Track
––––––––––––––––––––––––––––––––––––––––
DR12 -7.62 dB -23.63 dB 0:53 01-Intro
DR13 -0.68 dB -15.48 dB 5:59 02-The Big Money
DR14 -0.40 dB -15.00 dB 5:23 03-Subdivisions
DR13 -0.40 dB -15.27 dB 6:40 04-Marathon
DR13 -0.67 dB -14.86 dB 4:41 05-Turn The Page
DR12 -0.81 dB -15.48 dB 5:19 06-Manhattan Project
DR13 -0.45 dB -14.84 dB 5:47 07-Mission
DR14 -0.40 dB -15.46 dB 5:16 08-Distant Early Warning
DR13 -0.40 dB -15.23 dB 5:34 09-Mystic Rhythms
DR13 -0.75 dB -15.82 dB 3:59 10-Witch Hunt (Pt. III of Fear)
DR13 -0.40 dB -16.43 dB 4:38 11-The Rhythm Method (Drum Solo)
DR13 -0.40 dB -15.05 dB 4:58 12-Force Ten
DR14 -0.40 dB -16.13 dB 5:12 13-Time Stand Still
DR14 -0.60 dB -16.31 dB 5:18 14-Red Sector A
DR13 -0.41 dB -16.32 dB 4:56 15-Closer To The Heart
––––––––––––––––––––––––––––––––––––––––

Number of tracks: 15
Official DR value: DR13

Samplerate: 44100 Hz
Channels: 2
Bits per sample: 16
Bitrate: 910 kbps
Codec: FLAC

[CUETools log; Date: 22.12.2016 21:54:27; Version: 2.1.4]
[CTDB TOCID: 3k1pVYEUpDlQkiRCXjMfsZK_Gkk-] found.
Track | CTDB Status
1 | (8/8) Accurately ripped
2 | (8/8) Accurately ripped
3 | (8/8) Accurately ripped
4 | (8/8) Accurately ripped
5 | (8/8) Accurately ripped
6 | (8/8) Accurately ripped
7 | (8/8) Accurately ripped
8 | (8/8) Accurately ripped
9 | (8/8) Accurately ripped
10 | (8/8) Accurately ripped
11 | (8/8) Accurately ripped
12 | (8/8) Accurately ripped
13 | (8/8) Accurately ripped
14 | (7/8) Accurately ripped
15 | (7/8) Accurately ripped
[AccurateRip ID: 0028025c-01cc0ecc-e511760f] found.
Track [ CRC | V2 ] Status
01 [90a1c2f7|0324aff4] (04+05/11) Accurately ripped
02 [6f4b6667|76b98dff] (04+05/11) Accurately ripped
03 [f31180a1|45861b75] (04+05/11) Accurately ripped
04 [ff67b773|af992b2e] (04+05/11) Accurately ripped
05 [8b609afa|d8886999] (04+05/11) Accurately ripped
06 [dc988cfa|32c0ff39] (04+05/11) Accurately ripped
07 [381e547a|135af978] (04+05/11) Accurately ripped
08 [0928acd3|f59468e0] (04+05/11) Accurately ripped
09 [c03f8bf4|98512f0c] (04+05/11) Accurately ripped
10 [be3fa67b|ed20836e] (04+06/12) Accurately ripped
11 [5ec8db6b|52dcda87] (04+05/11) Accurately ripped
12 [e846407d|fc27638f] (04+05/11) Accurately ripped
13 [73d4b18e|07922f33] (04+05/11) Accurately ripped
14 [e355b9e3|ce6cbb4c] (04+04/10) Accurately ripped
15 [42928590|529f9cd2] (04+05/11) Accurately ripped
Offsetted by -123:
01 [9ec9eb5d] (00/11) No match (V2 was not tested)
02 [9df481db] (00/11) No match (V2 was not tested)
03 [555597a6] (00/11) No match (V2 was not tested)
04 [b3ed9d9c] (00/11) No match (V2 was not tested)
05 [f38bb694] (00/11) No match (V2 was not tested)
06 [e681105f] (00/11) No match (V2 was not tested)
07 [54fcf26f] (00/11) No match (V2 was not tested)
08 [72d2983c] (00/11) No match (V2 was not tested)
09 [723e9364] (00/11) No match (V2 was not tested)
10 [8a4df8dd] (00/12) No match (V2 was not tested)
11 [2d4e7279] (00/11) No match (V2 was not tested)
12 [453ee31a] (00/11) No match (V2 was not tested)
13 [d1ed1ca5] (00/11) No match (V2 was not tested)
14 [9535ffac] (00/10) No match (V2 was not tested)
15 [8f40e0bf] (00/11) No match (V2 was not tested)

Track Peak [ CRC32 ] [W/O NULL] [ LOG ]
– 95,5 [620D67CC] [1042CF3F] CRC32
01 41,5 [014A0607] [58430B78]
02 92,4 [6FECA9C6] [7D7EA717]
03 95,4 [E286FB6A] [2936DC8B]
04 95,5 [C78DC327] [D1C0FEF9]
05 92,6 [E8D60E51] [FA44850D]
06 91,0 [D7C6C623] [37329899]
07 94,9 [84E876D7] [818C8350]
08 95,5 [19FF0569] [1162E8F4]
09 95,5 [29A0B3C7] [64AD0BB8]
10 91,7 [13C29843] [90826BF1]
11 95,4 [9C45C27F] [D1D1D0E8]
12 95,5 [50C82463] [59B93A00]
13 95,5 [F6969599] [E7F3E24B]
14 93,2 [62849BC3] [8F4AA225]
15 95,3 [81A1F585] [2D0B8EBC]

Rush - A Show Of Hands (1988) [Epic/Sony Records, 25·8P-5162]

All thanks go to Alexharvey

Rush in my Blog

Download Rush - A Show Of Hands (1988):