Ronnie James Dio The Elf Albums (1991)

Posted By: gribovar
Ronnie James Dio The Elf Albums (1991)

Ronnie James Dio The Elf Albums (1991)
EAC Rip | FLAC (image+.cue+log) - 448 MB | MP3 CBR 320 kbps (LAME 3.93) - 173 MB | Covers - 91 MB
Genre: Hard Rock | RAR 3% Rec. | Label: Connoisseur Collection (VSOP CD 167)

"Ronnie James Dio The Elf Albums" consist of the two Elf albums "Carolina County Ball" and "Trying To Burn The Sun" originally released 1974 and 1975.
Ronnie James Dio was one of the few truly great heavy metal singers. He's not merely a "vocalist." Most fans know him from his work with Rainbow, Black Sabbath (the vastly underrated early-'80s era), and his solo band, Dio. Chances are they are also aware of his membership in Elf, but have never heard any of their hard to find albums. The English label Connoisseur Collection released Elf's second and third albums, 1974's Carolina County Ball (L.A./59 in the United States) and 1975's Trying to Burn the Sun, on one CD as The Elf Albums (credited to Ronnie James Dio) in 1991.
Tracklist:

Carolina County Ball:
01. Carolina County Ball
02. L.A./59
03. Ain't It All Amusing
04. Happy
05. Annie New Orleans
06. Rocking Chair Rock 'N' Roll Blues
07. Rainbow
08. Do The Same Thing
09. Blanche

Trying To Burn The Sun:
10. Black Swampy Water
11. Prentice Wood
12. When She Smiles
13. Good Time Music
14. Liberty Road
15. Shotgun Boogie
16. Wonderworld
17. Streetwalker

Total time: 01:14:26

Exact Audio Copy V0.99 prebeta 5 from 4. May 2009

EAC extraction logfile from 24. June 2010, 19:37

Ronnie James Dio / The Elf Albums

Used drive : HL-DT-STDVD-RAM GH22LP20 Adapter: 4 ID: 1

Read mode : Secure
Utilize accurate stream : Yes
Defeat audio cache : Yes
Make use of C2 pointers : No

Read offset correction : 102
Overread into Lead-In and Lead-Out : No
Fill up missing offset samples with silence : Yes
Delete leading and trailing silent blocks : No
Null samples used in CRC calculations : Yes
Used interface : Installed external ASPI interface

Used output format : User Defined Encoder
Selected bitrate : 896 kBit/s
Quality : High
Add ID3 tag : No
Command line compressor : C:\Program Files (x86)\Exact Audio Copy\WAV Pack\wavpack.exe
Additional command line options : -hlmx2 %s


TOC of the extracted CD

Track | Start | Length | Start sector | End sector
––––––––––––––––––––––––––––-
1 | 0:00.32 | 4:46.55 | 32 | 21536
2 | 4:47.12 | 4:21.63 | 21537 | 41174
3 | 9:09.00 | 5:01.70 | 41175 | 63819
4 | 14:10.70 | 5:28.70 | 63820 | 88489
5 | 19:39.65 | 3:01.05 | 88490 | 102069
6 | 22:40.70 | 5:36.40 | 102070 | 127309
7 | 28:17.35 | 4:00.42 | 127310 | 145351
8 | 32:18.02 | 3:10.73 | 145352 | 159674
9 | 35:29.00 | 2:31.27 | 159675 | 171026
10 | 38:00.27 | 3:43.38 | 171027 | 187789
11 | 41:43.65 | 4:37.07 | 187790 | 208571
12 | 46:20.72 | 4:54.25 | 208572 | 230646
13 | 51:15.22 | 4:30.20 | 230647 | 250916
14 | 55:45.42 | 3:22.28 | 250917 | 266094
15 | 59:07.70 | 3:07.17 | 266095 | 280136
16 | 62:15.12 | 5:03.63 | 280137 | 302924
17 | 67:19.00 | 7:07.15 | 302925 | 334964


Range status and errors

Selected range

Filename X:\Releases RAW\Ronnie James Dio - The Elf Albums\Ronnie James Dio - The Elf Albums.wav

Peak level 97.1 %
Range quality 100.0 %
Test CRC 32213900
Copy CRC 32213900
Copy OK

No errors occurred


AccurateRip summary

Track 1 cannot be verified as accurate (confidence 6) [1049EE9F], AccurateRip returned [64442947]
Track 2 cannot be verified as accurate (confidence 6) [A8B95CDB], AccurateRip returned [809AD20F]
Track 3 cannot be verified as accurate (confidence 6) [7C0B27A0], AccurateRip returned [9A9F42EA]
Track 4 cannot be verified as accurate (confidence 6) [09E4816F], AccurateRip returned [65A4DDAB]
Track 5 cannot be verified as accurate (confidence 6) [FCFAD11B], AccurateRip returned [2569345D]
Track 6 cannot be verified as accurate (confidence 6) [6EFE7765], AccurateRip returned [F19F24DC]
Track 7 cannot be verified as accurate (confidence 6) [6C9DEB31], AccurateRip returned [EBB2373A]
Track 8 cannot be verified as accurate (confidence 6) [70E31FC3], AccurateRip returned [1EB1DDD3]
Track 9 cannot be verified as accurate (confidence 6) [396BEB1F], AccurateRip returned [67D7B311]
Track 10 cannot be verified as accurate (confidence 6) [0527F626], AccurateRip returned [5E919A1A]
Track 11 cannot be verified as accurate (confidence 6) [E0509E91], AccurateRip returned [F216A37D]
Track 12 cannot be verified as accurate (confidence 6) [34B061C9], AccurateRip returned [ECDD124C]
Track 13 cannot be verified as accurate (confidence 6) [A257B41D], AccurateRip returned [2E88DD4A]
Track 14 cannot be verified as accurate (confidence 6) [DCF1EF01], AccurateRip returned [CD2E826D]
Track 15 cannot be verified as accurate (confidence 6) [AE6D341E], AccurateRip returned [045537CA]
Track 16 cannot be verified as accurate (confidence 6) [7C07C699], AccurateRip returned [B77FE7E3]
Track 17 cannot be verified as accurate (confidence 5) [00DCC111], AccurateRip returned [243CAB69]

No tracks could be verified as accurate
You may have a different pressing from the one(s) in the database

End of status report

[CUETools log; Date: 25.06.2010 13:44:17; Version: 2.0.9]
Pregap length 00:00:32.
[CTDB TOCID: Am9_gYl58b10vnv_agpF9sQDyaA-] disk not present in database.
[AccurateRip ID: 002d8288-023ad743-f5117211] found.
Track [ CRC ] Status
01 [1049ee9f] (00/10) No match
02 [a8b95cdb] (00/11) No match
03 [7c0b27a0] (00/10) No match
04 [09e4816f] (00/10) No match
05 [fcfad11b] (00/11) No match
06 [6efe7765] (00/10) No match
07 [6c9deb31] (00/10) No match
08 [70e31fc3] (00/10) No match
09 [396beb1f] (00/10) No match
10 [0527f626] (00/10) No match
11 [e0509e91] (00/10) No match
12 [34b061c9] (00/10) No match
13 [a257b41d] (00/10) No match
14 [dcf1ef01] (00/10) No match
15 [ae6d341e] (00/10) No match
16 [7c07c699] (00/10) No match
17 [00dcc111] (00/09) No match
Offsetted by 12:
01 [830fc18f] (04/10) Accurately ripped
02 [fca0b993] (05/11) Accurately ripped
03 [c8cec432] (04/10) Accurately ripped
04 [19b4c81d] (04/10) Accurately ripped
05 [522ed2fb] (05/11) Accurately ripped
06 [49dce3ee] (04/10) Accurately ripped
07 [c20cfbed] (04/10) Accurately ripped
08 [716ea402] (04/10) Accurately ripped
09 [1e4315ab] (04/10) Accurately ripped
10 [b210535e] (02/10) Accurately ripped
11 [bdeb7a99] (02/10) Accurately ripped
12 [e3d59d5b] (04/10) Accurately ripped
13 [0d95800b] (04/10) Accurately ripped
14 [8232d209] (02/10) Accurately ripped
15 [7f79f0a6] (04/10) Accurately ripped
16 [d6e77715] (04/10) Accurately ripped
17 [243cab69] (05/09) Accurately ripped
Offsetted by 98:
01 [64442947] (06/10) Accurately ripped
02 [809ad20f] (06/11) Accurately ripped
03 [9a9f42ea] (06/10) Accurately ripped
04 [65a4ddab] (06/10) Accurately ripped
05 [2569345d] (06/11) Accurately ripped
06 [f19f24dc] (06/10) Accurately ripped
07 [ebb2373a] (06/10) Accurately ripped
08 [1eb1ddd3] (06/10) Accurately ripped
09 [67d7b311] (06/10) Accurately ripped
10 [5e919a1a] (06/10) Accurately ripped
11 [f216a37d] (06/10) Accurately ripped
12 [ecdd124c] (06/10) Accurately ripped
13 [2e88dd4a] (06/10) Accurately ripped
14 [cd2e826d] (06/10) Accurately ripped
15 [045537ca] (06/10) Accurately ripped
16 [b77fe7e3] (06/10) Accurately ripped
17 [cc6c1035] (04/09) Accurately ripped
Offsetted by 18:
01 [bc72ab07] (00/10) No match
02 [a69467ef] (00/11) No match
03 [86633f38] (00/10) No match
04 [a15abf7d] (00/10) No match
05 [fc92d3ed] (00/11) No match
06 [2ff844cb] (00/10) No match
07 [2bb21520] (00/10) No match
08 [6c5a103d] (00/10) No match
09 [759cbcce] (00/10) No match
10 [888481fa] (02/10) Accurately ripped
11 [2cb8e89d] (02/10) No match but offset
12 [9574caad] (00/10) No match
13 [c323e5fd] (00/10) No match
14 [d4d3438d] (00/10) No match
15 [e8004eea] (00/10) No match
16 [04574f53] (00/10) No match
17 [35eca095] (00/09) No match

Track Peak [ CRC32 ] [W/O NULL] [ LOG ]
– 97,1 [32213900] [586609FB] CRC32
01 88,5 [181528AF] [8FC90F6A]
02 89,1 [61EE3337] [61A92D51]
03 97,1 [9F7BE370] [52172A74]
04 87,4 [01F09A5D] [9727A24A]
05 87,6 [E2F21C1F] [E09FC13B]
06 86,8 [24D7C9CF] [C5F44B26]
07 88,0 [53F14066] [D16CACFA]
08 86,8 [ED52A9F9] [8411AA76]
09 75,8 [5D708926] [33D405CE]
10 92,9 [59C31116] [2B47344A]
11 95,0 [2860E03A] [DA9E2080]
12 90,7 [013C7FC0] [2FC9D929]
13 94,0 [09997F02] [F4DA9457]
14 95,9 [AFD87CCC] [778DAA68]
15 89,4 [F9151829] [46ACDB14]
16 90,9 [EC74409B] [013EB7D7]
17 93,1 [8EEDAA63] [74FE84E2]

Thanks to Гордый

LOSSLESS:

Sharingmatrix.com:
Part 1
Part 2

Turbobit.net:
Download
________________

MP3 320 kbps:

Sharingmatrix.com

Turbobit.net
________________

Covers (91 mb):

Sharingmatrix.com

Turbobit.net

No mirrors please!