Subcategories

Roger Waters - The Wall - Live In Berlin (1990) [Japan Promo 2CD]

Posted By: Andi_Deris
Roger Waters - The Wall - Live In Berlin (1990) [Japan Promo 2CD]

Roger Waters - The Wall - Live In Berlin (1990) [Japan Promo 2CD]
EAC Rip | FLAC: Image+Cue+Log | 685 Mb | MP3 CBR 320 kbps | 288 Mb | Scans | TTime: 01:44:35
Genre: Progressive Rock, Psychedelic Rock | Label: Mercury | Cat.№: PHCR-3003~4

Former Pink Floyd vocalist/bass guitarist Roger Waters leads an all-star lineup of musicians and actors performing The Wall in its entirety at Germany's Potsdamer Platz on July 21, 1990. This mind-boggling logistical and technical undertaking to benefit the Memorial Fund for Disaster Relief occurred at the Berlin Wall site just eight months after its collapse.



Roger Waters - The Wall - Live In Berlin (1990) [Japan Promo 2CD]


DISC 1

01. Scorpions - In The Flesh (03:46)
02. Ute Lemper & Roger Waters - The Thin Ice (03:09)
03. Roger Waters - Another Brick In The Wall, Part 1 (03:51)
04. Joe Chemay, John Joyce, Stan Farber, Jim Hass, & Roger Waters - The Happiest Days Of Our Live (01:27)
05. Cyndi Lauper - Another Brick In The Wall, Part 2 (06:26)
06. Sinead O'Connor & The Band - Mother (06:37)
07. Joni Mitchell - Goodbye Blue Sky (03:53)
08. Bryan Adams & Roger Waters - Empty Spaces (03:46)
09. Bryan Adams - Young Lust (05:08)
10. Roger Waters - One Of My Turns (03:44)
11. Roger Waters - Don't Leave Me Now (05:09)
12. Roger Waters - Another Brick In The Wall, Part 3 (03:24)
13. Roger Waters - Goodbye Cruel World (01:39)

DISC 2

01. Paul Carrack - Hey You (05:02)
02. The Rundfunk Orchestra & Choir - Is There Anybody Out There? (03:15)
03. Roger Waters - Nobody Home (04:22)
04. Roger Waters & The Rundfunk Orchestra & Choir - Vera (01:22)
05. The Rundfunk Orchestra and Choir & The Military Orchestra Of The Soviet Army - Bring The Boys Back Home (02:40)
06. Van Morrison, Roger Waters & The Band - Comfortably Numb (07:55)
07. Roger Waters, The Bleeding Heart Band, The Rundfunk Orchestra and Choir & The Military Orchestra Of The Sovjet Army - In The Flesh (05:06)
08. Roger Waters, The Bleeding Heart Band, The Rundfunk Orchestra and Choir & The Military Orchestra Of The Sovjet Army - Run Like Hell (04:53)
09. Roger Waters, The Bleeding Heart Band, The Rundfunk Orchestra And Choir & The Military Orchestra Of The Sovjet Army - Waiting For The Worms & Stop (04:20)
10. The Company - Stop (00:34)
11. The Company - The Trial (05:40)
12. Roger Waters, The Company - The Tide Is Turning (07:16)

Notes

Accreditations:
Bryan Adams appears by courtesy of A&M records / The Band: Rick Danko, Levon Helm and Garth Hudson appear courtesy of Columbia records / Paul Carrack appears by courtesy of Chrysalis records ltd. / Sinead O'Connor appears by courtesy of Ensign records ltd. / Marianne Faithfull appears by courtesy of Island records ltd. / James Galway and Paddy Moloney appear by courtesy of RCA Victor Red Seal a division of BMG Classics / The Hooters appear by courtesy of CBS records / Cyndi Lauper appears by courtesy of Epic records / Ute Lemper appears by courtesy of CBS Schallplatten / Joni Mitchell appears by courtesy of Geffen records / Van Morrison appears by courtesy of Caledonia Productions ltd. / Scorpions appear by courtesy of Polygram Records.

"The Memorial Fund For Disaster Relief thanks each of the artistes for donating all of their royalties from the sale of this record in perpetuity."

Made in Japan JASRAC Rights Society
¥4,000 C.9.15

Roger Waters - The Wall - Live In Berlin (1990) [Japan Promo 2CD]


Exact Audio Copy V0.99 prebeta 5 from 4. May 2009

EAC extraction logfile from 4. June 2010, 22:20

Roger Waters / The Wall: Live in Berlin (Disc 1)

Used drive : SlimtypeeSAU208 2 Adapter: 6 ID: 0

Read mode : Secure
Utilize accurate stream : Yes
Defeat audio cache : Yes
Make use of C2 pointers : No

Read offset correction : 6
Overread into Lead-In and Lead-Out : No
Fill up missing offset samples with silence : Yes
Delete leading and trailing silent blocks : No
Null samples used in CRC calculations : Yes
Used interface : Native Win32 interface for Win NT & 2000

Used output format : Internal WAV Routines
Sample format : 44.100 Hz; 16 Bit; Stereo


TOC of the extracted CD

Track | Start | Length | Start sector | End sector
––––––––––––––––––––––––––––-
1 | 0:00.00 | 3:46.05 | 0 | 16954
2 | 3:46.05 | 3:09.40 | 16955 | 31169
3 | 6:55.45 | 3:51.15 | 31170 | 48509
4 | 10:46.60 | 1:27.37 | 48510 | 55071
5 | 12:14.22 | 6:26.05 | 55072 | 84026
6 | 18:40.27 | 6:37.68 | 84027 | 113869
7 | 25:18.20 | 3:53.10 | 113870 | 131354
8 | 29:11.30 | 3:46.60 | 131355 | 148364
9 | 32:58.15 | 5:08.65 | 148365 | 171529
10 | 38:07.05 | 3:44.25 | 171530 | 188354
11 | 41:51.30 | 5:09.60 | 188355 | 211589
12 | 47:01.15 | 3:24.37 | 211590 | 226926
13 | 50:25.52 | 1:39.65 | 226927 | 234416


Range status and errors

Selected range

Filename D:\benetime\Roger Waters - The Wall Live in Berlin (Disc 1).wav

Peak level 100.0 %
Range quality 100.0 %
Test CRC 7E033A57
Copy CRC 7E033A57
Copy OK

No errors occurred


AccurateRip summary

Track 1 accurately ripped (confidence 1) [8A20D658]
Track 2 accurately ripped (confidence 1) [5E8DBC40]
Track 3 accurately ripped (confidence 1) [EDFFE394]
Track 4 accurately ripped (confidence 1) [5768CE22]
Track 5 accurately ripped (confidence 1) [A977677A]
Track 6 accurately ripped (confidence 1) [E9387C5E]
Track 7 accurately ripped (confidence 1) [F31C4DEE]
Track 8 accurately ripped (confidence 1) [5579C452]
Track 9 accurately ripped (confidence 1) [E7F5EAD4]
Track 10 accurately ripped (confidence 1) [CA78D839]
Track 11 accurately ripped (confidence 1) [C4824153]
Track 12 accurately ripped (confidence 1) [53CB59DE]
Track 13 accurately ripped (confidence 1) [2BA82646]

All tracks accurately ripped

End of status report

Exact Audio Copy V0.99 prebeta 5 from 4. May 2009

EAC extraction logfile from 4. June 2010, 21:48

Roger Waters / The Wall: Live in Berlin (Disc 2)

Used drive : SlimtypeeSAU208 2 Adapter: 6 ID: 0

Read mode : Secure
Utilize accurate stream : Yes
Defeat audio cache : Yes
Make use of C2 pointers : No

Read offset correction : 6
Overread into Lead-In and Lead-Out : No
Fill up missing offset samples with silence : Yes
Delete leading and trailing silent blocks : No
Null samples used in CRC calculations : Yes
Used interface : Native Win32 interface for Win NT & 2000

Used output format : Internal WAV Routines
Sample format : 44.100 Hz; 16 Bit; Stereo


TOC of the extracted CD

Track | Start | Length | Start sector | End sector
––––––––––––––––––––––––––––-
1 | 0:00.00 | 5:01.57 | 0 | 22631
2 | 5:01.57 | 3:14.70 | 22632 | 37251
3 | 8:16.52 | 4:22.65 | 37252 | 56966
4 | 12:39.42 | 1:22.25 | 56967 | 63141
5 | 14:01.67 | 2:40.53 | 63142 | 75194
6 | 16:42.45 | 7:55.60 | 75195 | 110879
7 | 24:38.30 | 5:06.12 | 110880 | 133841
8 | 29:44.42 | 4:53.20 | 133842 | 155836
9 | 34:37.62 | 4:20.43 | 155837 | 175379
10 | 38:58.30 | 0:34.15 | 175380 | 177944
11 | 39:32.45 | 5:40.35 | 177945 | 203479
12 | 45:13.05 | 7:16.55 | 203480 | 236234


Range status and errors

Selected range

Filename D:\benetime\Roger Waters - The Wall Live in Berlin (Disc 2).wav

Peak level 97.2 %
Range quality 100.0 %
Test CRC 27DED41B
Copy CRC 27DED41B
Copy OK

No errors occurred


AccurateRip summary

Track 1 accurately ripped (confidence 1) [C9EA3301]
Track 2 accurately ripped (confidence 1) [9B34D1AE]
Track 3 accurately ripped (confidence 1) [DF172C49]
Track 4 accurately ripped (confidence 1) [0FB63870]
Track 5 accurately ripped (confidence 1) [D2F98ADB]
Track 6 accurately ripped (confidence 1) [70665A1D]
Track 7 accurately ripped (confidence 1) [3E897EBC]
Track 8 accurately ripped (confidence 1) [75F7781C]
Track 9 accurately ripped (confidence 1) [196EF6DC]
Track 10 accurately ripped (confidence 1) [8C82CCC5]
Track 11 accurately ripped (confidence 1) [16F41821]
Track 12 accurately ripped (confidence 1) [205E7B04]

All tracks accurately ripped

End of status report


Many thanks to the original uploader: benetime


Pink Floyd 1973 The Dark Side Of The Moon [Immersion Edition, Box Set 3CD+2DVD+1Blu-ray, 2011]
Pink Floyd 1975 Spaceball Ricochet - US-Tour 1975 [Bootleg, 2CD]
Pink Floyd 1975 Wish You Were Here [Immersion Edition, Box Set 2CD+2DVD+1Blu-ray, 2011]
Pink Floyd 1979 The Wall [Immersion Edition, Box Set 6CD+1DVD, 2012]
Pink Floyd 1989 StarClub Phyco [Bootleg]
Pink Floyd 1990 Ultra Rare Trax, Vol. 1, 2, 3 [Bootleg, 3CD]
Pink Floyd 1992 The Complete ''Top Gear'' Sessions 1967-1969 [Bootleg, 2CD]
Pink Floyd 1992 The Man & The Journey [Bootleg]
Pink Floyd & The Stringman 1994 Absolutely Ambient [The Ultimate Remix Collection]
Pink Floyd 1994 Live In USA [Bootleg, 2CD]
Pink Floyd 1994 Wish You Were Here - Trance Remixes [Limited Ed.]
Pink Floyd 1995 P·U·L·S·E [Japan, 3rd issue 2005]
Pink Floyd 1997 The Wall (The Soundtrack Of The Motion Picture) [Bootleg, 2CD]
Pink Floyd 1997 1967: The First 3 Singles [EP]
Pink Floyd 2000 A Tree Full Of Secrets [Bootleg, 17+1 (data) CDs]
Pink Floyd 2000 Crackers [Bootleg, 2CD]
Pink Floyd 2002 Archives: If You Were A Bluebird [Bootleg]
Pink Floyd 2002 Archives: Pink Days And Fat Old Suns [Bootleg]
Pink Floyd 2002 Early Flights CD Serie, Vol. 1-10
Pink Floyd 2005 Naniwa: Natural Dark In Osaka 1972 [Bootleg, 2CD]
Pink Floyd 2005 Old Symphonies [Bootleg]
Pink Floyd 2008 Watching The World Upon The Wall [Bootleg, 2CD]
Pink Floyd 2014 The Endless River

Pink Floyd 1982 The Wall 25th Anniversary [Deluxe Ed.] (DVD9)
Pink Floyd 1987 Would You Buy A Ticket To This Show? (2xDVD5)
Pink Floyd 2000 Divided We Fall: The Wall Live at Earl's Court (2xDVD5)
Pink Floyd 2006 Live in Saint-Tropez, Music Festival, 08.08.1970 (DVD5)
Pink Floyd 2008 The Great Gig In The Sky: The Album By Album Guide [8xDVD5 & Book Set]
Pink Floyd 2010 In Toronto 1987 (DVD5)
Pink Floyd 2010 Video Collection [Custom DVD9]

The Pink Floyd Chamber Suite 2004 A Classic Rock Tribute to Pink Floyd (DVD5)

Roger Waters 2011 The Wall - Live In Berlin 1990 [Limited Deluxe Tour Edition] (DVD+2CD)

The Australian Pink Floyd Show 2004 Dark Side Of The Moon - Live at Liverpool Kings Dock Arena 2004 (2 DVD Set)
The Australian Pink Floyd Show 2007 Best Of Pink Floyd - Live At The Royal Albert Hall 2007 (DVD9)
The Australian Pink Floyd Show 2012 Live At The Hammersmith Apollo 2011 (Blu-ray)

Celtic Pink Floyd 2011 Celtic Pink Floyd

David Palmer And The Royal Philharmonic Orchestra 1989 Music Of Pink Floyd - Orchestral Maneuvers [Japanese Ed. 1994]

Dream Theater 2006 Dark Side Of The Moon [Official Bootleg] (DVD5)
Dream Theater 2006 Dark Side of the Moon [Official Bootleg, 2CD]

Easy Star All-Stars 2003 Dub Side Of The Moon

Voices On The Dark Side 2005 Dark Side Of The Moon A Cappella (Digipak)

V.A. 1995 The Moon Revisited (A Tribute to Pink Floyd)
V.A. 2002 Pigs And Pyramids: An All Star Lineup Performing The Songs Of Pink Floyd
V.A. 2007 Top Musicians Play: Pink Floyd The Wall (2CD)
V.A. 2010 Pink Floyd: Greatest Hits Covered (2CD) vbr
V.A. 2010 Pink Floyd: Greatest Hits Covered (2CD)
V.A. 2011 A Collection of Delicate Diamonds: A Tribute to Pink Floyd (2CD Album Digipak)
V.A. 2013 The Many Faces of Pink Floyd: A Journey Through The Inner World of Pink Floyd (2013) 3CD Set
V.A. 2015 The Everlasting Songs: An All Star Tribute To Pink Floyd