Robert Glasper Experiment - Black Radio (2012)

Posted By: tiburon
Robert Glasper Experiment - Black Radio (2012)

Robert Glasper Experiment - Black Radio (2012)
EAC 1.0b2 | FLAC tracks level 8 | Cue+Log+M3U | Full Scans 600dpi | 538MB + 5% Recovery
Genre: Jazz, Soul, Hip Hop

Robert Glasper's love for the music of his upbringing is deep. The sounds of hip hop, R&B, and urban soul music are intrinsically linked to a brilliant young jazz pianist who has gigged with jazz icons, headlined his own bands, and released a number of noteworthy recordings, including 2007's In My Element (Bluenote) and 2009's Double Booked (EMI). His music has borne the fruits of this passion; he's as comfortable with "J Dilla" as he is with John Coltrane. Some have questioned whether Glasper is abandoning his jazz roots and selling out to popular music.
Track List
01. Lift Off (Feat. Shafiq Husayn / Mic Check) 3:57
02. Afro Blue (Feat. Erykah Badu) 5:07
03. Cherish The Day (Feat. Lalah Hathaway) 5:51
04. Always Shine (Feat. Lupe Fiasco And Bilal) 5:22
05. Gonna Be Alright (F.T.B.) (Feat. Ledisi) 6:10
06. Move Love (Feat. King) 3:18
07. Ah Yeah (Feat. Musiq Soulchild And Chrisette Michele) 5:08
08. The Consequences Of Jealousy (Feat. Meshell Ndegeocello) 6:07
09. Why Do We Try (Feat. Stokley) 6:30
10. Black Radio (Feat. Yasiin Bey) 5:25
11. Letter To Hermione (Feat. Bilal) 4:51
12. Smells Like Teen Spirit 7:24
13. Fever (feat. Hindi Zahra) 6:47

musicians
Robert Glasper - piano (1-12), Rhodes (1-9, 12), synthesizer (10)
Casey Benjamin - vocoder (1, 3, 4, 8, 12), flute (2, 11), saxophone (3, 6, 9, 10), synthesizer (3-5, 12)
Derrick Hodge - bass (1-12)
Chris Dave - drums (1-12), percussion (9)
Jahi Sundance - turntables (1, 8, 10, 12)
Erykah Badu - vocals (2)
Lalah Hathaway - vocals (3, 12)
Lupe Fiasco - vocals (4)
Bilal - vocals (4, 11)
Shafiq Husayn - vocals (1)
Ledisi - vocals (5)
Amber Strother - vocals (6)
Anita Bias - vocals (6)
Paris Strother - aux keys (6)
Musiq Soulchild - vocals, snapping (7)
Chrisette Michele - vocals (7)
Me'Shell Ndegeocello - vocals (8)
Stokley - vocals (9), percussion (9, 12)
Yasiin Bey - vocals (10)

Produced by Robert Glasper


Exact Audio Copy V1.0 beta 2 from 29. April 2011

EAC extraction logfile from 2. March 2012, 23:04

Robert Glasper Experiment / Black Radio

Used drive : PLEXTOR DVDR PX-L890SA Adapter: 2 ID: 1

Read mode : Secure
Utilize accurate stream : Yes
Defeat audio cache : Yes
Make use of C2 pointers : No

Read offset correction : 6
Overread into Lead-In and Lead-Out : No
Fill up missing offset samples with silence : Yes
Delete leading and trailing silent blocks : No
Null samples used in CRC calculations : Yes
Used interface : Native Win32 interface for Win NT & 2000
Gap handling : Appended to previous track

Used output format : User Defined Encoder
Selected bitrate : 256 kBit/s
Quality : High
Add ID3 tag : No
Command line compressor : C:\Program Files (x86)\Exact Audio Copy\FLAC\FLAC.EXE
Additional command line options : -8 -V -T "ARTIST=%artist%" -T "TITLE=%title%" -T "ALBUM=%albumtitle%" -T "DATE=%year%" -T "TRACKNUMBER=%tracknr%" -T "TOTALTRACKS=%numtracks%" -T "GENRE=%genre%" -T "ALBUMARTIST=%albumartist%" -T "ALBUM ARTIST=%albumartist%


TOC of the extracted CD

Track | Start | Length | Start sector | End sector
––––––––––––––––––––––––––––-
1 | 0:00.00 | 3:57.29 | 0 | 17803
2 | 3:57.29 | 5:13.65 | 17804 | 41343
3 | 9:11.19 | 5:53.27 | 41344 | 67845
4 | 15:04.46 | 5:22.26 | 67846 | 92021
5 | 20:26.72 | 6:13.04 | 92022 | 120000
6 | 26:40.01 | 3:22.06 | 120001 | 135156
7 | 30:02.07 | 5:13.27 | 135157 | 158658
8 | 35:15.34 | 6:12.41 | 158659 | 186599
9 | 41:28.00 | 6:32.60 | 186600 | 216059
10 | 48:00.60 | 5:26.49 | 216060 | 240558
11 | 53:27.34 | 4:53.00 | 240559 | 262533
12 | 58:20.34 | 7:25.39 | 262534 | 295947
13 | 65:45.73 | 6:48.27 | 295948 | 326574


Track 1

Filename F:\Flac Rips\01 - Lift Off.wav

Pre-gap length 0:00:02.00

Peak level 100.0 %
Extraction speed 3.1 X
Track quality 99.9 %
Test CRC DE8BA2C7
Copy CRC DE8BA2C7
Track not present in AccurateRip database
Copy OK

Track 2

Filename F:\Flac Rips\02 - Afro Blue.wav

Pre-gap length 0:00:00.18

Peak level 100.0 %
Extraction speed 4.4 X
Track quality 100.0 %
Test CRC 35C94A3A
Copy CRC 35C94A3A
Track not present in AccurateRip database
Copy OK

Track 3

Filename F:\Flac Rips\03 - Cherish The Day.wav

Pre-gap length 0:00:06.18

Peak level 98.8 %
Extraction speed 5.0 X
Track quality 100.0 %
Test CRC B052FEA7
Copy CRC B052FEA7
Track not present in AccurateRip database
Copy OK

Track 4

Filename F:\Flac Rips\04 - Always Shine.wav

Pre-gap length 0:00:01.56

Peak level 99.3 %
Extraction speed 4.5 X
Track quality 99.9 %
Test CRC C2B5860B
Copy CRC C2B5860B
Track not present in AccurateRip database
Copy OK

Track 5

Filename F:\Flac Rips\05 - Gonna Be Alright.wav

Peak level 100.0 %
Extraction speed 5.8 X
Track quality 100.0 %
Test CRC 36F65AC7
Copy CRC 36F65AC7
Track not present in AccurateRip database
Copy OK

Track 6

Filename F:\Flac Rips\06 - Move Love.wav

Pre-gap length 0:00:03.02

Peak level 100.0 %
Extraction speed 5.6 X
Track quality 100.0 %
Test CRC BB07690A
Copy CRC BB07690A
Track not present in AccurateRip database
Copy OK

Track 7

Filename F:\Flac Rips\07 - Ah Yeah.wav

Pre-gap length 0:00:03.71

Peak level 99.8 %
Extraction speed 5.2 X
Track quality 99.9 %
Test CRC CA31D9FE
Copy CRC CA31D9FE
Track not present in AccurateRip database
Copy OK

Track 8

Filename F:\Flac Rips\08 - The Consecuences of Jealousy.wav

Pre-gap length 0:00:04.32

Peak level 99.7 %
Extraction speed 6.6 X
Track quality 100.0 %
Test CRC 602870F6
Copy CRC 602870F6
Track not present in AccurateRip database
Copy OK

Track 9

Filename F:\Flac Rips\09 - Why Do We Try.wav

Pre-gap length 0:00:05.04

Peak level 100.0 %
Extraction speed 7.1 X
Track quality 100.0 %
Test CRC 56A886A2
Copy CRC 56A886A2
Track not present in AccurateRip database
Copy OK

Track 10

Filename F:\Flac Rips\10 - Black Radio.wav

Pre-gap length 0:00:01.10

Peak level 100.0 %
Extraction speed 6.1 X
Track quality 99.9 %
Test CRC 077494DA
Copy CRC 077494DA
Track not present in AccurateRip database
Copy OK

Track 11

Filename F:\Flac Rips\11 - Letter to Hermione.wav

Pre-gap length 0:00:01.04

Peak level 100.0 %
Extraction speed 7.4 X
Track quality 100.0 %
Test CRC 305C688D
Copy CRC 305C688D
Track not present in AccurateRip database
Copy OK

Track 12

Filename F:\Flac Rips\12 - Smells Like Teen Spirit.wav

Pre-gap length 0:00:01.12

Peak level 97.7 %
Extraction speed 7.4 X
Track quality 99.9 %
Test CRC 8B0CD79C
Copy CRC 8B0CD79C
Track not present in AccurateRip database
Copy OK

Track 13

Filename F:\Flac Rips\13 - Fever.wav

Pre-gap length 0:00:00.54

Peak level 100.0 %
Extraction speed 7.1 X
Track quality 99.9 %
Test CRC F171325B
Copy CRC F171325B
Track not present in AccurateRip database
Copy OK


None of the tracks are present in the AccurateRip database

No errors occurred

End of status report

==== Log checksum EA57C11D80620C8B2B3C2A12B56B143487972502909E4374ACB1D8293A10A5D2 ====


––––––––––––––––––––––––––––––––––––––––
Analyzed: Robert Glasper Experiment / Black Radio
––––––––––––––––––––––––––––––––––––––––

DR Peak RMS Duration Track
––––––––––––––––––––––––––––––––––––––––
DR7 0.00 dB -10.49 dB 3:57 01-Lift Off
DR7 0.00 dB -7.53 dB 5:14 02-Afro Blue
DR7 -0.10 dB -9.20 dB 5:53 03-Cherish The Day
DR7 -0.06 dB -10.42 dB 5:22 04-Always Shine
DR7 0.00 dB -8.96 dB 6:13 05-Gonna Be Alright
DR8 0.00 dB -10.13 dB 3:22 06-Move Love
DR7 -0.01 dB -9.03 dB 5:13 07-Ah Yeah
DR8 -0.02 dB -10.12 dB 6:13 08-The Consecuences of Jealousy
DR7 0.00 dB -9.63 dB 6:33 09-Why Do We Try
DR6 0.00 dB -9.69 dB 5:27 10-Black Radio
DR6 0.00 dB -7.67 dB 4:53 11-Letter to Hermione
DR7 -0.20 dB -10.48 dB 7:26 12-Smells Like Teen Spirit
DR8 0.00 dB -8.92 dB 6:48 13-Fever
––––––––––––––––––––––––––––––––––––––––

Number of tracks: 13
Official DR value: DR7

Samplerate: 44100 Hz
Channels: 2
Bits per sample: 16
Bitrate: 889 kbps
Codec: FLAC
================================================================================

Robert Glasper Experiment - Black Radio (2012)
Robert Glasper Experiment - Black Radio (2012)
Robert Glasper Experiment - Black Radio (2012)


Rip by jlgt