Subcategories

Raymond Lefevre - Albums Collection 1965-1976 (11CD) Japanese Limited Mini LP, SHM-CD [Re-Up]

Posted By: Designol
Raymond Lefevre - Albums Collection 1965-1976 (11CD) Japanese Limited Mini LP, SHM-CD [Re-Up]

Raymond Lefèvre - Albums Collection 1965-1976 (11CD) Japanese Limited Mini LP, SHM-CD
EAC | FLAC | Image (Cue&Log) ~ 2.7 Gb (incl 5%) | Mp3 (CBR320) ~ 1.1 Gb (incl 5%) | Complete Scans
Genre: Easy Listening, Instrumental, Soundtrack | Label: Victor/Riviera | Time: 06:52:31

Collection includes 11 albums by French easy listening orchestra leader, arranger and composer Raymond Lefèvre.

The instrumental smash "Ame Câline" vaulted conductor and arranger Raymond LeFevre to the front ranks of the easy listening renaissance that followed the commercial vogue for stereophonic sound. Born in Calais, France on November 20, 1929, LeFevre studied flute as a child and at 16 entered Paris' Conservatoire National de Musique, moonlighting as a jazz pianist in local clubs and cabarets. After a stint behind jazz bandleader Hubert Rostaing, LeFevre joined conductor Bernard Hilda's Club des Champs-Elysées orchestra. He established himself as a composer and arranger during a lengthy tenure as a Barclay Records staffer, concurrently serving six years behind Egyptian born singer Dalida and in 1957 scoring the first of more than a dozen films with director Guillaume Radot, Fric-Frac en Dentelles. A year later, LeFevre notched a minor U.S. hit with his interpretation of Gilbert Bécaud's "Le Jour Ou La Pluie Viendra," retitled "The Day the Rains Came" for American consumption. By this time, he was also established as the musical director for the French television variety series Musicorama, leading his orchestra in accompaniment of countless singers. While scoring the 1964 feature Faites Sauter La Banque!, LeFevre first collaborated with fellow easy listening maestro Paul Mauriat, his greatest commercial rival in the years to follow. While Mauriat scored the biggest instrumental hit of the period with the chart-topping "Love Is Blue," LeFevre's lush symphonic approach was a fixture on the European pop charts throughout the '60s as consumer demand for stereo recordings guaranteed impressive sales for singles including "La La La (He Gives Me Love)," "Puppet on a String," and "A Whiter Shade of Pale." He scored his biggest hit in 1968 when composer Michel Polnareff's haunting "Ame Câline" (aka "Soul Coaxing") emerged as a staple on pirate station Radio Caroline, and while his commercial fortunes dwindled in the decade to follow, LeFevre remained a ubiquitous presence in French cinema, winning widespread acclaim for the 1971 thriller score Jo. He also continued recording until 2001, enjoying his greatest commercial renown in Japan. LeFevre died in Seine-Port, France on June 27, 2008.

Biography by Jason Ankeny, Allmusic.com

Wiki



Raymond Lefevre - Albums Collection 1965-1976 (11CD) Japanese Limited Mini LP, SHM-CD [Re-Up]

Raymond Lefèvre et son grand orchestre - Palmarès des chansons №1 (1965)
EAC | FLAC | Image (Cue&Log) ~ 214 Mb (incl 5%) | Mp3 (CBR320) ~ 101 Mb (incl 5%) | Scans included
Label: Victor | # VICP-64611 | Time: 00:29:45


Tracklist:

01. Palmares Des Chansons (01:37)
02. Io Che Non Vivo (02:43)
03. J'aime (02:23)
04. Un Amour Dans La Ville (02:19)
05. Nuit (02:40)
06. Les Etoiles De La Rout (02:47)
07. La Passionata (02:41)
08. Yesterday (02:33)
09. La Boheme (02:28)
10. Moon over Naples (02:43)
11. Il Faut Si Peu De Pluie (02:25)
12. L'amerique (02:20)


Exact Audio Copy V1.0 beta 3 from 29. August 2011

EAC extraction logfile from 5. August 2012, 8:41

Raymond Lefevre / Palmares des Chansons #1

Used drive : Optiarc DVD RW AD-5260S Adapter: 3 ID: 3

Read mode : Secure
Utilize accurate stream : Yes
Defeat audio cache : Yes
Make use of C2 pointers : No

Read offset correction : 48
Overread into Lead-In and Lead-Out : No
Fill up missing offset samples with silence : Yes
Delete leading and trailing silent blocks : No
Null samples used in CRC calculations : Yes
Used interface : Native Win32 interface for Win NT & 2000

Used output format : User Defined Encoder
Selected bitrate : 768 kBit/s
Quality : High
Add ID3 tag : Yes
Command line compressor : C:\Program Files (x86)\Exact Audio Copy\FLAC\FLAC.EXE
Additional command line options : -8 -V %source%


TOC of the extracted CD

Track | Start | Length | Start sector | End sector
––––––––––––––––––––––––––––-
1 | 0:00.00 | 1:37.30 | 0 | 7304
2 | 1:37.30 | 2:43.40 | 7305 | 19569
3 | 4:20.70 | 2:23.30 | 19570 | 30324
4 | 6:44.25 | 2:19.21 | 30325 | 40770
5 | 9:03.46 | 2:40.41 | 40771 | 52811
6 | 11:44.12 | 2:47.18 | 52812 | 65354
7 | 14:31.30 | 2:41.36 | 65355 | 77465
8 | 17:12.66 | 2:33.16 | 77466 | 88956
9 | 19:46.07 | 2:28.20 | 88957 | 100076
10 | 22:14.27 | 2:43.73 | 100077 | 112374
11 | 24:58.25 | 2:25.72 | 112375 | 123321
12 | 27:24.22 | 2:20.55 | 123322 | 133876


Range status and errors

Selected range

Filename H:\My Documents\Моя музыка\Raymond Lefevre\Raymond Lefevre et son grand orchestre [Japanese Limited Mini LP SHM-CD] (by Skimble)\VICP-64611 - 1965 - Raymond Lefevre - Palmares des Chansons #1\Raymond Lefevre - Palmares des Chansons #1.wav

Peak level 97.9 %
Extraction speed 1.7 X
Range quality 100.0 %
Test CRC A181C1EA
Copy CRC A181C1EA
Copy OK

No errors occurred

End of status report

==== Log checksum E97E1FA21773FC9526BD9E92E72D5DFBE274223974E05009592CAEC5D7D2B3FE ====




Raymond Lefevre - Albums Collection 1965-1976 (11CD) Japanese Limited Mini LP, SHM-CD [Re-Up]

Raymond Lefèvre et son grand orchestre - Palmarès des chansons №9 (1969)
EAC | FLAC | Image (Cue&Log) ~ 204 Mb (incl 5%) | Mp3 (CBR320) ~ 80 Mb (incl 5%) | Scans ~ 90 Mb
Label: Victor | # VICP-64618 | Time: 00:33:37


Tracklist:

01. Oh Happy Day (Merci Seigneur) (03:43)
02. Oh Lady Mary (02:32)
03. Un jour, un enfant (02:52)
04. 13 jours en France (02:51)
05. Reverie (03:31)
06. Sirop Typhon (02:12)
07. Isadora (02:41)
08. L'orage (02:34)
09. Liberte mon amour (02:35)
10. Catherine (02:34)
11. Bye Bye Barbara (02:53)
12. Casatschok (02:35)


Exact Audio Copy V1.0 beta 3 from 29. August 2011

EAC extraction logfile from 1. July 2012, 14:55

Raymond Lefevre / Palmarès des chansons 9 - Jours en France (VICP-64618)

Used drive : TSSTcorpCDDVDW TS-L633C Adapter: 2 ID: 0

Read mode : Secure
Utilize accurate stream : Yes
Defeat audio cache : Yes
Make use of C2 pointers : No

Read offset correction : 6
Overread into Lead-In and Lead-Out : No
Fill up missing offset samples with silence : Yes
Delete leading and trailing silent blocks : No
Null samples used in CRC calculations : Yes
Used interface : Native Win32 interface for Win NT & 2000

Used output format : Internal WAV Routines
Sample format : 44.100 Hz; 16 Bit; Stereo


TOC of the extracted CD

Track | Start | Length | Start sector | End sector
––––––––––––––––––––––––––––-
1 | 0:00.00 | 3:43.05 | 0 | 16729
2 | 3:43.05 | 2:32.38 | 16730 | 28167
3 | 6:15.43 | 2:52.12 | 28168 | 41079
4 | 9:07.55 | 2:51.13 | 41080 | 53917
5 | 11:58.68 | 3:31.00 | 53918 | 69742
6 | 15:29.68 | 2:13.00 | 69743 | 79717
7 | 17:42.68 | 2:41.12 | 79718 | 91804
8 | 20:24.05 | 2:34.08 | 91805 | 103362
9 | 22:58.13 | 2:35.30 | 103363 | 115017
10 | 25:33.43 | 2:34.62 | 115018 | 126629
11 | 28:08.30 | 2:53.63 | 126630 | 139667
12 | 31:02.18 | 2:35.45 | 139668 | 151337


Range status and errors

Selected range

Filename C:\Users\user\Desktop\Raymond Lefevre - Palmares des chansons 9 - Jours en France (VICP-64618).wav

Peak level 100.0 %
Extraction speed 3.3 X
Range quality 100.0 %
Test CRC 7DC557B4
Copy CRC 7DC557B4
Copy OK

No errors occurred


AccurateRip summary

Track 1 not present in database
Track 2 not present in database
Track 3 not present in database
Track 4 not present in database
Track 5 not present in database
Track 6 not present in database
Track 7 not present in database
Track 8 not present in database
Track 9 not present in database
Track 10 not present in database
Track 11 not present in database
Track 12 not present in database

None of the tracks are present in the AccurateRip database

End of status report




Raymond Lefevre - Albums Collection 1965-1976 (11CD) Japanese Limited Mini LP, SHM-CD [Re-Up]

Raymond Lefèvre et son grand orchestre - Palmarès des chansons №9 (1969)
EAC | FLAC | Image (Cue&Log) ~ 211 Mb (incl 5%) | Mp3 (CBR320) ~ 77 Mb (incl 5%) | Scans ~ 101 Mb
Label: Victor | # VICP-64619 | Time: 00:32:14


Tracklist:

01. Que je t'aime (02:11)
02. A quel printemps viendras-tu ma belle (02:25)
03. Chimene (02:43)
04. Je t'aime moi non plus (02:39)
05. Les Champs-Elysees (02:27)
06. L'an 2525 (02:35)
07. Andante maggiore de Vivaldi (03:27)
08. Il etait une fois dans l'Ouest (02:36)
09. Un jour pour nous (02:41)
10. C'est extra (02:29)
11. Wight is Wight (02:46)
12. Alors, je chante (02:42)


Exact Audio Copy V1.0 beta 3 from 29. August 2011

EAC extraction logfile from 7. April 2014, 20:19

Raymond Lefevre / Palmarès des chansons 10 - Je t'aime (VICP-64619)

Used drive : TSSTcorpCDDVDW TS-L633C Adapter: 2 ID: 0

Read mode : Secure
Utilize accurate stream : Yes
Defeat audio cache : Yes
Make use of C2 pointers : No

Read offset correction : 6
Overread into Lead-In and Lead-Out : No
Fill up missing offset samples with silence : Yes
Delete leading and trailing silent blocks : No
Null samples used in CRC calculations : Yes
Used interface : Native Win32 interface for Win NT & 2000

Used output format : Internal WAV Routines
Sample format : 44.100 Hz; 16 Bit; Stereo


TOC of the extracted CD

Track | Start | Length | Start sector | End sector
––––––––––––––––––––––––––––-
1 | 0:00.00 | 2:14.34 | 0 | 10083
2 | 2:14.34 | 2:28.06 | 10084 | 21189
3 | 4:42.40 | 2:46.24 | 21190 | 33663
4 | 7:28.64 | 2:42.32 | 33664 | 45845
5 | 10:11.21 | 2:30.43 | 45846 | 57138
6 | 12:41.64 | 2:38.05 | 57139 | 68993
7 | 15:19.69 | 3:30.26 | 68994 | 84769
8 | 18:50.20 | 2:39.10 | 84770 | 96704
9 | 21:29.30 | 2:44.71 | 96705 | 109075
10 | 24:14.26 | 2:32.69 | 109076 | 120544
11 | 26:47.20 | 2:49.35 | 120545 | 133254
12 | 29:36.55 | 2:42.12 | 133255 | 145416


Range status and errors

Selected range

Filename D:\TorrentShare\Raymond Lefevre - CD Collection [by italia57]\2009. Palmares des chansons 10 - Je t'aime (SHM-CD)\Raymond Lefevre - Palmares des chansons 10 - Je t'aime (VICP-64619).wav

Peak level 100.0 %
Extraction speed 3.0 X
Range quality 99.9 %
Test CRC 99362E29
Copy CRC 99362E29
Copy OK

No errors occurred


AccurateRip summary

Track 1 not present in database
Track 2 not present in database
Track 3 not present in database
Track 4 not present in database
Track 5 not present in database
Track 6 not present in database
Track 7 not present in database
Track 8 not present in database
Track 9 not present in database
Track 10 not present in database
Track 11 not present in database
Track 12 not present in database

None of the tracks are present in the AccurateRip database

End of status report

–– CUETools DB Plugin V2.1.4

[CTDB TOCID: dQyIUtOogrj9xSsM.6U5yRy3XGM-] disk not present in database
Submit result: dQyIUtOogrj9xSsM.6U5yRy3XGM- has been uploaded


==== Log checksum FDD8C9FC0C0044B2F67E23C6D39604C8B3E8B822A35423B3010343F19918EA4C ====

foobar2000 1.2 / Dynamic Range Meter 1.1.1
log date: 2014-04-16 23:09:55

––––––––––––––––––––––––––––––––––––––––
Analyzed: Raymond Lefevre / Palmares des chansons 10 - Je t'aime (VICP-64619)
––––––––––––––––––––––––––––––––––––––––

DR Peak RMS Duration Track
––––––––––––––––––––––––––––––––––––––––
DR9 -0.81 dB -11.22 dB 2:14 01-Que je t'aime
DR9 0.00 dB -10.53 dB 2:28 02-A quel printemps viendras-tu ma belle
DR8 -1.49 dB -11.68 dB 2:46 03-Chimene
DR9 -1.54 dB -12.79 dB 2:42 04-Je t'aime moi non plus
DR10 -0.23 dB -11.60 dB 2:31 05-Les Champs-Elysees
DR9 -1.74 dB -11.59 dB 2:38 06-L'an 2525
DR9 -2.45 dB -12.71 dB 3:30 07-Andante maggiore de Vivaldi
DR10 -1.18 dB -14.19 dB 2:39 08-Il etait une fois dans l'Ouest
DR8 -2.75 dB -13.25 dB 2:45 09-Un jour pour nous
DR9 -0.36 dB -11.42 dB 2:33 10-C'est extra
DR9 -1.66 dB -11.62 dB 2:49 11-Wight is Wight
DR10 -0.42 dB -11.31 dB 2:42 12-Alors, je chante
––––––––––––––––––––––––––––––––––––––––

Number of tracks: 12
Official DR value: DR9

Samplerate: 44100 Hz
Channels: 2
Bits per sample: 16
Bitrate: 871 kbps
Codec: FLAC
================================================================================




Raymond Lefevre - Albums Collection 1965-1976 (11CD) Japanese Limited Mini LP, SHM-CD [Re-Up]

Raymond Lefèvre et son grand orchestre - Palmarès des chansons №12 (1970)
EAC | FLAC | Image (Cue&Log) ~ 257 Mb (incl 5%) | Mp3 (CBR320) ~ 101 Mb (incl 5%) | Scans ~ 92 Mb
Label: Victor | # VICP-64620 | Time: 00:41:50


Tracklist:

01. 5th Sympnony (02:52)
02. Concerto pour une voix (03:26)
03. Raindrops Keep Fallin' on My Head (02:39)
04. Lullaby (02:31)
05. Wand'rin' Star (02:44)
06. Stephanie (02:30)
07. Bridge Over Troubled Water (03:13)
08. Aria (Bach) (02:46)
09. Le clan des Siciliens (03:01)
10. Volevo un gatto nero (01:57)
11. Scat in the Dark (02:50)
12. Neretva (02:34)
13. Tokiniwa haha no nai ko no yo ni (03:05)
14. Aime ceux qui t'aiment (Наш сосед) (02:47)
15. The Train (02:49)


Exact Audio Copy V1.0 beta 3 from 29. August 2011

EAC extraction logfile from 14. July 2012, 10:53

Raymond Lefevre / Palmarès des chansons 12 - Ai no Sadame (VICP-64620)

Used drive : TSSTcorpCDDVDW TS-L633C Adapter: 2 ID: 0

Read mode : Secure
Utilize accurate stream : Yes
Defeat audio cache : Yes
Make use of C2 pointers : No

Read offset correction : 6
Overread into Lead-In and Lead-Out : No
Fill up missing offset samples with silence : Yes
Delete leading and trailing silent blocks : No
Null samples used in CRC calculations : Yes
Used interface : Native Win32 interface for Win NT & 2000

Used output format : Internal WAV Routines
Sample format : 44.100 Hz; 16 Bit; Stereo


TOC of the extracted CD

Track | Start | Length | Start sector | End sector
––––––––––––––––––––––––––––-
1 | 0:00.00 | 2:52.40 | 0 | 12939
2 | 2:52.40 | 3:26.60 | 12940 | 28449
3 | 6:19.25 | 2:39.23 | 28450 | 40397
4 | 8:58.48 | 2:31.50 | 40398 | 51772
5 | 11:30.23 | 2:44.12 | 51773 | 64084
6 | 14:14.35 | 2:30.45 | 64085 | 75379
7 | 16:45.05 | 3:13.05 | 75380 | 89859
8 | 19:58.10 | 2:46.18 | 89860 | 102327
9 | 22:44.28 | 3:01.72 | 102328 | 115974
10 | 25:46.25 | 1:57.43 | 115975 | 124792
11 | 27:43.68 | 2:50.65 | 124793 | 137607
12 | 30:34.58 | 2:34.40 | 137608 | 149197
13 | 33:09.23 | 3:05.05 | 149198 | 163077
14 | 36:14.28 | 2:47.30 | 163078 | 175632
15 | 39:01.58 | 2:49.12 | 175633 | 188319


Range status and errors

Selected range

Filename C:\Users\user\Desktop\Raymond Lefevre - Palmares des chansons 12 - Ai no Sadame (VICP-64620).wav

Peak level 99.0 %
Extraction speed 3.3 X
Range quality 99.9 %
Test CRC 7E6E8CBE
Copy CRC 7E6E8CBE
Copy OK

No errors occurred


AccurateRip summary

Track 1 not present in database
Track 2 not present in database
Track 3 not present in database
Track 4 not present in database
Track 5 not present in database
Track 6 not present in database
Track 7 not present in database
Track 8 not present in database
Track 9 not present in database
Track 10 not present in database
Track 11 not present in database
Track 12 not present in database
Track 13 not present in database
Track 14 not present in database
Track 15 not present in database

None of the tracks are present in the AccurateRip database

End of status report




Raymond Lefevre - Albums Collection 1965-1976 (11CD) Japanese Limited Mini LP, SHM-CD [Re-Up]

Raymond Lefèvre et son grand orchestre №14 (1971)
EAC | FLAC | Image (Cue&Log) ~ 224 Mb (incl 5%) | Mp3 (CBR320) ~ 83 Mb (incl 5%) | Scans ~ 101 Mb
Label: Victor | # VICP-70118 | Time: 00:34:43


Tracklist:

01. Mamy Blue (03:06)
02. The Fool (02:21)
03. Mourir d'aimer (03:16)
04. Allegro du grand siecle (02:33)
05. Le jour se leve (02:22)
06. Pour un flirt (02:34)
07. Le casse (04:22)
08. Here's to You (02:35)
09. Adagio de la sonate au clair de lune (03:21)
10. Adagio du concerto en do m (02:39)
11. We Shall Dance (02:34)
12. Jo (02:54)


Exact Audio Copy V1.0 beta 3 from 29. August 2011

EAC extraction logfile from 1. July 2012, 16:09

Raymond Lefevre / Raymond Lefevre et son grand orchestre No.14 (VICP-70118)

Used drive : TSSTcorpCDDVDW TS-L633C Adapter: 2 ID: 0

Read mode : Secure
Utilize accurate stream : Yes
Defeat audio cache : Yes
Make use of C2 pointers : No

Read offset correction : 6
Overread into Lead-In and Lead-Out : No
Fill up missing offset samples with silence : Yes
Delete leading and trailing silent blocks : No
Null samples used in CRC calculations : Yes
Used interface : Native Win32 interface for Win NT & 2000

Used output format : Internal WAV Routines
Sample format : 44.100 Hz; 16 Bit; Stereo


TOC of the extracted CD

Track | Start | Length | Start sector | End sector
––––––––––––––––––––––––––––-
1 | 0:00.00 | 3:06.27 | 0 | 13976
2 | 3:06.27 | 2:21.18 | 13977 | 24569
3 | 5:27.45 | 3:16.05 | 24570 | 39274
4 | 8:43.50 | 2:33.58 | 39275 | 50807
5 | 11:17.33 | 2:22.56 | 50808 | 61513
6 | 13:40.14 | 2:34.51 | 61514 | 73114
7 | 16:14.65 | 4:22.18 | 73115 | 92782
8 | 20:37.08 | 2:35.22 | 92783 | 104429
9 | 23:12.30 | 3:21.50 | 104430 | 119554
10 | 26:34.05 | 2:39.43 | 119555 | 131522
11 | 29:13.48 | 2:34.65 | 131523 | 143137
12 | 31:48.38 | 2:54.51 | 143138 | 156238


Range status and errors

Selected range

Filename C:\Users\user\Desktop\Raymond Lefevre - Raymond Lefevre et son grand orchestre No.14 (VICP-70118).wav

Peak level 97.9 %
Extraction speed 3.3 X
Range quality 100.0 %
Test CRC 63810E1B
Copy CRC 63810E1B
Copy OK

No errors occurred


AccurateRip summary

Track 1 not present in database
Track 2 not present in database
Track 3 not present in database
Track 4 not present in database
Track 5 not present in database
Track 6 not present in database
Track 7 not present in database
Track 8 not present in database
Track 9 not present in database
Track 10 not present in database
Track 11 not present in database
Track 12 not present in database

None of the tracks are present in the AccurateRip database

End of status report




Raymond Lefevre - Albums Collection 1965-1976 (11CD) Japanese Limited Mini LP, SHM-CD [Re-Up]

Raymond Lefèvre et son grand orchestre №16 (1972)
EAC | FLAC | Image (Cue&Log) ~ 267 Mb (incl 5%) | Mp3 (CBR320) ~ 117 Mb (incl 5%) | Scans included
Label: Victor | # VICP-70120 | Time: 00:37:25


Tracklist:

01. Une Belle Histoire (02:53)
02. Comme Ils Disent (03:23)
03. Ciel (02:38)
04. La Solitude (03:26)
05. 62, Nos Quinze Ans (03:04)
06. Harmony (03:02)
07. Parle Plus Bas (02:47)
08. Sans Toi Suis Seul (03:30)
09. Delta Queen (03:24)
10. Pour Lui Je Reviens (02:28)
11. You're A Lady (03:43)
12. Sonate En Ut Majeur De Mozart (03:02)


Exact Audio Copy V1.0 beta 3 from 29. August 2011

EAC extraction logfile from 5. August 2012, 10:31

Raymond Lefevre / #16

Used drive : Optiarc DVD RW AD-5260S Adapter: 3 ID: 3

Read mode : Secure
Utilize accurate stream : Yes
Defeat audio cache : Yes
Make use of C2 pointers : No

Read offset correction : 48
Overread into Lead-In and Lead-Out : No
Fill up missing offset samples with silence : Yes
Delete leading and trailing silent blocks : No
Null samples used in CRC calculations : Yes
Used interface : Native Win32 interface for Win NT & 2000

Used output format : User Defined Encoder
Selected bitrate : 768 kBit/s
Quality : High
Add ID3 tag : Yes
Command line compressor : C:\Program Files (x86)\Exact Audio Copy\FLAC\FLAC.EXE
Additional command line options : -8 -V %source%


TOC of the extracted CD

Track | Start | Length | Start sector | End sector
––––––––––––––––––––––––––––-
1 | 0:00.00 | 2:53.59 | 0 | 13033
2 | 2:53.59 | 3:23.16 | 13034 | 28274
3 | 6:17.00 | 2:38.29 | 28275 | 40153
4 | 8:55.29 | 3:26.70 | 40154 | 55673
5 | 12:22.24 | 3:04.36 | 55674 | 69509
6 | 15:26.60 | 3:02.31 | 69510 | 83190
7 | 18:29.16 | 2:47.09 | 83191 | 95724
8 | 21:16.25 | 3:30.53 | 95725 | 111527
9 | 24:47.03 | 3:24.38 | 111528 | 126865
10 | 28:11.41 | 2:28.30 | 126866 | 137995
11 | 30:39.71 | 3:43.33 | 137996 | 154753
12 | 34:23.29 | 3:02.11 | 154754 | 168414


Range status and errors

Selected range

Filename H:\My Documents\Моя музыка\Raymond Lefevre\Raymond Lefevre et son grand orchestre [Japanese Limited Mini LP SHM-CD] (by Skimble)\VICP-70120 - 1972 - Raymond Lefevre et son grand orchestre #16\Raymond Lefevre - #16.wav

Peak level 97.9 %
Extraction speed 1.8 X
Range quality 100.0 %
Test CRC 1626DB4A
Copy CRC 1626DB4A
Copy OK

No errors occurred

End of status report

==== Log checksum 0FABDEC094139DE149015CEE1D4EE4CD09802FBB65B95320AE26DEB095E775E6 ====




Raymond Lefevre - Albums Collection 1965-1976 (11CD) Japanese Limited Mini LP, SHM-CD [Re-Up]

Raymond Lefèvre et son grand orchestre №17 (1973)
EAC | FLAC | Image (Cue&Log) ~ 264 Mb (incl 5%) | Mp3 (CBR320) ~ 116 Mb (incl 5%) | Scans included
Label: Victor | # VICP-70121 | Time: 00:36:37


Tracklist:

01. Viens Viens (02:45)
02. Tu Te Reconnaitras (02:41)
03. My Love (03:07)
04. Un Grande Amore E Niente Piu (03:13)
05. Reviens Mon Amour Reviens (03:30)
06. J'ai Rencontre L'homme De Ma Vie (02:40)
07. Nous Irons A Verone (03:17)
08. Rien Qu'une Larme (02:51)
09. La Dolce (02:52)
10. Da Troppo Tempo (03:47)
11. For Ever And Ever (03:02)
12. Fio Maravilla (02:46)


Exact Audio Copy V1.0 beta 3 from 29. August 2011

EAC extraction logfile from 5. August 2012, 11:25

Raymond Lefevre / # 17

Used drive : Optiarc DVD RW AD-5260S Adapter: 3 ID: 3

Read mode : Secure
Utilize accurate stream : Yes
Defeat audio cache : Yes
Make use of C2 pointers : No

Read offset correction : 48
Overread into Lead-In and Lead-Out : No
Fill up missing offset samples with silence : Yes
Delete leading and trailing silent blocks : No
Null samples used in CRC calculations : Yes
Used interface : Native Win32 interface for Win NT & 2000

Used output format : User Defined Encoder
Selected bitrate : 768 kBit/s
Quality : High
Add ID3 tag : Yes
Command line compressor : C:\Program Files (x86)\Exact Audio Copy\FLAC\FLAC.EXE
Additional command line options : -8 -V %source%


TOC of the extracted CD

Track | Start | Length | Start sector | End sector
––––––––––––––––––––––––––––-
1 | 0:00.00 | 2:45.52 | 0 | 12426
2 | 2:45.52 | 2:41.73 | 12427 | 24574
3 | 5:27.50 | 3:07.54 | 24575 | 38653
4 | 8:35.29 | 3:13.41 | 38654 | 53169
5 | 11:48.70 | 3:30.12 | 53170 | 68931
6 | 15:19.07 | 2:40.22 | 68932 | 80953
7 | 17:59.29 | 3:17.54 | 80954 | 95782
8 | 21:17.08 | 2:51.41 | 95783 | 108648
9 | 24:08.49 | 2:52.21 | 108649 | 121569
10 | 27:00.70 | 3:47.57 | 121570 | 138651
11 | 30:48.52 | 3:02.19 | 138652 | 152320
12 | 33:50.71 | 2:46.56 | 152321 | 164826


Range status and errors

Selected range

Filename H:\My Documents\Моя музыка\Raymond Lefevre\Raymond Lefevre et son grand orchestre [Japanese Limited Mini LP SHM-CD] (by Skimble)\VICP-70121 - 1973 - Raymond Lefevre et son grand orchestre #17\Raymond Lefevre - # 17.wav

Peak level 97.9 %
Extraction speed 1.8 X
Range quality 100.0 %
Test CRC 20F7E667
Copy CRC 20F7E667
Copy OK

No errors occurred

End of status report

==== Log checksum 39FDD8D920843B884988A3A626D305E9D2D06C0DE1E66114611E8C45906C5BD9 ====




Raymond Lefevre - Albums Collection 1965-1976 (11CD) Japanese Limited Mini LP, SHM-CD [Re-Up]

Raymond Lefèvre et son grand orchestre №18 (1974)
EAC | FLAC | Image (Cue&Log) ~ 276 Mb (incl 5%) | Mp3 (CBR320) ~ 125 Mb (incl 5%) | Scans included
Label: Victor | # VICP-70122 | Time: 00:40:14


Tracklist:

01. Les Divorces (03:53)
02. Angie (03:19)
03. Melancolie (03:30)
04. Little Girl (03:12)
05. Let Me Try Again (03:16)
06. C'est La Fete (03:06)
07. Papillon (03:29)
08. Les Vieux Maries (03:12)
09. Harlem Song (03:20)
10. Avanti (03:10)
11. Yesterday Once More (04:05)
12. Toujours Du Cinema (02:37)


Exact Audio Copy V1.0 beta 3 from 29. August 2011

EAC extraction logfile from 5. August 2012, 12:22

Raymond Lefevre / #18

Used drive : Optiarc DVD RW AD-5260S Adapter: 3 ID: 3

Read mode : Secure
Utilize accurate stream : Yes
Defeat audio cache : Yes
Make use of C2 pointers : No

Read offset correction : 48
Overread into Lead-In and Lead-Out : No
Fill up missing offset samples with silence : Yes
Delete leading and trailing silent blocks : No
Null samples used in CRC calculations : Yes
Used interface : Native Win32 interface for Win NT & 2000

Used output format : User Defined Encoder
Selected bitrate : 768 kBit/s
Quality : High
Add ID3 tag : Yes
Command line compressor : C:\Program Files (x86)\Exact Audio Copy\FLAC\FLAC.EXE
Additional command line options : -8 -V %source%


TOC of the extracted CD

Track | Start | Length | Start sector | End sector
––––––––––––––––––––––––––––-
1 | 0:00.00 | 3:53.31 | 0 | 17505
2 | 3:53.31 | 3:19.16 | 17506 | 32446
3 | 7:12.47 | 3:30.31 | 32447 | 48227
4 | 10:43.03 | 3:12.70 | 48228 | 62697
5 | 13:55.73 | 3:16.71 | 62698 | 77468
6 | 17:12.69 | 3:06.29 | 77469 | 91447
7 | 20:19.23 | 3:29.00 | 91448 | 107122
8 | 23:48.23 | 3:12.18 | 107123 | 121540
9 | 27:00.41 | 3:20.45 | 121541 | 136585
10 | 30:21.11 | 3:10.19 | 136586 | 150854
11 | 33:31.30 | 4:05.62 | 150855 | 169291
12 | 37:37.17 | 2:37.09 | 169292 | 181075


Range status and errors

Selected range

Filename H:\My Documents\Моя музыка\Raymond Lefevre\Raymond Lefevre et son grand orchestre [Japanese Limited Mini LP SHM-CD] (by Skimble)\VICP-70122 - 1974 - Raymond Lefevre et son grand orchestre #18\Raymond Lefevre - #18.wav

Peak level 97.9 %
Extraction speed 1.8 X
Range quality 100.0 %
Test CRC 35B3E622
Copy CRC 35B3E622
Copy OK

No errors occurred

End of status report

==== Log checksum 0A9E74950487CB74DE1E5E6CE126D3378FA561D7140811EDBD8478A28F0ECAC1 ====




Raymond Lefevre - Albums Collection 1965-1976 (11CD) Japanese Limited Mini LP, SHM-CD [Re-Up]

Raymond Lefèvre et son grand orchestre №19 (1974)
EAC | FLAC | Image (Cue&Log) ~ 264 Mb (incl 5%) | Mp3 (CBR320) ~ 120 Mb (incl 5%) | Scans included
Label: Victor | # VICP-70123 | Time: 00:38:34


Tracklist:

01. Le premier pas (03:07)
02. Emmanuelle (02:58)
03. La maison est en ruine (03:10)
04. Muriel (02:21)
05. Anima mia (02:53)
06. Glory alleluia (02:33)
07. Chanson pour Anna (03:16)
08. Je t'aime je t'aime je t'aime (02:49)
09. Homme (03:01)
10. Je suis amoureux de ma femme (02:35)
11. She (03:02)
12. Les enfants du Siecle (02:39)
13. The Sound Of Love (03:44)


Exact Audio Copy V1.0 beta 3 from 29. August 2011

EAC extraction logfile from 5. August 2012, 9:36

Raymond Lefevre / #19

Used drive : Optiarc DVD RW AD-5260S Adapter: 3 ID: 3

Read mode : Secure
Utilize accurate stream : Yes
Defeat audio cache : Yes
Make use of C2 pointers : No

Read offset correction : 48
Overread into Lead-In and Lead-Out : No
Fill up missing offset samples with silence : Yes
Delete leading and trailing silent blocks : No
Null samples used in CRC calculations : Yes
Used interface : Native Win32 interface for Win NT & 2000

Used output format : User Defined Encoder
Selected bitrate : 768 kBit/s
Quality : High
Add ID3 tag : Yes
Command line compressor : C:\Program Files (x86)\Exact Audio Copy\FLAC\FLAC.EXE
Additional command line options : -8 -V %source%


TOC of the extracted CD

Track | Start | Length | Start sector | End sector
––––––––––––––––––––––––––––-
1 | 0:00.00 | 3:07.30 | 0 | 14054
2 | 3:07.30 | 2:58.10 | 14055 | 27414
3 | 6:05.40 | 3:10.35 | 27415 | 41699
4 | 9:16.00 | 2:21.40 | 41700 | 52314
5 | 11:37.40 | 2:53.37 | 52315 | 65326
6 | 14:31.02 | 2:33.45 | 65327 | 76846
7 | 17:04.47 | 3:16.48 | 76847 | 91594
8 | 20:21.20 | 2:49.72 | 91595 | 104341
9 | 23:11.17 | 3:01.00 | 104342 | 117916
10 | 26:12.17 | 2:35.34 | 117917 | 129575
11 | 28:47.51 | 3:02.57 | 129576 | 143282
12 | 31:50.33 | 2:39.31 | 143283 | 155238
13 | 34:29.64 | 3:44.25 | 155239 | 172063


Range status and errors

Selected range

Filename H:\My Documents\Моя музыка\Raymond Lefevre\Raymond Lefevre et son grand orchestre [Japanese Limited Mini LP SHM-CD] (by Skimble)\VICP-70123 - 1974 - Raymond Lefevre et son grand orchestre #19\Raymond Lefevre - #19.wav

Peak level 97.9 %
Extraction speed 1.8 X
Range quality 100.0 %
Test CRC 84443CE2
Copy CRC 84443CE2
Copy OK

No errors occurred

End of status report

==== Log checksum 481B70AE74824F5C73A2001BBC97453F8710F764AA8CB1552EE51B8A8670AA44 ====




Raymond Lefevre - Albums Collection 1965-1976 (11CD) Japanese Limited Mini LP, SHM-CD [Re-Up]

Raymond Lefèvre et son grand orchestre №21 (1976)
EAC | FLAC | Image (Cue&Log) ~ 279 Mb (incl 5%) | Mp3 (CBR320) ~ 107 Mb (incl 5%) | Scans ~ 116 Mb
Label: Victor | # VICP-70125 | Time: 00:44:39


Tracklist:

01. J'attendrai (02:49)
02. Je t'aime tu vois (03:05)
03. Viens faire un tour (03:14)
04. Histoire d'O (03:38)
05. Les quatre saisons (Le printemps) (03:15)
06. A quoi sert de vivre libre? (03:34)
07. Et mon pere (02:19)
08. Le France (03:05)
09. Emmanuelle 2 - L'amour d'aimer (03:04)
10. Ile de re (03:49)
11. Mais c'etait hier (03:19)
12. Du cote de chez Swann (02:50)
13. Tornero (03:17)
14. There's a Kind of Hush (03:16)


Exact Audio Copy V1.0 beta 3 from 29. August 2011

EAC extraction logfile from 1. July 2012, 17:38

Raymond Lefevre / Raymond Lefevre et son grand orchestre No.21 (VICP-70125)

Used drive : TSSTcorpCDDVDW TS-L633C Adapter: 2 ID: 0

Read mode : Secure
Utilize accurate stream : Yes
Defeat audio cache : Yes
Make use of C2 pointers : No

Read offset correction : 6
Overread into Lead-In and Lead-Out : No
Fill up missing offset samples with silence : Yes
Delete leading and trailing silent blocks : No
Null samples used in CRC calculations : Yes
Used interface : Native Win32 interface for Win NT & 2000

Used output format : Internal WAV Routines
Sample format : 44.100 Hz; 16 Bit; Stereo


TOC of the extracted CD

Track | Start | Length | Start sector | End sector
––––––––––––––––––––––––––––-
1 | 0:00.00 | 2:49.32 | 0 | 12706
2 | 2:49.32 | 3:05.51 | 12707 | 26632
3 | 5:55.08 | 3:14.26 | 26633 | 41208
4 | 9:09.34 | 3:38.61 | 41209 | 57619
5 | 12:48.20 | 3:15.19 | 57620 | 72263
6 | 16:03.39 | 3:34.69 | 72264 | 88382
7 | 19:38.33 | 2:19.29 | 88383 | 98836
8 | 21:57.62 | 3:05.42 | 98837 | 112753
9 | 25:03.29 | 3:04.07 | 112754 | 126560
10 | 28:07.36 | 3:49.19 | 126561 | 143754
11 | 31:56.55 | 3:19.11 | 143755 | 158690
12 | 35:15.66 | 2:50.18 | 158691 | 171458
13 | 38:06.09 | 3:17.31 | 171459 | 186264
14 | 41:23.40 | 3:16.23 | 186265 | 200987


Range status and errors

Selected range

Filename C:\Users\user\Desktop\Raymond Lefevre - Raymond Lefevre et son grand orchestre No.21 (VICP-70125).wav

Peak level 97.9 %
Extraction speed 3.5 X
Range quality 100.0 %
Test CRC 526152CC
Copy CRC 526152CC
Copy OK

No errors occurred


AccurateRip summary

Track 1 not present in database
Track 2 not present in database
Track 3 not present in database
Track 4 not present in database
Track 5 not present in database
Track 6 not present in database
Track 7 not present in database
Track 8 not present in database
Track 9 not present in database
Track 10 not present in database
Track 11 not present in database
Track 12 not present in database
Track 13 not present in database
Track 14 not present in database

None of the tracks are present in the AccurateRip database

End of status report




Raymond Lefevre - Albums Collection 1965-1976 (11CD) Japanese Limited Mini LP, SHM-CD [Re-Up]

Raymond Lefèvre - Les plus Grands Succes '76 (1976)
EAC | FLAC | Image (Cue&Log) ~ 298 Mb (incl 5%) | Mp3 (CBR320) ~ 131 Mb (incl 5%) | Scans included
Label: Victor | # VICP-70126 | Time: 00:43:37


Tracklist:

01. Porque Te Va (03:02)
02. Je Vais T'aimer (03:50)
03. Qu'est-ce Qui Fait Pleurer Les Blondes? (02:34)
04. Je T'aime, Tu Vois (03:06)
05. Save Your Kisses For Me (02:46)
06. Le Concerto De La Mer (03:36)
07. Derriere L'amour (03:24)
08. Avant De Nous Dire Adieu (03:29)
09. Et Mon Pere (02:19)
10. Ca Va Pas Changer Le Monde (03:27)
11. Le France (03:06)
12. Charlie Brown (02:43)
13. Eux (02:45)
14. La Reine De Saba (03:22)


Exact Audio Copy V1.0 beta 3 from 29. August 2011

EAC extraction logfile from 5. August 2012, 6:38

Raymond Lefevre / Les Plus Grands Sucess '76

Used drive : Optiarc DVD RW AD-5260S Adapter: 3 ID: 3

Read mode : Secure
Utilize accurate stream : Yes
Defeat audio cache : Yes
Make use of C2 pointers : No

Read offset correction : 48
Overread into Lead-In and Lead-Out : No
Fill up missing offset samples with silence : Yes
Delete leading and trailing silent blocks : No
Null samples used in CRC calculations : Yes
Used interface : Native Win32 interface for Win NT & 2000

Used output format : User Defined Encoder
Selected bitrate : 768 kBit/s
Quality : High
Add ID3 tag : Yes
Command line compressor : C:\Program Files (x86)\Exact Audio Copy\FLAC\FLAC.EXE
Additional command line options : -8 -V %source%


TOC of the extracted CD

Track | Start | Length | Start sector | End sector
––––––––––––––––––––––––––––-
1 | 0:00.00 | 3:02.31 | 0 | 13680
2 | 3:02.31 | 3:50.71 | 13681 | 31001
3 | 6:53.27 | 2:34.12 | 31002 | 42563
4 | 9:27.39 | 3:06.59 | 42564 | 56572
5 | 12:34.23 | 2:46.06 | 56573 | 69028
6 | 15:20.29 | 3:36.55 | 69029 | 85283
7 | 18:57.09 | 3:24.73 | 85284 | 100656
8 | 22:22.07 | 3:29.33 | 100657 | 116364
9 | 25:51.40 | 2:19.71 | 116365 | 126860
10 | 28:11.36 | 3:27.54 | 126861 | 142439
11 | 31:39.15 | 3:06.50 | 142440 | 156439
12 | 34:45.65 | 2:43.70 | 156440 | 168734
13 | 37:29.60 | 2:45.48 | 168735 | 181157
14 | 40:15.33 | 3:22.38 | 181158 | 196345


Range status and errors

Selected range

Filename H:\My Documents\Моя музыка\Raymond Lefevre\Raymond Lefevre et son grand orchestre [Japanese Limited Mini LP SHM-CD] (by Skimble)\VICP-70126 - 1976 - Raymond Lefevre - Les plus Grands Succes '76\Raymond Lefevre - Les Plus Grands Sucess '76.wav

Peak level 97.9 %
Extraction speed 1.9 X
Range quality 100.0 %
Test CRC 9DB3076B
Copy CRC 9DB3076B
Copy OK

No errors occurred

End of status report

==== Log checksum 7BEE515E81DA47D55FD921FF2A8C5B73EB60E362604666ED93175A8F7E06CFB1 ====




All thanks to original releasers - Skimble & italia57

More interesting music in My Blog