Rameau - Les Indes Galantes (William Christie, Les Arts Florissants) [1991]

Posted By: Sowulo
Rameau - Les Indes Galantes (William Christie, Les Arts Florissants) [1991]

Rameau - Les Indes Galantes (William Christie, Les Arts Florissants) [1991]
Classical | EAC Rip | FLAC, IMG+CUE, LOG | Covers | 922.15 MB
Label: Harmonia Mundi | Catalog Number: HMC901367.69 | CD1:73’16; CD2:72’45; CD3:47’06

After a rather uninspired prologue as opening section according to Lully's five-part tradition, Rameau's ballet opera offers four different stories, each set in a different exotic locale. We get some idea of how Frenchmen conceived of the non-European world in the 1730s. The first story, "The Noble Turk," falls in line with Montesquieu's Persian Letters (1721) by suggesting that good character is more important than religious differences. This theme, alien to my own viewpoint and synonymous with the Enlightenment, led to an ideal of the Brotherhood of Man that dominated idealistic thinking for two centuries to come. The most remarkable of the four stories is the second, set in Peru at the time of the Spanish Conquest of the 1530s. A conquistador wins out as a love rival over a native priest of the Sun. This scene includes a striking hymn to the Sun and a musical volcanic eruption of the sort that offended traditional devotees of Lully's style. Actually Rameau's basic style adheres pretty closely to Lully's. These two composers, together, define French Baroque opera. As a ballet opera, Les Indes galantes presents as much instrumental music as singing. By John D. Pilkey
Performer:
Hébé, Zima - Claron McFadden
Zaïre - Sandrine Piau
L’Amour, Phani - Isabelle Poulenard
Fatime - Noémi Rime
Émilie - Miriam Ruggeri
Valère, Damon - Howard Crook
Don Carlos, Tacmas - Jean-Paul Fouchécourt
Bellone, Ali - Jérôme Corréas
Huascar, Don Alvar – Bernard Delétré
Osman, Asario - Nicolas Rivenq
Les Arts Florissants
Conductor - William Christie

Tracklisting:
CD1
01. Prologue. Ouverture
02. Scène 1. Air: Vous, qui d'Hébé
03. Scène 2. Entrée des 4 nations
04. Air: Amants sûrs de plaire
05. Air grave pour les Polonais
06. Menuets I & II
07. Air et Chœur: Musettes, résonnez
08. Scène 3. Air: La Gloire vous appelle
09. Air pour les deux guerriers portant des drapeaux
10. Air pour les amants qui suivent Bellone
11. Scène 4. Hébé et sa suite
12. Scène 5. Air pour les Amours
13. Duo et Chœur: Traversez les plus vastes mers
14. Premiere Entrée. Le turs généreux. Scène 1. Émilie, Osman
15. Scène 2. Émilie. Air: Vaste empire des mers
16. Émilie: D'infortunés captifs
17. Scène 4. Émilie, Valère, Osman
18. Scène 6. Émilie, Valère, Provençaux, Esclaves africains
19. Air pour les esclaves africains
20. Ariette: Hâtez-vous
21. Ariette: Régnez, Amours
22. Rigaudons I & II
23. Tambourins I & II/Émilie et Chœur: Partez
CD2
01. Deuxième Entrée. Les Incas du Pérou. Scène 1. Phani, Carlos
02. Scène 2. Air: Viens, Hymen
03. Scène 3. Phani, Huascar
04. Air: Soleil, on a détruit
05. Prélude pour l'adoration du Soleil
06. Air et Chœur: Brillant Soleil
07. Air des Incas
08. Air et Chœur: Clair flambeau
09. Loure en rondeau
10. Air: Permettez, astre
11. Première Gavotte. Deuxième Gavotte en rondeau
12. Tremblement de terre/Chœur: Dans les abîmes
13. Scène 6. Huascar, Phani. Air: Ici, je vois partout
14. Troisieme Entrée. Les Fleurs, Fête Persane. Scène 1. Tacmas, Ali.
15. Scène 3. Zaïre. Air: Amour, quand du destin
16. Scène 4. Zaïre, Tacmas. Duo: Doit-on aimer
17. Quatuor: Tendre Amour
18. Scène 8. Marche pour la fête des fleurs
19. Air: L'éclat des roses
20. Air et Chœur: Triomphez, agréables fleurs
21. Airs pour les Persans I & II
22. Air: Papillon inconstant
CD3
01. Ballet des Fleurs
02. Airs pour Zéphire I & II
03. Nouvelle Entrée. Les Sauvages. Scène 1. Adario
04. Scène 2. Damon, Don Alvar, Adario
05. Air: La terre, les cieux et les mers
06. Air: L'habitant des bords de la Seine
07. Prélude, qui annonce la fête
08. Air: Sur nos bords l'amour vole
09. Scène 6. Air et Chœur: Bannissons les tristes alarmes
10. Danse du Grand Calumet de la Paix (Danse des Sauvages)
11. Duo et Chœur: Forêts paisibles
12. Premier Menuet pour les Guerriers et les Amazones
13. Prélude/Air: Régnez, Plaisirs et Jeux
14. Chaconne

Exact Audio Copy V1.0 beta 3 from 29. August 2011

EAC extraction logfile from 9. November 2013, 17:14

William Christie, Les Arts Florissants / Rameau - Les Indes Galantes CD1

Used drive : PIONEER DVD-RW DVR-218L Adapter: 0 ID: 1

Read mode : Secure
Utilize accurate stream : Yes
Defeat audio cache : Yes
Make use of C2 pointers : No

Read offset correction : 6
Overread into Lead-In and Lead-Out : No
Fill up missing offset samples with silence : Yes
Delete leading and trailing silent blocks : No
Null samples used in CRC calculations : Yes
Used interface : Native Win32 interface for Win NT & 2000

Used output format : User Defined Encoder
Selected bitrate : 128 kBit/s
Quality : High
Add ID3 tag : No
Command line compressor : C:\Program Files\Exact Audio Copy\Flac\flac.exe
Additional command line options : -V -8 -T "Date=%year%" -T "Genre=%genre%" %source%


TOC of the extracted CD

Track | Start | Length | Start sector | End sector
––––––––––––––––––––––––––––-
1 | 0:00.00 | 4:20.20 | 0 | 19519
2 | 4:20.20 | 3:45.65 | 19520 | 36459
3 | 8:06.10 | 2:25.35 | 36460 | 47369
4 | 10:31.45 | 3:24.60 | 47370 | 62729
5 | 13:56.30 | 1:54.00 | 62730 | 71279
6 | 15:50.30 | 2:12.40 | 71280 | 81219
7 | 18:02.70 | 3:38.60 | 81220 | 97629
8 | 21:41.55 | 2:16.00 | 97630 | 107829
9 | 23:57.55 | 1:41.25 | 107830 | 115429
10 | 25:39.05 | 1:36.60 | 115430 | 122689
11 | 27:15.65 | 4:52.20 | 122690 | 144609
12 | 32:08.10 | 1:01.65 | 144610 | 149249
13 | 33:10.00 | 3:58.40 | 149250 | 167139
14 | 37:08.40 | 6:44.10 | 167140 | 197449
15 | 43:52.50 | 4:27.25 | 197450 | 217499
16 | 48:20.00 | 3:16.10 | 217500 | 232209
17 | 51:36.10 | 3:49.55 | 232210 | 249439
18 | 55:25.65 | 5:27.05 | 249440 | 273969
19 | 60:52.70 | 2:20.00 | 273970 | 284469
20 | 63:12.70 | 2:17.25 | 284470 | 294769
21 | 65:30.20 | 3:11.35 | 294770 | 309129
22 | 68:41.55 | 2:18.00 | 309130 | 319479
23 | 70:59.55 | 2:14.70 | 319480 | 329599


Range status and errors

Selected range

Filename C:\Rameau - Les Indes Galantes CD1.wav

Peak level 98.6 %
Extraction speed 2.0 X
Range quality 99.9 %
Test CRC 3B1AA002
Copy CRC 3B1AA002
Copy OK

No errors occurred

End of status report

==== Log checksum 475B44F75DFD1038FEB431FCEFF774C34ADE0944A101D236BA01596D33EF43B1 ====

Exact Audio Copy V1.0 beta 3 from 29. August 2011

EAC extraction logfile from 10. November 2013, 13:55

William Christie, Les Arts Florissants / Rameau - Les Indes Galantes CD2

Used drive : PIONEER DVD-RW DVR-218L Adapter: 0 ID: 1

Read mode : Secure
Utilize accurate stream : Yes
Defeat audio cache : Yes
Make use of C2 pointers : No

Read offset correction : 6
Overread into Lead-In and Lead-Out : No
Fill up missing offset samples with silence : Yes
Delete leading and trailing silent blocks : No
Null samples used in CRC calculations : Yes
Used interface : Native Win32 interface for Win NT & 2000

Used output format : User Defined Encoder
Selected bitrate : 128 kBit/s
Quality : High
Add ID3 tag : No
Command line compressor : C:\Program Files\Exact Audio Copy\Flac\flac.exe
Additional command line options : -V -8 -T "Date=%year%" -T "Genre=%genre%" %source%


TOC of the extracted CD

Track | Start | Length | Start sector | End sector
––––––––––––––––––––––––––––-
1 | 0:00.00 | 4:11.55 | 0 | 18879
2 | 4:11.55 | 3:11.35 | 18880 | 33239
3 | 7:23.15 | 4:11.05 | 33240 | 52069
4 | 11:34.20 | 2:19.65 | 52070 | 62559
5 | 13:54.10 | 1:29.05 | 62560 | 69239
6 | 15:23.15 | 3:28.20 | 69240 | 84859
7 | 18:51.35 | 1:28.10 | 84860 | 91469
8 | 20:19.45 | 3:52.60 | 91470 | 108929
9 | 24:12.30 | 1:30.70 | 108930 | 115749
10 | 25:43.25 | 1:52.40 | 115750 | 124189
11 | 27:35.65 | 1:58.40 | 124190 | 133079
12 | 29:34.30 | 1:58.10 | 133080 | 141939
13 | 31:32.40 | 6:00.00 | 141940 | 168939
14 | 37:32.40 | 5:01.65 | 168940 | 191579
15 | 42:34.30 | 4:18.30 | 191580 | 210959
16 | 46:52.60 | 8:55.55 | 210960 | 251139
17 | 55:48.40 | 2:23.65 | 251140 | 261929
18 | 58:12.30 | 4:35.65 | 261930 | 282619
19 | 62:48.20 | 0:59.45 | 282620 | 287089
20 | 63:47.65 | 2:35.55 | 287090 | 298769
21 | 66:23.45 | 2:34.50 | 298770 | 310369
22 | 68:58.20 | 3:45.45 | 310370 | 327289


Range status and errors

Selected range

Filename C:\Rameau - Les Indes Galantes CD2.wav

Peak level 100.0 %
Extraction speed 2.0 X
Range quality 100.0 %
Test CRC 87E1D68B
Copy CRC 87E1D68B
Copy OK

No errors occurred

End of status report

==== Log checksum F16518E3C2A08EFE36D035A61640542EDD8827FD9C6A1FB94BE6EC80BECCDECA ====

Exact Audio Copy V1.0 beta 3 from 29. August 2011

EAC extraction logfile from 10. November 2013, 15:02

William Christie, Les Arts Florissants / Rameau - Les Indes Galantes CD3

Used drive : PIONEER DVD-RW DVR-218L Adapter: 0 ID: 1

Read mode : Secure
Utilize accurate stream : Yes
Defeat audio cache : Yes
Make use of C2 pointers : No

Read offset correction : 6
Overread into Lead-In and Lead-Out : No
Fill up missing offset samples with silence : Yes
Delete leading and trailing silent blocks : No
Null samples used in CRC calculations : Yes
Used interface : Native Win32 interface for Win NT & 2000

Used output format : User Defined Encoder
Selected bitrate : 128 kBit/s
Quality : High
Add ID3 tag : No
Command line compressor : C:\Program Files\Exact Audio Copy\Flac\flac.exe
Additional command line options : -V -8 -T "Date=%year%" -T "Genre=%genre%" %source%


TOC of the extracted CD

Track | Start | Length | Start sector | End sector
––––––––––––––––––––––––––––-
1 | 0:00.00 | 5:21.65 | 0 | 24139
2 | 5:21.65 | 6:58.70 | 24140 | 55559
3 | 12:20.60 | 2:58.70 | 55560 | 68979
4 | 15:19.55 | 3:41.25 | 68980 | 85579
5 | 19:01.05 | 2:21.25 | 85580 | 96179
6 | 21:22.30 | 2:40.30 | 96180 | 108209
7 | 24:02.60 | 2:02.10 | 108210 | 117369
8 | 26:04.70 | 3:03.05 | 117370 | 131099
9 | 29:08.00 | 2:30.70 | 131100 | 142419
10 | 31:38.70 | 2:01.45 | 142420 | 151539
11 | 33:40.40 | 2:30.70 | 151540 | 162859
12 | 36:11.35 | 1:46.10 | 162860 | 170819
13 | 37:57.45 | 3:16.00 | 170820 | 185519
14 | 41:13.45 | 5:51.25 | 185520 | 211869


Range status and errors

Selected range

Filename C:\Rameau - Les Indes Galantes CD3.wav

Peak level 95.6 %
Extraction speed 1.7 X
Range quality 100.0 %
Test CRC A993FF7B
Copy CRC A993FF7B
Copy OK

No errors occurred

End of status report

==== Log checksum CEB885AD5EA9C982FECD60E8AE6D2B121BA2CA129C3499470DDE828A4C5C27F0 ====