Subcategories

Rachmaninov: The Piano Concertos - Lisitsa, Francis, LSO (2013)

Posted By: peotuvave
Rachmaninov: The Piano Concertos - Lisitsa, Francis, LSO (2013)

Rachmaninov: The Piano Concertos - Lisitsa, Francis, LSO (2013)
EAC Rip | Flac (Tracks + cue + log) | 2 CDs | Full Scans | 618 MB
Genre: Classical | Label: Decca | Catalog Number: 001811702

Very much an artist of the twenty-first century, Ukranian-born Lisitsa secured a vast global audience purely through social media. She quickly became one of the most viewed pianists on YouTube with over fifty million million visitors to her videos. Lisitsa has recorded all four Rachmaninov piano concertos and the Paganini Rhapsody with the London Symphony Orchestra and Michael Francis.

Lisitsa describes the recording as “arguably the most ambitious piano-orchestra project a pianist can undertake in a lifetime. The sheer variety of emotions and styles touched upon is encyclopaedic.”

Composer: Sergei Rachmaninov
Performer: Valentina Lisitsa
Conductor: Michael Francis
Orchestra/Ensemble: London Symphony Orchestra

Reviews: Ukrainian-born Valentina Lisitsa really is a child of our time; despite a promising start to her playing career circumstances conspired to force a premature retirement from the concert platform. However, she was dissuaded from such a precipitate move and posted her first YouTube video in 2007; the rest, as they say, is history. She’s new to me - I’d not seen her video of the Chopin Études, which did remarkably well when it appeared online - and all the publicity suggested that her Rachmaninov would be rather special too.

There are several high-profile sets of the Rachmaninov concertos and the Paganini Rhapsody, among them the Earl Wild/Jascha Horenstein/RPO box from the 1960s (Cha ndos), Vladimir Ashkenazy and André Previn’s from the 1970s (Decca) and, much more recently, Leif Ove Andsnes and Antonio Pappano’s cycle (EMI) and Stephen Hough’s Andrew Litton/Dallas Symphony series (Hyperion). Ashkenazy and Lisitsa have the benefit of the LSO in good form - the Andsnes set is split between the LSO and the Berlin Philharmonic - with generally decent recordings to match.

Returning to the Wild accounts after some years I was reminded of how testosterone-charged they are. These recordings - big, bold and very forwardly balanced - have not worn well; some may find this an exciting and tempestuous partnership but there’s a relentlessness here that’s very fatiguing after a while. By contrast the Hough/Litton recordings are soft-grained and the playing and sonics are more appealing in their mix of poetry and power. Ditto Andsnes and Pappano. That said, neither is an unequivocal success, which isn’t that surprising as ‘complete’ traversals seldom are.

With such caveats in mind Yevgeny Sudbin’s BIS recording of the first concerto with Lan Shui and the Singapore Symphony Orchestra strikes a very good balance between energy and insight; this has all the makings of a compelling and consistent set, which I hope will emerge with more alacrity than Noriko Ogawa’s did. Her Rachmaninov has had a mixed reception, as suggested by Chris Howell’s lukewarm response to Nos. 1, 4 and the Paganini Rhapsody. No doubt listeners will have preferred versions of individual works - Michelangeli’s No. 4, for instance - and I always tend towards the mix-and-match approach rather than the one-set solution. That said, the latter are often keenly priced, so one or two disappointments won’t necessarily be a deal-breaker.

First impressions of the Lisitsa set are favourable. Some may find the opening to the Piano Concerto No. 1 a tad self-effacing, but it soon becomes clear that Lisitsa’s is a reading of unusual sensitivity and charm. Conductor Michael Francis and the LSO certainly provide thrilling weight and emphasis as the work progresses, which only underlines this pianist’s intensely poetic utterances. What pleases me most is that there’s no sign of self-aggrandising virtuosity here; indeed, there’s a lightness and spontaneity to her playing that’s matched at every turn by luminous sounds from the LSO. The Andante had me holding my breath, such are its moments of transporting loveliness, and the warm, velvety recording - made in the legendary Studio No. 1 at Abbey Road - is very seductive too.

What a heart-melting performance of the first concerto this is; surely it would it be tempting fate to expect the same from its partner on CD 1, the rhapsodic third? Well, I’m delighted to report that Lisitsa’s control of rhythm, touch and phrasing in Piano Concerto No. 3 is just as miraculous, and the liquid Allegro ma non tanto races, swirls and eddies with the best of them. The LSO are pin-sharp in their responses and there’s a powerful sense of the players sitting in rapt attention during the solos. Lisitsa’s is not a big, muscular sound but it is a lithe, well-toned one, and she lights up this most familiar concerto in ways I scarcely thought possible.

Francis is a sympathetic and supple partner in this ravishing enterprise, and his control of tempi and dynamics are well judged at all times. The dreamily effusive Intermezzo is so economically done, and what some may regard as an air of containment - too much reserve, perhaps - just adds to the delicious inner tension of this performance. I’ve rarely heard these music-box moments dance with such light steps, or the sections segue so seamlessly. Again, some may find the Finale too reticent, but what it lacks in sheer breadth it more than makes up for in beguiling shape, detail and colour.

The second disc opens with a sonorous and imposing account of the Piano Concerto No. 2. There’s no shortage of sweep, and the free-flowing elements at the heart of the first movements are most persuasively presented. That said, Lisitsa rises magnificently to the challenge of the noisier passages, the quieter ones a telling counterpoint to what’s gone before. It’s a measure of this pianist’s magnetic presence that the sense of being in a concert hall, of witnessing a live event, is so palpable, not least in that yearning, oh-so-songful Adagio sostenuto. The LSO strings play like angels here, and the dialogue between soloist and orchestra is finely poised throughout.

Any reservations? Perhaps one or two of those Brahmsian horn entries could be tidier and the pulse, which often falters in this central movement, is steady if not always strong. The same could be said of the Allegro scherzando, although Lisitsa’s lyrical gifts are never in doubt. Tuttis are suitably forceful but never overbearing and Francis keeps the orchestra on a tight rein; as for Lisitsa she rhapsodises but rarely rambles, and the concerto ends with all the brio one could wish.

The mercurial Fourth Concerto gets a decent if not entirely memorable reading, and the LSO provide plenty of punch when required. Occasionally one senses a worrying loss of focus - the soloist is apt to wander and the hitherto crisp sound is rather congested at times - and for once I found myself thinking Lisitsa and Francis could do much better than this. Still, it’s not a bad performance, just not as caught-on-the-wing-wonderful as Nos. 1, 3 and, to a large extent, No. 2. As for the Paganini Rhapsody it’s a major disappointment; it’s not as sharply drawn as the best, or as warmly recorded, and all too often I longed for more colour and contrast.

Lisitsa really shines in the first and third concertos and the second is pretty impressive too, but for some reason the remaining works - perhaps more opaque than the others - just don’t respond as readily to her innately lyrical approach. Inexplicably the sound isn’t consistent either; indeed, the Rhapsody is very bright in the treble and any sense of presence seems to have evaporated entirely. No: real joy resides in the first disc, in which we encounter a composer of rare tenderness and vulnerability, of great passion bridled only to gallop away in those glorious tuttis.

I had started to think that if anyone could rescue these warhorses from the knacker’s yard it would be Lisitsa. Perhaps that was asking too much - older, more experienced pianists haven’t managed that either - but I’d snap up this twofer for the revelatory first disc alone. Now if the second had lived up to that initial promise Lisitsa would be in very exalted company indeed.

Lisitsa’s is a delightful and engaging talent; I predict great things for her.

Tracklisting:

1. Rhapsody on a theme of Paganini, Op. 43 by Sergei Rachmaninov
Performer: Valentina Lisitsa (Piano)
Conductor: Michael Francis
Orchestra/Ensemble: London Symphony Orchestra
Period: Romantic
Written: 1934; USA

2. Concerto for Piano no 4 in G minor, Op. 40 by Sergei Rachmaninov
Performer: Valentina Lisitsa (Piano)
Conductor: Michael Francis
Orchestra/Ensemble: London Symphony Orchestra
Period: Romantic
Written: 1926/1941; USA

3. Concerto for Piano no 3 in D minor, Op. 30 by Sergei Rachmaninov
Performer: Valentina Lisitsa (Piano)
Conductor: Michael Francis
Orchestra/Ensemble: London Symphony Orchestra
Period: Romantic
Written: 1909; Russia

4. Concerto for Piano no 2 in C minor, Op. 18 by Sergei Rachmaninov
Performer: Valentina Lisitsa (Piano)
Conductor: Michael Francis
Orchestra/Ensemble: London Symphony Orchestra
Period: Romantic
Written: Russia

5. Concerto for Piano no 1 in F sharp minor, Op. 1 by Sergei Rachmaninov
Performer: Valentina Lisitsa (Piano)
Conductor: Michael Francis
Orchestra/Ensemble: London Symphony Orchestra
Period: Romantic
Written: 1891/1917; Russia

Exact Audio Copy V1.0 beta 3 from 29. August 2011

EAC extraction logfile from 4. April 2013, 21:15

Valentina Lisitsa / Rachmaninov: The Piano Concertos, Paganini Rhapsody - Disc 1

Used drive : PIONEER BD-RW BDR-208M Adapter: 1 ID: 0

Read mode : Secure
Utilize accurate stream : Yes
Defeat audio cache : Yes
Make use of C2 pointers : No

Read offset correction : 667
Overread into Lead-In and Lead-Out : No
Fill up missing offset samples with silence : Yes
Delete leading and trailing silent blocks : No
Null samples used in CRC calculations : Yes
Used interface : Native Win32 interface for Win NT & 2000
Gap handling : Appended to previous track

Used output format : User Defined Encoder
Selected bitrate : 1024 kBit/s
Quality : High
Add ID3 tag : No
Command line compressor : C:\Program Files (x86)\Exact Audio Copy\Flac\flac.exe
Additional command line options : -8 -V -T "ARTIST=%artist%" -T "TITLE=%title%" -T "ALBUM=%albumtitle%" -T "DATE=%year%" -T "TRACKNUMBER=%tracknr%" -T "GENRE=%genre%" -T "PERFORMER=%albuminterpret%" -T "COMPOSER=%composer%" %haslyrics%–tag-from-file=LYRICS="%lyricsfile%"%haslyrics% -T "ALBUMARTIST=%albumartist%" -T "DISCNUMBER=%cdnumber%" -T "TOTALDISCS=%totalcds%" -T "TOTALTRACKS=%numtracks%" -T "COMMENT=%comment%" %source% -o %dest%


TOC of the extracted CD

Track | Start | Length | Start sector | End sector
––––––––––––––––––––––––––––-
1 | 0:00.00 | 12:52.17 | 0 | 57916
2 | 12:52.17 | 5:54.47 | 57917 | 84513
3 | 18:46.64 | 7:27.32 | 84514 | 118070
4 | 26:14.21 | 15:30.48 | 118071 | 187868
5 | 41:44.69 | 10:26.42 | 187869 | 234860
6 | 52:11.36 | 13:31.12 | 234861 | 295697


Track 1

Filename D:\Rips\Valentina Lisitsa - Rachmaninov (2013) [FLAC]\Disc 1\01 - Piano Concerto No. 1 in F sharp minor, Op. 1 - I. Vivace.wav

Pre-gap length 0:00:02.00

Peak level 98.0 %
Extraction speed 5.5 X
Track quality 99.9 %
Test CRC AA947AB6
Copy CRC AA947AB6
Track not present in AccurateRip database
Copy OK

Track 2

Filename D:\Rips\Valentina Lisitsa - Rachmaninov (2013) [FLAC]\Disc 1\02 - Piano Concerto No. 1 in F sharp minor, Op. 1 - II. Andante.wav

Peak level 64.8 %
Extraction speed 6.2 X
Track quality 100.0 %
Test CRC B3652A27
Copy CRC B3652A27
Track not present in AccurateRip database
Copy OK

Track 3

Filename D:\Rips\Valentina Lisitsa - Rachmaninov (2013) [FLAC]\Disc 1\03 - Piano Concerto No. 1 in F sharp minor, Op. 1 - III. Allegro vivace.wav

Peak level 98.0 %
Extraction speed 6.9 X
Track quality 100.0 %
Test CRC 4F25663F
Copy CRC 4F25663F
Track not present in AccurateRip database
Copy OK

Track 4

Filename D:\Rips\Valentina Lisitsa - Rachmaninov (2013) [FLAC]\Disc 1\04 - Piano Concerto No. 3 in D minor, Op. 30 - I. Allegro ma non tanto.wav

Peak level 99.4 %
Extraction speed 7.9 X
Track quality 100.0 %
Test CRC 823A68CB
Copy CRC 823A68CB
Track not present in AccurateRip database
Copy OK

Track 5

Filename D:\Rips\Valentina Lisitsa - Rachmaninov (2013) [FLAC]\Disc 1\05 - Piano Concerto No. 3 in D minor, Op. 30 - II. Intermezzo- Adagio.wav

Peak level 99.4 %
Extraction speed 8.4 X
Track quality 100.0 %
Test CRC 89F400C5
Copy CRC 89F400C5
Track not present in AccurateRip database
Copy OK

Track 6

Filename D:\Rips\Valentina Lisitsa - Rachmaninov (2013) [FLAC]\Disc 1\06 - Piano Concerto No. 3 in D minor, Op. 30 - III. Finale (Alla breve).wav

Peak level 99.5 %
Extraction speed 9.1 X
Track quality 100.0 %
Test CRC 24D5A208
Copy CRC 24D5A208
Track not present in AccurateRip database
Copy OK


None of the tracks are present in the AccurateRip database

No errors occurred

End of status report

–– CUETools DB Plugin V2.1.3

[CTDB TOCID: pb78WZ4e69mRybJtpk5GbefAeJ4-] disk not present in database, Submit result: pb78WZ4e69mRybJtpk5GbefAeJ4- has been uploaded


==== Log checksum B6C4BD3DA04A7B762A8FBE447CA26D27FFAD3FBC77A4286BCE57A96E6DC6D98C ====

Exact Audio Copy V1.0 beta 3 from 29. August 2011

EAC extraction logfile from 4. April 2013, 22:01

Valentina Lisitsa / Rachmaninov: The Piano Concertos; Paganini Rhapsody - Disc 2

Used drive : PIONEER BD-RW BDR-208M Adapter: 1 ID: 0

Read mode : Secure
Utilize accurate stream : Yes
Defeat audio cache : Yes
Make use of C2 pointers : No

Read offset correction : 667
Overread into Lead-In and Lead-Out : No
Fill up missing offset samples with silence : Yes
Delete leading and trailing silent blocks : No
Null samples used in CRC calculations : Yes
Used interface : Native Win32 interface for Win NT & 2000
Gap handling : Appended to previous track

Used output format : User Defined Encoder
Selected bitrate : 1024 kBit/s
Quality : High
Add ID3 tag : No
Command line compressor : C:\Program Files (x86)\Exact Audio Copy\Flac\flac.exe
Additional command line options : -8 -V -T "ARTIST=%artist%" -T "TITLE=%title%" -T "ALBUM=%albumtitle%" -T "DATE=%year%" -T "TRACKNUMBER=%tracknr%" -T "GENRE=%genre%" -T "PERFORMER=%albuminterpret%" -T "COMPOSER=%composer%" %haslyrics%–tag-from-file=LYRICS="%lyricsfile%"%haslyrics% -T "ALBUMARTIST=%albumartist%" -T "DISCNUMBER=%cdnumber%" -T "TOTALDISCS=%totalcds%" -T "TOTALTRACKS=%numtracks%" -T "COMMENT=%comment%" %source% -o %dest%


TOC of the extracted CD

Track | Start | Length | Start sector | End sector
––––––––––––––––––––––––––––-
1 | 0:00.00 | 10:16.48 | 0 | 46247
2 | 10:16.48 | 10:44.13 | 46248 | 94560
3 | 21:00.61 | 11:44.69 | 94561 | 147429
4 | 32:45.55 | 9:32.44 | 147430 | 190373
5 | 42:18.24 | 6:18.29 | 190374 | 218752
6 | 48:36.53 | 8:57.57 | 218753 | 259084
7 | 57:34.35 | 0:27.01 | 259085 | 261110
8 | 58:01.36 | 0:18.45 | 261111 | 262505
9 | 58:20.06 | 0:19.33 | 262506 | 263963
10 | 58:39.39 | 0:25.25 | 263964 | 265863
11 | 59:04.64 | 0:29.03 | 265864 | 268041
12 | 59:33.67 | 0:27.64 | 268042 | 270130
13 | 60:01.56 | 0:57.50 | 270131 | 274455
14 | 60:59.31 | 1:07.19 | 274456 | 279499
15 | 62:06.50 | 0:33.66 | 279500 | 282040
16 | 62:40.41 | 0:31.70 | 282041 | 284435
17 | 63:12.36 | 0:53.60 | 284436 | 288470
18 | 64:06.21 | 1:22.32 | 288471 | 294652
19 | 65:28.53 | 1:22.29 | 294653 | 300831
20 | 66:51.07 | 0:28.63 | 300832 | 302994
21 | 67:19.70 | 0:43.01 | 302995 | 306220
22 | 68:02.71 | 1:04.25 | 306221 | 311045
23 | 69:07.21 | 1:35.22 | 311046 | 318192
24 | 70:42.43 | 1:42.36 | 318193 | 325878
25 | 72:25.04 | 2:50.45 | 325879 | 338673
26 | 75:15.49 | 0:27.03 | 338674 | 340701
27 | 75:42.52 | 0:36.10 | 340702 | 343411
28 | 76:18.62 | 0:24.48 | 343412 | 345259
29 | 76:43.35 | 1:33.25 | 345260 | 352259
30 | 78:16.60 | 0:48.54 | 352260 | 355913
31 | 79:05.39 | 1:14.37 | 355914 | 361500


Track 1

Filename D:\Rips\Valentina Lisitsa - Rachmaninov (2013) [FLAC]\Disc 2\01 - Piano Concerto No.2 in C minor, Op. 18 - I. Moderato.wav

Pre-gap length 0:00:02.00

Peak level 99.4 %
Extraction speed 5.5 X
Track quality 100.0 %
Test CRC 165EB2F1
Copy CRC 165EB2F1
Track not present in AccurateRip database
Copy OK

Track 2

Filename D:\Rips\Valentina Lisitsa - Rachmaninov (2013) [FLAC]\Disc 2\02 - Piano Concerto No.2 in C minor, Op .18 - II. Adagio sostenuto.wav

Peak level 99.4 %
Extraction speed 6.5 X
Track quality 100.0 %
Test CRC 71A41DA1
Copy CRC 71A41DA1
Track not present in AccurateRip database
Copy OK

Track 3

Filename D:\Rips\Valentina Lisitsa - Rachmaninov (2013) [FLAC]\Disc 2\03 - Piano Concerto No.2 in C minor, Op.18 - III. Allegro scherzando.wav

Peak level 99.4 %
Extraction speed 7.3 X
Track quality 100.0 %
Test CRC 5F45FC6F
Copy CRC 5F45FC6F
Track not present in AccurateRip database
Copy OK

Track 4

Filename D:\Rips\Valentina Lisitsa - Rachmaninov (2013) [FLAC]\Disc 2\04 - Piano Concerto No.4 in G minor, Op.40- I. Allegro vivace (Alla breve).wav

Peak level 99.4 %
Extraction speed 7.9 X
Track quality 100.0 %
Test CRC 6A76B6C7
Copy CRC 6A76B6C7
Track not present in AccurateRip database
Copy OK

Track 5

Filename D:\Rips\Valentina Lisitsa - Rachmaninov (2013) [FLAC]\Disc 2\05 - Piano Concerto No.4 in G minor, Op.40 - II. Largo.wav

Peak level 99.4 %
Extraction speed 8.0 X
Track quality 100.0 %
Test CRC 895ACBB5
Copy CRC 895ACBB5
Track not present in AccurateRip database
Copy OK

Track 6

Filename D:\Rips\Valentina Lisitsa - Rachmaninov (2013) [FLAC]\Disc 2\06 - Piano Concerto No.4 in G minor, Op.40 - III. Allegro vivace.wav

Peak level 99.4 %
Extraction speed 8.6 X
Track quality 100.0 %
Test CRC 57943A8F
Copy CRC 57943A8F
Track not present in AccurateRip database
Copy OK

Track 7

Filename D:\Rips\Valentina Lisitsa - Rachmaninov (2013) [FLAC]\Disc 2\07 - Rhapsody on a Theme of Paganini, Op .43 - Introduction (Allegro vivace) and Variation 1 (Precedente).wav

Peak level 99.4 %
Extraction speed 3.8 X
Track quality 100.0 %
Test CRC CEB8389C
Copy CRC CEB8389C
Track not present in AccurateRip database
Copy OK

Track 8

Filename D:\Rips\Valentina Lisitsa - Rachmaninov (2013) [FLAC]\Disc 2\08 - Rhapsody on a Theme of Paganini, Op .43 - Theme - Listesso tempo.wav

Peak level 20.0 %
Extraction speed 1.8 X
Track quality 99.4 %
Test CRC ACCA082E
Copy CRC ACCA082E
Track not present in AccurateRip database
Copy OK

Track 9

Filename D:\Rips\Valentina Lisitsa - Rachmaninov (2013) [FLAC]\Disc 2\09 - Rhapsody on a Theme of Paganini, Op. 43 - Variation 2 - Listesso tempo.wav

Peak level 25.8 %
Extraction speed 3.1 X
Track quality 100.0 %
Test CRC 2253C7FD
Copy CRC 2253C7FD
Track not present in AccurateRip database
Copy OK

Track 10

Filename D:\Rips\Valentina Lisitsa - Rachmaninov (2013) [FLAC]\Disc 2\10 - Rhapsody on a Theme of Paganini, Op. 43 - Variation 3 - Listesso tempo.wav

Peak level 33.5 %
Extraction speed 3.7 X
Track quality 100.0 %
Test CRC F64D61EF
Copy CRC F64D61EF
Track not present in AccurateRip database
Copy OK

Track 11

Filename D:\Rips\Valentina Lisitsa - Rachmaninov (2013) [FLAC]\Disc 2\11 - Rhapsody on a Theme of Paganini, Op. 43 - Variation 4 - Piu vivo.wav

Peak level 49.6 %
Extraction speed 3.9 X
Track quality 100.0 %
Test CRC E770A9E4
Copy CRC E770A9E4
Track not present in AccurateRip database
Copy OK

Track 12

Filename D:\Rips\Valentina Lisitsa - Rachmaninov (2013) [FLAC]\Disc 2\12 - Rhapsody on a Theme of Paganini, Op. 43 - Variation 5 - Tempo precedente.wav

Peak level 65.4 %
Extraction speed 2.5 X
Track quality 99.6 %
Test CRC 971E04C2
Copy CRC 971E04C2
Track not present in AccurateRip database
Copy OK

Track 13

Filename D:\Rips\Valentina Lisitsa - Rachmaninov (2013) [FLAC]\Disc 2\13 - Rhapsody on a Theme of Paganini, Op. 43 - Variation 6 - Listesso tempo.wav

Peak level 46.0 %
Extraction speed 5.6 X
Track quality 100.0 %
Test CRC 5B5A7568
Copy CRC 5B5A7568
Track not present in AccurateRip database
Copy OK

Track 14

Filename D:\Rips\Valentina Lisitsa - Rachmaninov (2013) [FLAC]\Disc 2\14 - Rhapsody on a Theme of Paganini, Op. 43 - Variation 7 - Meno mosso, a tempo moderato.wav

Peak level 44.0 %
Extraction speed 5.9 X
Track quality 100.0 %
Test CRC 5F9FC52E
Copy CRC 5F9FC52E
Track not present in AccurateRip database
Copy OK

Track 15

Filename D:\Rips\Valentina Lisitsa - Rachmaninov (2013) [FLAC]\Disc 2\15 - Rhapsody on a Theme of Paganini, Op. 43 - Variation 8 - Tempo I.wav

Peak level 94.2 %
Extraction speed 4.2 X
Track quality 100.0 %
Test CRC 5027D137
Copy CRC 5027D137
Track not present in AccurateRip database
Copy OK

Track 16

Filename D:\Rips\Valentina Lisitsa - Rachmaninov (2013) [FLAC]\Disc 2\16 - Rhapsody on a Theme of Paganini, Op. 43 - Variation 9 - Listesso tempo.wav

Peak level 80.5 %
Extraction speed 4.1 X
Track quality 100.0 %
Test CRC BF60D4EA
Copy CRC BF60D4EA
Track not present in AccurateRip database
Copy OK

Track 17

Filename D:\Rips\Valentina Lisitsa - Rachmaninov (2013) [FLAC]\Disc 2\17 - Rhapsody on a Theme of Paganini, Op. 43 - Variation 10 - Listesso tempo.wav

Peak level 99.4 %
Extraction speed 5.4 X
Track quality 100.0 %
Test CRC C745CD85
Copy CRC C745CD85
Track not present in AccurateRip database
Copy OK

Track 18

Filename D:\Rips\Valentina Lisitsa - Rachmaninov (2013) [FLAC]\Disc 2\18 - Rhapsody on a Theme of Paganini, Op. 43 - Variation 11 - Moderato.wav

Peak level 49.3 %
Extraction speed 6.5 X
Track quality 100.0 %
Test CRC 8FF9D992
Copy CRC 8FF9D992
Track not present in AccurateRip database
Copy OK

Track 19

Filename D:\Rips\Valentina Lisitsa - Rachmaninov (2013) [FLAC]\Disc 2\19 - Rhapsody on a Theme of Paganini, Op. 43 - Variation 12 - Tempo di minuetto.wav

Peak level 35.4 %
Extraction speed 6.6 X
Track quality 100.0 %
Test CRC BECECD19
Copy CRC BECECD19
Track not present in AccurateRip database
Copy OK

Track 20

Filename D:\Rips\Valentina Lisitsa - Rachmaninov (2013) [FLAC]\Disc 2\20 - Rhapsody on a Theme of Paganini, Op. 43 - Variation 13 - Allegro.wav

Peak level 75.3 %
Extraction speed 2.5 X
Track quality 99.6 %
Test CRC A25A76E6
Copy CRC A25A76E6
Track not present in AccurateRip database
Copy OK

Track 21

Filename D:\Rips\Valentina Lisitsa - Rachmaninov (2013) [FLAC]\Disc 2\21 - Rhapsody on a Theme of Paganini, Op. 43 - Variation 14 - Listesso tempo.wav

Peak level 99.4 %
Extraction speed 5.1 X
Track quality 100.0 %
Test CRC CC04B9CD
Copy CRC CC04B9CD
Track not present in AccurateRip database
Copy OK

Track 22

Filename D:\Rips\Valentina Lisitsa - Rachmaninov (2013) [FLAC]\Disc 2\22 - Rhapsody on a Theme of Paganini, Op. 43 - Variation 16 - Piu vivo scherzando.wav

Peak level 61.0 %
Extraction speed 6.1 X
Track quality 100.0 %
Test CRC 73CFA7FA
Copy CRC 73CFA7FA
Track not present in AccurateRip database
Copy OK

Track 23

Filename D:\Rips\Valentina Lisitsa - Rachmaninov (2013) [FLAC]\Disc 2\23 - Rhapsody on a Theme of Paganini, Op. 43 - Variation 16 - Allegretto.wav

Peak level 29.6 %
Extraction speed 5.5 X
Track quality 99.8 %
Test CRC F0A87A13
Copy CRC F0A87A13
Track not present in AccurateRip database
Copy OK

Track 24

Filename D:\Rips\Valentina Lisitsa - Rachmaninov (2013) [FLAC]\Disc 2\24 - Rhapsody on a Theme of Paganini, Op. 43 - Variation 17 - Allegretto.wav

Peak level 36.3 %
Extraction speed 7.2 X
Track quality 100.0 %
Test CRC 7A01FCC8
Copy CRC 7A01FCC8
Track not present in AccurateRip database
Copy OK

Track 25

Filename D:\Rips\Valentina Lisitsa - Rachmaninov (2013) [FLAC]\Disc 2\25 - Rhapsody on a Theme of Paganini, Op. 43 - Variation 18 - Andante cantabile.wav

Peak level 99.4 %
Extraction speed 8.2 X
Track quality 100.0 %
Test CRC 5AF12F29
Copy CRC 5AF12F29
Track not present in AccurateRip database
Copy OK

Track 26

Filename D:\Rips\Valentina Lisitsa - Rachmaninov (2013) [FLAC]\Disc 2\26 - Rhapsody on a Theme of Paganini, Op. 43 - Variation 19 - A tempo vivace.wav

Peak level 42.5 %
Extraction speed 4.0 X
Track quality 100.0 %
Test CRC E9D93D67
Copy CRC E9D93D67
Track not present in AccurateRip database
Copy OK

Track 27

Filename D:\Rips\Valentina Lisitsa - Rachmaninov (2013) [FLAC]\Disc 2\27 - Rhapsody on a Theme of Paganini, Op. 43 - Variation 20 - Un poco piu vivo.wav

Peak level 70.0 %
Extraction speed 4.7 X
Track quality 100.0 %
Test CRC 83F72C87
Copy CRC 83F72C87
Track not present in AccurateRip database
Copy OK

Track 28

Filename D:\Rips\Valentina Lisitsa - Rachmaninov (2013) [FLAC]\Disc 2\28 - Rhapsody on a Theme of Paganini, Op. 43 - Variation 21 - Un poco piu vivo.wav

Peak level 52.1 %
Extraction speed 3.8 X
Track quality 100.0 %
Test CRC A7E5D2E5
Copy CRC A7E5D2E5
Track not present in AccurateRip database
Copy OK

Track 29

Filename D:\Rips\Valentina Lisitsa - Rachmaninov (2013) [FLAC]\Disc 2\29 - Rhapsody on a Theme of Paganini, Op. 43 - Variation 22 - Marziale. Un poco piu vivo (Alla breve).wav

Peak level 99.4 %
Extraction speed 6.7 X
Track quality 100.0 %
Test CRC 1E7A362C
Copy CRC 1E7A362C
Track not present in AccurateRip database
Copy OK

Track 30

Filename D:\Rips\Valentina Lisitsa - Rachmaninov (2013) [FLAC]\Disc 2\30 - Rhapsody on a Theme of Paganini, Op. 43 - Variation 23 - Listesso tempo.wav

Peak level 99.4 %
Extraction speed 5.4 X
Track quality 100.0 %
Test CRC 2E16A3A8
Copy CRC 2E16A3A8
Track not present in AccurateRip database
Copy OK

Track 31

Filename D:\Rips\Valentina Lisitsa - Rachmaninov (2013) [FLAC]\Disc 2\31 - Rhapsody on a Theme of Paganini, Op. 43 - Variation 24 - A tempo un poco meno mosso.wav

Peak level 99.4 %
Extraction speed 6.4 X
Track quality 100.0 %
Test CRC 9BD00D52
Copy CRC 9BD00D52
Track not present in AccurateRip database
Copy OK


None of the tracks are present in the AccurateRip database

No errors occurred

End of status report

–– CUETools DB Plugin V2.1.3

[CTDB TOCID: PP7TKSVoC4tEYEMyUNjRzhoFtj0-] disk not present in database, Submit result: PP7TKSVoC4tEYEMyUNjRzhoFtj0- has been uploaded


==== Log checksum 6DC4BEC30B18BB6BCD49F3060C6EA92710A4934B739328636B3756E72E057E7B ====


Thanks to the original releaser
Download:

Uploaded: CD 1 | CD 2 | Scans

Uploadable: CD 1 | CD 2 | Scans