Subcategories

Puccini - La Bohême - Kraus - Scotto - Levine ( CD 1991 )

Posted By: jbglx
Puccini - La Bohême - Kraus - Scotto - Levine ( CD 1991 )

Giacomo Puccini - La Bohême
Alfredo Kraus - Renata Scotto - Sherrill Milnes - James Levine

EAC Rip | FLAC-TRACKS+CUE+LOG+Stereo ADD | 2 CD | Scans | 124 Min. | 441 MB
Label / EMI Classics For Pleasure / Catalogue CD-CFPD4708
opera / LP Released in 1980

Yes! It is a brilliant work and does contain some of Puccini's most memorable melodies. So if you have to have a Puccini La Bohemè in your collection, then, this is the one. It has THE best casts on record , You have Scotto at her riveting best as Mimi & the wonderful Carol Neblett as Musetta, the best in these rolls.Then there are the men: Alfredo Kraus as Rodolfo, Sherrill Milnes as Marcello, Paul Plishka as Colline & Matteo Manuguerra as Schaunard. What more can you ask for, eat your heart out . A dream stellar cast and all carefully supported and nurtured by none other than James Levine with the National Philharmonic Orchestra, Trinity Boys Choir & the Ambrosian Opera Chorus. Drool if you must, and my final words to you are; throw out all your Bohemè's & replace them with this one, it is the only one to own .-Amazon-
Puccini - La Bohême - Kraus - Scotto - Levine ( CD 1991 )
Opera in four acts by Giacomo Puccini ,
Sung in italian .
Recorded : august 1979 at Walthamstow Town Hall , London .
Recording engineer , John Mordler .
Balance engineer , Peter Bown.

Track Listing

1 Act I: Questo Mar Rosso mi ammollisce
2 Act I: Ho ghiacciate le dita
3 Act I: Legna! Sigari! Bordo!
4 Act I: Or vi dirò: quest'oro
5 Act I: Si poù? Chi è là?
6 Act I: Ah! Ah! Ah! Ho pagato il trimestre
7 Act I: Io resto per terminar l'articolo
8 Act I: Non sono in vena. Chi è là!
9 Act I: Oh, sventata, sventata!
10 Act I: Che gelida manina
11 Act I: Sì. Mi chiamano Mimì
12 Act I: Ehi! Rodolfo!
13 Act I: O soave fanciulla
14 Act II: Aranci, datteri!
15 Act II: Chi guardi?
16 Act II: Questa è Mimì
17 Act II: Viva Parpignol!
18 Act II: Oh! Musetta!
19 Act II: Tu non mi guardi
20 Act II: Quando men vo
21 Act II: Caro!
22 Act II: Presto, sommate quello


1 Act III: Ohé, là, le guardie!
2 Act III: Sa dirmi, scusi
3 Act III: Mimì?!…Speravo di trovarvi qui
4 Act III: O buon Marcello, aiuto!
5 Act III: Marcello. Finalmente
6 Act III: Mimi è una civetta
7 Act III: Mimì è tanto malata!
8 Act III: Che! Mimì! Tu qui?
9 Act III: Addio. Che! Vai?
10 Act III: Addio, dolce svegliare
11 Act III: Pittore da bottega! Vipera! Rospo!
12 Act IV: In un coupé?
13 Act IV: O Mimì, tu più non torni
14 Act IV: Che ora sia?
15 Act IV: Gavotta. Minuetto
16 Act IV: C'è Mimì che mi segue
17 Act IV: Vecchia zimarra
18 Act IV: Sono andati?
19 Act IV: Che avvien?
20 Act IV: Come va?

Logfiles
CD 1

Exact Audio Copy V1.0 beta 3 from 29. August 2011

EAC extraction logfile from 26. August 2014, 15:39

Levine, Scotto, Kraus, Milnes, Neblett / Puccini - LA BOHEME (1979 - Levine) CD 1 of 2

Used drive : SONY DVD RW DRU-840A Adapter: 0 ID: 1

Read mode : Secure
Utilize accurate stream : Yes
Defeat audio cache : Yes
Make use of C2 pointers : No

Read offset correction : 6
Overread into Lead-In and Lead-Out : No
Fill up missing offset samples with silence : Yes
Delete leading and trailing silent blocks : No
Null samples used in CRC calculations : Yes
Used interface : Native Win32 interface for Win NT & 2000
Gap handling : Not detected, thus appended to previous track

Used output format : User Defined Encoder
Selected bitrate : 320 kBit/s
Quality : High
Add ID3 tag : No
Command line compressor : C:\Archivos de programa\Exact Audio Copy\FLAC\FLAC.EXE
Additional command line options : -6 -V -T "ARTIST=%artist%" -T "TITLE=%title%" -T "ALBUM=%albumtitle%" -T "DATE=%year%" -T "TRACKNUMBER=%tracknr%" -T "GENRE=%genre%" -T "COMMENT=%comment%" -T "BAND=%albuminterpret%" -T "ALBUMARTIST=%albuminterpret%" -T "COMPOSER=%composer%" %haslyrics%–tag-from-file=LYRICS="%lyricsfile%"%haslyrics% -T "DISCNUMBER=%cdnumber%" -T "TOTALDISCS=%totalcds%" -T "TOTALTRACKS=%numtracks%" %hascover%–picture="%coverfile%"%hascover% %source% -o %dest%


TOC of the extracted CD

Track | Start | Length | Start sector | End sector
––––––––––––––––––––––––––––-
1 | 0:00.33 | 1:42.37 | 33 | 7719
2 | 1:42.70 | 3:49.15 | 7720 | 24909
3 | 5:32.10 | 0:33.58 | 24910 | 27442
4 | 6:05.68 | 3:08.17 | 27443 | 41559
5 | 9:14.10 | 4:25.63 | 41560 | 61497
6 | 13:39.73 | 0:48.20 | 61498 | 65117
7 | 14:28.18 | 1:07.52 | 65118 | 70194
8 | 15:35.70 | 2:22.50 | 70195 | 80894
9 | 17:58.45 | 1:38.25 | 80895 | 88269
10 | 19:36.70 | 4:58.08 | 88270 | 110627
11 | 24:35.03 | 5:23.57 | 110628 | 134909
12 | 29:58.60 | 0:43.38 | 134910 | 138172
13 | 30:42.23 | 4:36.30 | 138173 | 158902
14 | 35:18.53 | 2:48.17 | 158903 | 171519
15 | 38:06.70 | 0:45.65 | 171520 | 174959
16 | 38:52.60 | 2:21.15 | 174960 | 185549
17 | 41:14.00 | 2:14.00 | 185550 | 195599
18 | 43:28.00 | 2:03.28 | 195600 | 204852
19 | 45:31.28 | 1:09.52 | 204853 | 210079
20 | 46:41.05 | 4:45.58 | 210080 | 231512
21 | 51:26.63 | 0:34.45 | 231513 | 234107
22 | 52:01.33 | 1:31.42 | 234108 | 240974


Track 1

Filename E:\MUSIC\My Music\La Boheme - Kraus - Scotto - Milnes - Levine\CD 1\01 Questo mar rosso.wav

Peak level 65.4 %
Extraction speed 1.3 X
Track quality 100.0 %
Test CRC 135221E6
Copy CRC 135221E6
Accurately ripped (confidence 3) [9D38AE50] (AR v2)
Copy OK

Track 2

Filename E:\MUSIC\My Music\La Boheme - Kraus - Scotto - Milnes - Levine\CD 1\02 Ho ghiacciate le dita.wav

Peak level 82.7 %
Extraction speed 1.7 X
Track quality 100.0 %
Test CRC 5DC02D59
Copy CRC 5DC02D59
Accurately ripped (confidence 3) [E36AB210] (AR v2)
Copy OK

Track 3

Filename E:\MUSIC\My Music\La Boheme - Kraus - Scotto - Milnes - Levine\CD 1\03 Legna! Sigari! Bordo!.wav

Peak level 66.4 %
Extraction speed 1.0 X
Track quality 100.0 %
Test CRC E7654811
Copy CRC E7654811
Accurately ripped (confidence 3) [A0B213CD] (AR v2)
Copy OK

Track 4

Filename E:\MUSIC\My Music\La Boheme - Kraus - Scotto - Milnes - Levine\CD 1\04 Pr vi diro. Quest'oro, o meglio argente.wav

Peak level 91.4 %
Extraction speed 1.6 X
Track quality 99.9 %
Test CRC 47F1AF91
Copy CRC 47F1AF91
Accurately ripped (confidence 3) [382B1505] (AR v2)
Copy OK

Track 5

Filename E:\MUSIC\My Music\La Boheme - Kraus - Scotto - Milnes - Levine\CD 1\05 Si puo … Chi e la .. Benoit.wav

Peak level 94.4 %
Extraction speed 2.1 X
Track quality 100.0 %
Test CRC 1C9A164E
Copy CRC 1C9A164E
Accurately ripped (confidence 3) [A1B9E7C9] (AR v2)
Copy OK

Track 6

Filename E:\MUSIC\My Music\La Boheme - Kraus - Scotto - Milnes - Levine\CD 1\06 Ah ah ah. Ho pagate.wav

Peak level 72.4 %
Extraction speed 1.4 X
Track quality 100.0 %
Test CRC 00AC5A58
Copy CRC 00AC5A58
Accurately ripped (confidence 3) [BF19A142] (AR v2)
Copy OK

Track 7

Filename E:\MUSIC\My Music\La Boheme - Kraus - Scotto - Milnes - Levine\CD 1\07 Io resto per terminar.wav

Peak level 36.4 %
Extraction speed 1.1 X
Track quality 99.8 %
Test CRC EE30668B
Copy CRC EE30668B
Accurately ripped (confidence 3) [A3822ACE] (AR v2)
Copy OK

Track 8

Filename E:\MUSIC\My Music\La Boheme - Kraus - Scotto - Milnes - Levine\CD 1\08 Nin sono in vena .. .Chi e la.wav

Peak level 60.2 %
Extraction speed 2.1 X
Track quality 100.0 %
Test CRC 6970E296
Copy CRC 6970E296
Accurately ripped (confidence 3) [73ECE8B9] (AR v2)
Copy OK

Track 9

Filename E:\MUSIC\My Music\La Boheme - Kraus - Scotto - Milnes - Levine\CD 1\09 Oh, sventata, sventata, la chiave della stanza.wav

Peak level 75.7 %
Extraction speed 2.0 X
Track quality 100.0 %
Test CRC D8726D92
Copy CRC D8726D92
Accurately ripped (confidence 3) [685C39BC] (AR v2)
Copy OK

Track 10

Filename E:\MUSIC\My Music\La Boheme - Kraus - Scotto - Milnes - Levine\CD 1\10 Che gelida manina.wav

Peak level 75.4 %
Extraction speed 2.1 X
Track quality 99.9 %
Test CRC EE69DDCB
Copy CRC EE69DDCB
Accurately ripped (confidence 3) [BD78441E] (AR v2)
Copy OK

Track 11

Filename E:\MUSIC\My Music\La Boheme - Kraus - Scotto - Milnes - Levine\CD 1\11 Mi chaimano Mimi.wav

Peak level 85.8 %
Extraction speed 2.8 X
Track quality 100.0 %
Test CRC 227E3198
Copy CRC 227E3198
Accurately ripped (confidence 3) [C78E0308] (AR v2)
Copy OK

Track 12

Filename E:\MUSIC\My Music\La Boheme - Kraus - Scotto - Milnes - Levine\CD 1\12 Eh! Rodolfo!.wav

Peak level 17.7 %
Extraction speed 0.9 X
Track quality 99.7 %
Test CRC 9EA709AC
Copy CRC 9EA709AC
Accurately ripped (confidence 3) [99AA650A] (AR v2)
Copy OK

Track 13

Filename E:\MUSIC\My Music\La Boheme - Kraus - Scotto - Milnes - Levine\CD 1\13 O soave fanciulla.wav

Peak level 90.0 %
Extraction speed 2.9 X
Track quality 100.0 %
Test CRC 10C3714A
Copy CRC 10C3714A
Accurately ripped (confidence 3) [2C9081B3] (AR v2)
Copy OK

Track 14

Filename E:\MUSIC\My Music\La Boheme - Kraus - Scotto - Milnes - Levine\CD 1\14 Aranci! Datteri!Caldi i marroni!.wav

Peak level 98.5 %
Extraction speed 2.8 X
Track quality 100.0 %
Test CRC F430EC7D
Copy CRC F430EC7D
Accurately ripped (confidence 3) [545CF9EC] (AR v2)
Copy OK

Track 15

Filename E:\MUSIC\My Music\La Boheme - Kraus - Scotto - Milnes - Levine\CD 1\15 Chi guardi.wav

Peak level 70.2 %
Extraction speed 1.9 X
Track quality 100.0 %
Test CRC 5359F729
Copy CRC 5359F729
Accurately ripped (confidence 3) [1199EEDD] (AR v2)
Copy OK

Track 16

Filename E:\MUSIC\My Music\La Boheme - Kraus - Scotto - Milnes - Levine\CD 1\16 Questa e mimi..wav

Peak level 91.8 %
Extraction speed 2.8 X
Track quality 100.0 %
Test CRC 51553444
Copy CRC 51553444
Accurately ripped (confidence 3) [E48F6340] (AR v2)
Copy OK

Track 17

Filename E:\MUSIC\My Music\La Boheme - Kraus - Scotto - Milnes - Levine\CD 1\17 Viva Parpignol!.wav

Peak level 78.2 %
Extraction speed 2.8 X
Track quality 100.0 %
Test CRC 756486F1
Copy CRC 756486F1
Accurately ripped (confidence 3) [822E50C4] (AR v2)
Copy OK

Track 18

Filename E:\MUSIC\My Music\La Boheme - Kraus - Scotto - Milnes - Levine\CD 1\18 Oh! Musetta!.wav

Peak level 90.7 %
Extraction speed 2.8 X
Track quality 100.0 %
Test CRC 53760926
Copy CRC 53760926
Accurately ripped (confidence 3) [D82153B4] (AR v2)
Copy OK

Track 19

Filename E:\MUSIC\My Music\La Boheme - Kraus - Scotto - Milnes - Levine\CD 1\19 TU non mi guardi.wav

Peak level 91.0 %
Extraction speed 1.3 X
Track quality 99.8 %
Test CRC 38A33E36
Copy CRC 38A33E36
Accurately ripped (confidence 3) [6D082795] (AR v2)
Copy OK

Track 20

Filename E:\MUSIC\My Music\La Boheme - Kraus - Scotto - Milnes - Levine\CD 1\20 Quando m'en vo.wav

Peak level 98.8 %
Extraction speed 2.7 X
Track quality 99.9 %
Test CRC C437847D
Copy CRC C437847D
Accurately ripped (confidence 3) [C2B69118] (AR v2)
Copy OK

Track 21

Filename E:\MUSIC\My Music\La Boheme - Kraus - Scotto - Milnes - Levine\CD 1\21 Caro!.wav

Copy aborted

Track 22

Filename E:\MUSIC\My Music\La Boheme - Kraus - Scotto - Milnes - Levine\CD 1\22 Presto, sommate quello con questo.wav

Peak level 100.0 %
Extraction speed 2.7 X
Track quality 100.0 %
Test CRC C3CBFB4B
Copy CRC C3CBFB4B
Accurately ripped (confidence 3) [3E9A3C78] (AR v2)
Copy OK


21 track(s) accurately ripped
1 track(s) canceled

Some tracks could not be verified as accurate

There were errors

End of status report

==== Log checksum 4D6D057C01CF89FAAFDC37125D0CBBC2D09B4EE3AE146A3874A33B8977EDA386 ====

––––––––––––––––––––––––––––––

Exact Audio Copy V1.0 beta 3 from 29. August 2011

EAC extraction logfile from 26. August 2014, 15:39

Levine, Scotto, Kraus, Milnes, Neblett / Puccini - LA BOHEME (1979 - Levine) CD 1 of 2

Used drive : SONY DVD RW DRU-840A Adapter: 0 ID: 1

Read mode : Secure
Utilize accurate stream : Yes
Defeat audio cache : Yes
Make use of C2 pointers : No

Read offset correction : 6
Overread into Lead-In and Lead-Out : No
Fill up missing offset samples with silence : Yes
Delete leading and trailing silent blocks : No
Null samples used in CRC calculations : Yes
Used interface : Native Win32 interface for Win NT & 2000
Gap handling : Not detected, thus appended to previous track

Used output format : User Defined Encoder
Selected bitrate : 320 kBit/s
Quality : High
Add ID3 tag : No
Command line compressor : C:\Archivos de programa\Exact Audio Copy\FLAC\FLAC.EXE
Additional command line options : -6 -V -T "ARTIST=%artist%" -T "TITLE=%title%" -T "ALBUM=%albumtitle%" -T "DATE=%year%" -T "TRACKNUMBER=%tracknr%" -T "GENRE=%genre%" -T "COMMENT=%comment%" -T "BAND=%albuminterpret%" -T "ALBUMARTIST=%albuminterpret%" -T "COMPOSER=%composer%" %haslyrics%–tag-from-file=LYRICS="%lyricsfile%"%haslyrics% -T "DISCNUMBER=%cdnumber%" -T "TOTALDISCS=%totalcds%" -T "TOTALTRACKS=%numtracks%" %hascover%–picture="%coverfile%"%hascover% %source% -o %dest%


TOC of the extracted CD

Track | Start | Length | Start sector | End sector
––––––––––––––––––––––––––––-
1 | 0:00.33 | 1:42.37 | 33 | 7719
2 | 1:42.70 | 3:49.15 | 7720 | 24909
3 | 5:32.10 | 0:33.58 | 24910 | 27442
4 | 6:05.68 | 3:08.17 | 27443 | 41559
5 | 9:14.10 | 4:25.63 | 41560 | 61497
6 | 13:39.73 | 0:48.20 | 61498 | 65117
7 | 14:28.18 | 1:07.52 | 65118 | 70194
8 | 15:35.70 | 2:22.50 | 70195 | 80894
9 | 17:58.45 | 1:38.25 | 80895 | 88269
10 | 19:36.70 | 4:58.08 | 88270 | 110627
11 | 24:35.03 | 5:23.57 | 110628 | 134909
12 | 29:58.60 | 0:43.38 | 134910 | 138172
13 | 30:42.23 | 4:36.30 | 138173 | 158902
14 | 35:18.53 | 2:48.17 | 158903 | 171519
15 | 38:06.70 | 0:45.65 | 171520 | 174959
16 | 38:52.60 | 2:21.15 | 174960 | 185549
17 | 41:14.00 | 2:14.00 | 185550 | 195599
18 | 43:28.00 | 2:03.28 | 195600 | 204852
19 | 45:31.28 | 1:09.52 | 204853 | 210079
20 | 46:41.05 | 4:45.58 | 210080 | 231512
21 | 51:26.63 | 0:34.45 | 231513 | 234107
22 | 52:01.33 | 1:31.42 | 234108 | 240974


Track 1

Filename E:\MUSIC\My Music\La Boheme - Kraus - Scotto - Milnes - Levine\CD 1\01 Questo mar rosso.wav

Peak level 65.4 %
Extraction speed 1.3 X
Track quality 100.0 %
Test CRC 135221E6
Copy CRC 135221E6
Accurately ripped (confidence 3) [9D38AE50] (AR v2)
Copy OK

Track 2

Filename E:\MUSIC\My Music\La Boheme - Kraus - Scotto - Milnes - Levine\CD 1\02 Ho ghiacciate le dita.wav

Peak level 82.7 %
Extraction speed 1.7 X
Track quality 100.0 %
Test CRC 5DC02D59
Copy CRC 5DC02D59
Accurately ripped (confidence 3) [E36AB210] (AR v2)
Copy OK

Track 3

Filename E:\MUSIC\My Music\La Boheme - Kraus - Scotto - Milnes - Levine\CD 1\03 Legna! Sigari! Bordo!.wav

Peak level 66.4 %
Extraction speed 1.0 X
Track quality 100.0 %
Test CRC E7654811
Copy CRC E7654811
Accurately ripped (confidence 3) [A0B213CD] (AR v2)
Copy OK

Track 4

Filename E:\MUSIC\My Music\La Boheme - Kraus - Scotto - Milnes - Levine\CD 1\04 Pr vi diro. Quest'oro, o meglio argente.wav

Peak level 91.4 %
Extraction speed 1.6 X
Track quality 99.9 %
Test CRC 47F1AF91
Copy CRC 47F1AF91
Accurately ripped (confidence 3) [382B1505] (AR v2)
Copy OK

Track 5

Filename E:\MUSIC\My Music\La Boheme - Kraus - Scotto - Milnes - Levine\CD 1\05 Si puo … Chi e la .. Benoit.wav

Peak level 94.4 %
Extraction speed 2.1 X
Track quality 100.0 %
Test CRC 1C9A164E
Copy CRC 1C9A164E
Accurately ripped (confidence 3) [A1B9E7C9] (AR v2)
Copy OK

Track 6

Filename E:\MUSIC\My Music\La Boheme - Kraus - Scotto - Milnes - Levine\CD 1\06 Ah ah ah. Ho pagate.wav

Peak level 72.4 %
Extraction speed 1.4 X
Track quality 100.0 %
Test CRC 00AC5A58
Copy CRC 00AC5A58
Accurately ripped (confidence 3) [BF19A142] (AR v2)
Copy OK

Track 7

Filename E:\MUSIC\My Music\La Boheme - Kraus - Scotto - Milnes - Levine\CD 1\07 Io resto per terminar.wav

Peak level 36.4 %
Extraction speed 1.1 X
Track quality 99.8 %
Test CRC EE30668B
Copy CRC EE30668B
Accurately ripped (confidence 3) [A3822ACE] (AR v2)
Copy OK

Track 8

Filename E:\MUSIC\My Music\La Boheme - Kraus - Scotto - Milnes - Levine\CD 1\08 Nin sono in vena .. .Chi e la.wav

Peak level 60.2 %
Extraction speed 2.1 X
Track quality 100.0 %
Test CRC 6970E296
Copy CRC 6970E296
Accurately ripped (confidence 3) [73ECE8B9] (AR v2)
Copy OK

Track 9

Filename E:\MUSIC\My Music\La Boheme - Kraus - Scotto - Milnes - Levine\CD 1\09 Oh, sventata, sventata, la chiave della stanza.wav

Peak level 75.7 %
Extraction speed 2.0 X
Track quality 100.0 %
Test CRC D8726D92
Copy CRC D8726D92
Accurately ripped (confidence 3) [685C39BC] (AR v2)
Copy OK

Track 10

Filename E:\MUSIC\My Music\La Boheme - Kraus - Scotto - Milnes - Levine\CD 1\10 Che gelida manina.wav

Peak level 75.4 %
Extraction speed 2.1 X
Track quality 99.9 %
Test CRC EE69DDCB
Copy CRC EE69DDCB
Accurately ripped (confidence 3) [BD78441E] (AR v2)
Copy OK

Track 11

Filename E:\MUSIC\My Music\La Boheme - Kraus - Scotto - Milnes - Levine\CD 1\11 Mi chaimano Mimi.wav

Peak level 85.8 %
Extraction speed 2.8 X
Track quality 100.0 %
Test CRC 227E3198
Copy CRC 227E3198
Accurately ripped (confidence 3) [C78E0308] (AR v2)
Copy OK

Track 12

Filename E:\MUSIC\My Music\La Boheme - Kraus - Scotto - Milnes - Levine\CD 1\12 Eh! Rodolfo!.wav

Peak level 17.7 %
Extraction speed 0.9 X
Track quality 99.7 %
Test CRC 9EA709AC
Copy CRC 9EA709AC
Accurately ripped (confidence 3) [99AA650A] (AR v2)
Copy OK

Track 13

Filename E:\MUSIC\My Music\La Boheme - Kraus - Scotto - Milnes - Levine\CD 1\13 O soave fanciulla.wav

Peak level 90.0 %
Extraction speed 2.9 X
Track quality 100.0 %
Test CRC 10C3714A
Copy CRC 10C3714A
Accurately ripped (confidence 3) [2C9081B3] (AR v2)
Copy OK

Track 14

Filename E:\MUSIC\My Music\La Boheme - Kraus - Scotto - Milnes - Levine\CD 1\14 Aranci! Datteri!Caldi i marroni!.wav

Peak level 98.5 %
Extraction speed 2.8 X
Track quality 100.0 %
Test CRC F430EC7D
Copy CRC F430EC7D
Accurately ripped (confidence 3) [545CF9EC] (AR v2)
Copy OK

Track 15

Filename E:\MUSIC\My Music\La Boheme - Kraus - Scotto - Milnes - Levine\CD 1\15 Chi guardi.wav

Peak level 70.2 %
Extraction speed 1.9 X
Track quality 100.0 %
Test CRC 5359F729
Copy CRC 5359F729
Accurately ripped (confidence 3) [1199EEDD] (AR v2)
Copy OK

Track 16

Filename E:\MUSIC\My Music\La Boheme - Kraus - Scotto - Milnes - Levine\CD 1\16 Questa e mimi..wav

Peak level 91.8 %
Extraction speed 2.8 X
Track quality 100.0 %
Test CRC 51553444
Copy CRC 51553444
Accurately ripped (confidence 3) [E48F6340] (AR v2)
Copy OK

Track 17

Filename E:\MUSIC\My Music\La Boheme - Kraus - Scotto - Milnes - Levine\CD 1\17 Viva Parpignol!.wav

Peak level 78.2 %
Extraction speed 2.8 X
Track quality 100.0 %
Test CRC 756486F1
Copy CRC 756486F1
Accurately ripped (confidence 3) [822E50C4] (AR v2)
Copy OK

Track 18

Filename E:\MUSIC\My Music\La Boheme - Kraus - Scotto - Milnes - Levine\CD 1\18 Oh! Musetta!.wav

Peak level 90.7 %
Extraction speed 2.8 X
Track quality 100.0 %
Test CRC 53760926
Copy CRC 53760926
Accurately ripped (confidence 3) [D82153B4] (AR v2)
Copy OK

Track 19

Filename E:\MUSIC\My Music\La Boheme - Kraus - Scotto - Milnes - Levine\CD 1\19 TU non mi guardi.wav

Peak level 91.0 %
Extraction speed 1.3 X
Track quality 99.8 %
Test CRC 38A33E36
Copy CRC 38A33E36
Accurately ripped (confidence 3) [6D082795] (AR v2)
Copy OK

Track 20

Filename E:\MUSIC\My Music\La Boheme - Kraus - Scotto - Milnes - Levine\CD 1\20 Quando m'en vo.wav

Peak level 98.8 %
Extraction speed 2.7 X
Track quality 99.9 %
Test CRC C437847D
Copy CRC C437847D
Accurately ripped (confidence 3) [C2B69118] (AR v2)
Copy OK

Track 21

Filename E:\MUSIC\My Music\La Boheme - Kraus - Scotto - Milnes - Levine\CD 1\21 Caro!.wav

Copy aborted

Track 22

Filename E:\MUSIC\My Music\La Boheme - Kraus - Scotto - Milnes - Levine\CD 1\22 Presto, sommate quello con questo.wav

Peak level 100.0 %
Extraction speed 2.7 X
Track quality 100.0 %
Test CRC C3CBFB4B
Copy CRC C3CBFB4B
Accurately ripped (confidence 3) [3E9A3C78] (AR v2)
Copy OK


21 track(s) accurately ripped
1 track(s) canceled

Some tracks could not be verified as accurate

There were errors

End of status report

==== Log checksum 4D6D057C01CF89FAAFDC37125D0CBBC2D09B4EE3AE146A3874A33B8977EDA386 ====

CD 2

Exact Audio Copy V1.0 beta 3 from 29. August 2011

EAC extraction logfile from 26. August 2014, 16:08

Levine, Scotto, Kraus, Milnes, Neblett / Puccini - LA BOHEME (1979 - Levine) CD 2 of 2

Used drive : SONY DVD RW DRU-840A Adapter: 0 ID: 1

Read mode : Secure
Utilize accurate stream : Yes
Defeat audio cache : Yes
Make use of C2 pointers : No

Read offset correction : 6
Overread into Lead-In and Lead-Out : No
Fill up missing offset samples with silence : Yes
Delete leading and trailing silent blocks : No
Null samples used in CRC calculations : Yes
Used interface : Native Win32 interface for Win NT & 2000
Gap handling : Not detected, thus appended to previous track

Used output format : User Defined Encoder
Selected bitrate : 320 kBit/s
Quality : High
Add ID3 tag : No
Command line compressor : C:\Archivos de programa\Exact Audio Copy\FLAC\FLAC.EXE
Additional command line options : -6 -V -T "ARTIST=%artist%" -T "TITLE=%title%" -T "ALBUM=%albumtitle%" -T "DATE=%year%" -T "TRACKNUMBER=%tracknr%" -T "GENRE=%genre%" -T "COMMENT=%comment%" -T "BAND=%albuminterpret%" -T "ALBUMARTIST=%albuminterpret%" -T "COMPOSER=%composer%" %haslyrics%–tag-from-file=LYRICS="%lyricsfile%"%haslyrics% -T "DISCNUMBER=%cdnumber%" -T "TOTALDISCS=%totalcds%" -T "TOTALTRACKS=%numtracks%" %hascover%–picture="%coverfile%"%hascover% %source% -o %dest%


TOC of the extracted CD

Track | Start | Length | Start sector | End sector
––––––––––––––––––––––––––––-
1 | 0:00.33 | 4:12.05 | 33 | 18937
2 | 4:12.38 | 1:02.27 | 18938 | 23614
3 | 5:14.65 | 0:38.48 | 23615 | 26512
4 | 5:53.38 | 4:24.60 | 26513 | 46372
5 | 10:18.23 | 1:12.10 | 46373 | 51782
6 | 11:30.33 | 1:18.02 | 51783 | 57634
7 | 12:48.35 | 2:06.33 | 57635 | 67117
8 | 14:54.68 | 0:43.62 | 67118 | 70404
9 | 15:38.55 | 3:52.28 | 70405 | 87832
10 | 19:31.08 | 3:26.52 | 87833 | 103334
11 | 22:57.60 | 1:57.53 | 103335 | 112162
12 | 24:55.38 | 1:55.27 | 112163 | 120814
13 | 26:50.65 | 2:56.33 | 120815 | 134047
14 | 29:47.23 | 2:20.57 | 134048 | 144604
15 | 32:08.05 | 1:40.33 | 144605 | 152137
16 | 33:48.38 | 5:49.52 | 152138 | 178364
17 | 39:38.15 | 3:23.50 | 178365 | 193639
18 | 43:01.65 | 5:02.53 | 193640 | 216342
19 | 48:04.43 | 3:57.22 | 216343 | 234139
20 | 52:01.65 | 1:52.70 | 234140 | 242609


Track 1

Filename E:\MUSIC\My Music\La Boheme - Kraus - Scotto - Milnes - Levine\CD 2\01 Oje la, le guardie! Aprite!.wav

Peak level 79.0 %
Extraction speed 4.4 X
Track quality 100.0 %
Test CRC 83022849
Copy CRC 83022849
Accurately ripped (confidence 3) [D744B5E6] (AR v2)
Copy OK

Track 2

Filename E:\MUSIC\My Music\La Boheme - Kraus - Scotto - Milnes - Levine\CD 2\02 Sa dirmi, scusi, qual'e l'osteria.wav

Peak level 18.0 %
Extraction speed 3.3 X
Track quality 100.0 %
Test CRC D803030C
Copy CRC D803030C
Accurately ripped (confidence 3) [16B9F281] (AR v2)
Copy OK

Track 3

Filename E:\MUSIC\My Music\La Boheme - Kraus - Scotto - Milnes - Levine\CD 2\03 Mimi!.wav

Peak level 47.8 %
Extraction speed 2.8 X
Track quality 100.0 %
Test CRC 23983849
Copy CRC 23983849
Accurately ripped (confidence 3) [855A9E95] (AR v2)
Copy OK

Track 4

Filename E:\MUSIC\My Music\La Boheme - Kraus - Scotto - Milnes - Levine\CD 2\04 O buon Marcello, aiuto!.wav

Peak level 100.0 %
Extraction speed 5.1 X
Track quality 100.0 %
Test CRC 4AE0CAFF
Copy CRC 4AE0CAFF
Accurately ripped (confidence 3) [00FE249D] (AR v2)
Copy OK

Track 5

Filename E:\MUSIC\My Music\La Boheme - Kraus - Scotto - Milnes - Levine\CD 2\05 Marcello, finalmente!.wav

Peak level 66.4 %
Extraction speed 4.0 X
Track quality 100.0 %
Test CRC 17AE9F07
Copy CRC 17AE9F07
Accurately ripped (confidence 3) [9604D1A3] (AR v2)
Copy OK

Track 6

Filename E:\MUSIC\My Music\La Boheme - Kraus - Scotto - Milnes - Levine\CD 2\06 Mimi e una civetta.wav

Peak level 98.4 %
Extraction speed 2.7 X
Track quality 99.8 %
Test CRC E77CFE69
Copy CRC E77CFE69
Accurately ripped (confidence 3) [0A6597D1] (AR v2)
Copy OK

Track 7

Filename E:\MUSIC\My Music\La Boheme - Kraus - Scotto - Milnes - Levine\CD 2\07 Mimi e tanta malata.wav

Peak level 73.8 %
Extraction speed 4.9 X
Track quality 100.0 %
Test CRC 627999F7
Copy CRC 627999F7
Accurately ripped (confidence 3) [E26F2DFA] (AR v2)
Copy OK

Track 8

Filename E:\MUSIC\My Music\La Boheme - Kraus - Scotto - Milnes - Levine\CD 2\08 Che Mimi! Tu qui.wav

Peak level 87.7 %
Extraction speed 1.9 X
Track quality 99.7 %
Test CRC C20BCEBC
Copy CRC C20BCEBC
Accurately ripped (confidence 3) [52436BCF] (AR v2)
Copy OK

Track 9

Filename E:\MUSIC\My Music\La Boheme - Kraus - Scotto - Milnes - Levine\CD 2\09 Addio! Che! Vai.wav

Peak level 91.4 %
Extraction speed 4.7 X
Track quality 99.9 %
Test CRC 26806C51
Copy CRC 26806C51
Accurately ripped (confidence 3) [885E5D5A] (AR v2)
Copy OK

Track 10

Filename E:\MUSIC\My Music\La Boheme - Kraus - Scotto - Milnes - Levine\CD 2\10 Addio, dolce svegliare alla mattina.wav

Peak level 94.7 %
Extraction speed 6.0 X
Track quality 100.0 %
Test CRC A0C8B2A9
Copy CRC A0C8B2A9
Accurately ripped (confidence 3) [076A43AF] (AR v2)
Copy OK

Track 11

Filename E:\MUSIC\My Music\La Boheme - Kraus - Scotto - Milnes - Levine\CD 2\11 Pintore da bottega.wav

Peak level 55.3 %
Extraction speed 5.5 X
Track quality 100.0 %
Test CRC 9E1940DF
Copy CRC 9E1940DF
Accurately ripped (confidence 3) [E2F72A05] (AR v2)
Copy OK

Track 12

Filename E:\MUSIC\My Music\La Boheme - Kraus - Scotto - Milnes - Levine\CD 2\12 In un coupe.wav

Peak level 64.3 %
Extraction speed 5.6 X
Track quality 100.0 %
Test CRC 3B5A80F7
Copy CRC 3B5A80F7
Accurately ripped (confidence 3) [E9B2F0B7] (AR v2)
Copy OK

Track 13

Filename E:\MUSIC\My Music\La Boheme - Kraus - Scotto - Milnes - Levine\CD 2\13 Oh Mimi, tu piu non torni.wav

Peak level 65.2 %
Extraction speed 6.3 X
Track quality 100.0 %
Test CRC 097B819C
Copy CRC 097B819C
Accurately ripped (confidence 3) [774B80CE] (AR v2)
Copy OK

Track 14

Filename E:\MUSIC\My Music\La Boheme - Kraus - Scotto - Milnes - Levine\CD 2\14 Che ora sia.wav

Peak level 97.7 %
Extraction speed 4.4 X
Track quality 99.9 %
Test CRC 4417E664
Copy CRC 4417E664
Accurately ripped (confidence 3) [97F33AC2] (AR v2)
Copy OK

Track 15

Filename E:\MUSIC\My Music\La Boheme - Kraus - Scotto - Milnes - Levine\CD 2\15 Gavotta.wav

Peak level 83.8 %
Extraction speed 5.8 X
Track quality 100.0 %
Test CRC AEE40578
Copy CRC AEE40578
Accurately ripped (confidence 3) [591B36CE] (AR v2)
Copy OK

Track 16

Filename E:\MUSIC\My Music\La Boheme - Kraus - Scotto - Milnes - Levine\CD 2\16 C'e Mimi … C'e Mimi che mi segue.wav

Peak level 95.5 %
Extraction speed 7.6 X
Track quality 100.0 %
Test CRC A2C503C2
Copy CRC A2C503C2
Accurately ripped (confidence 3) [C2BFE78E] (AR v2)
Copy OK

Track 17

Filename E:\MUSIC\My Music\La Boheme - Kraus - Scotto - Milnes - Levine\CD 2\17 Vecchia zimarra, senti.wav

Peak level 40.5 %
Extraction speed 7.4 X
Track quality 100.0 %
Test CRC 049DF5FC
Copy CRC 049DF5FC
Accurately ripped (confidence 3) [7635C97F] (AR v2)
Copy OK

Track 18

Filename E:\MUSIC\My Music\La Boheme - Kraus - Scotto - Milnes - Levine\CD 2\18 Sono andati.wav

Peak level 76.3 %
Extraction speed 8.0 X
Track quality 100.0 %
Test CRC AFE900A4
Copy CRC AFE900A4
Accurately ripped (confidence 3) [B536AE9A] (AR v2)
Copy OK

Track 19

Filename E:\MUSIC\My Music\La Boheme - Kraus - Scotto - Milnes - Levine\CD 2\19 Che avvien.wav

Peak level 68.8 %
Extraction speed 8.0 X
Track quality 100.0 %
Test CRC 3CFE1502
Copy CRC 3CFE1502
Accurately ripped (confidence 3) [4CA0E425] (AR v2)
Copy OK

Track 20

Filename E:\MUSIC\My Music\La Boheme - Kraus - Scotto - Milnes - Levine\CD 2\20 Come va.wav

Peak level 93.8 %
Extraction speed 7.1 X
Track quality 100.0 %
Test CRC 0F2ADB13
Copy CRC 0F2ADB13
Accurately ripped (confidence 3) [9A99EF12] (AR v2)
Copy OK


All tracks accurately ripped

No errors occurred

End of status report

==== Log checksum 04F8A7F92DF5BA2D93CBB0E2F819A7BE107DE4EAD2CB9BDCDA3F1046A65BE385 ====

––––––––––––––––––––––––––––––

Exact Audio Copy V1.0 beta 3 from 29. August 2011

EAC extraction logfile from 26. August 2014, 16:08

Levine, Scotto, Kraus, Milnes, Neblett / Puccini - LA BOHEME (1979 - Levine) CD 2 of 2

Used drive : SONY DVD RW DRU-840A Adapter: 0 ID: 1

Read mode : Secure
Utilize accurate stream : Yes
Defeat audio cache : Yes
Make use of C2 pointers : No

Read offset correction : 6
Overread into Lead-In and Lead-Out : No
Fill up missing offset samples with silence : Yes
Delete leading and trailing silent blocks : No
Null samples used in CRC calculations : Yes
Used interface : Native Win32 interface for Win NT & 2000
Gap handling : Not detected, thus appended to previous track

Used output format : User Defined Encoder
Selected bitrate : 320 kBit/s
Quality : High
Add ID3 tag : No
Command line compressor : C:\Archivos de programa\Exact Audio Copy\FLAC\FLAC.EXE
Additional command line options : -6 -V -T "ARTIST=%artist%" -T "TITLE=%title%" -T "ALBUM=%albumtitle%" -T "DATE=%year%" -T "TRACKNUMBER=%tracknr%" -T "GENRE=%genre%" -T "COMMENT=%comment%" -T "BAND=%albuminterpret%" -T "ALBUMARTIST=%albuminterpret%" -T "COMPOSER=%composer%" %haslyrics%–tag-from-file=LYRICS="%lyricsfile%"%haslyrics% -T "DISCNUMBER=%cdnumber%" -T "TOTALDISCS=%totalcds%" -T "TOTALTRACKS=%numtracks%" %hascover%–picture="%coverfile%"%hascover% %source% -o %dest%


TOC of the extracted CD

Track | Start | Length | Start sector | End sector
––––––––––––––––––––––––––––-
1 | 0:00.33 | 4:12.05 | 33 | 18937
2 | 4:12.38 | 1:02.27 | 18938 | 23614
3 | 5:14.65 | 0:38.48 | 23615 | 26512
4 | 5:53.38 | 4:24.60 | 26513 | 46372
5 | 10:18.23 | 1:12.10 | 46373 | 51782
6 | 11:30.33 | 1:18.02 | 51783 | 57634
7 | 12:48.35 | 2:06.33 | 57635 | 67117
8 | 14:54.68 | 0:43.62 | 67118 | 70404
9 | 15:38.55 | 3:52.28 | 70405 | 87832
10 | 19:31.08 | 3:26.52 | 87833 | 103334
11 | 22:57.60 | 1:57.53 | 103335 | 112162
12 | 24:55.38 | 1:55.27 | 112163 | 120814
13 | 26:50.65 | 2:56.33 | 120815 | 134047
14 | 29:47.23 | 2:20.57 | 134048 | 144604
15 | 32:08.05 | 1:40.33 | 144605 | 152137
16 | 33:48.38 | 5:49.52 | 152138 | 178364
17 | 39:38.15 | 3:23.50 | 178365 | 193639
18 | 43:01.65 | 5:02.53 | 193640 | 216342
19 | 48:04.43 | 3:57.22 | 216343 | 234139
20 | 52:01.65 | 1:52.70 | 234140 | 242609


Track 1

Filename E:\MUSIC\My Music\La Boheme - Kraus - Scotto - Milnes - Levine\CD 2\01 Oje la, le guardie! Aprite!.wav

Peak level 79.0 %
Extraction speed 4.4 X
Track quality 100.0 %
Test CRC 83022849
Copy CRC 83022849
Accurately ripped (confidence 3) [D744B5E6] (AR v2)
Copy OK

Track 2

Filename E:\MUSIC\My Music\La Boheme - Kraus - Scotto - Milnes - Levine\CD 2\02 Sa dirmi, scusi, qual'e l'osteria.wav

Peak level 18.0 %
Extraction speed 3.3 X
Track quality 100.0 %
Test CRC D803030C
Copy CRC D803030C
Accurately ripped (confidence 3) [16B9F281] (AR v2)
Copy OK

Track 3

Filename E:\MUSIC\My Music\La Boheme - Kraus - Scotto - Milnes - Levine\CD 2\03 Mimi!.wav

Peak level 47.8 %
Extraction speed 2.8 X
Track quality 100.0 %
Test CRC 23983849
Copy CRC 23983849
Accurately ripped (confidence 3) [855A9E95] (AR v2)
Copy OK

Track 4

Filename E:\MUSIC\My Music\La Boheme - Kraus - Scotto - Milnes - Levine\CD 2\04 O buon Marcello, aiuto!.wav

Peak level 100.0 %
Extraction speed 5.1 X
Track quality 100.0 %
Test CRC 4AE0CAFF
Copy CRC 4AE0CAFF
Accurately ripped (confidence 3) [00FE249D] (AR v2)
Copy OK

Track 5

Filename E:\MUSIC\My Music\La Boheme - Kraus - Scotto - Milnes - Levine\CD 2\05 Marcello, finalmente!.wav

Peak level 66.4 %
Extraction speed 4.0 X
Track quality 100.0 %
Test CRC 17AE9F07
Copy CRC 17AE9F07
Accurately ripped (confidence 3) [9604D1A3] (AR v2)
Copy OK

Track 6

Filename E:\MUSIC\My Music\La Boheme - Kraus - Scotto - Milnes - Levine\CD 2\06 Mimi e una civetta.wav

Peak level 98.4 %
Extraction speed 2.7 X
Track quality 99.8 %
Test CRC E77CFE69
Copy CRC E77CFE69
Accurately ripped (confidence 3) [0A6597D1] (AR v2)
Copy OK

Track 7

Filename E:\MUSIC\My Music\La Boheme - Kraus - Scotto - Milnes - Levine\CD 2\07 Mimi e tanta malata.wav

Peak level 73.8 %
Extraction speed 4.9 X
Track quality 100.0 %
Test CRC 627999F7
Copy CRC 627999F7
Accurately ripped (confidence 3) [E26F2DFA] (AR v2)
Copy OK

Track 8

Filename E:\MUSIC\My Music\La Boheme - Kraus - Scotto - Milnes - Levine\CD 2\08 Che Mimi! Tu qui.wav

Peak level 87.7 %
Extraction speed 1.9 X
Track quality 99.7 %
Test CRC C20BCEBC
Copy CRC C20BCEBC
Accurately ripped (confidence 3) [52436BCF] (AR v2)
Copy OK

Track 9

Filename E:\MUSIC\My Music\La Boheme - Kraus - Scotto - Milnes - Levine\CD 2\09 Addio! Che! Vai.wav

Peak level 91.4 %
Extraction speed 4.7 X
Track quality 99.9 %
Test CRC 26806C51
Copy CRC 26806C51
Accurately ripped (confidence 3) [885E5D5A] (AR v2)
Copy OK

Track 10

Filename E:\MUSIC\My Music\La Boheme - Kraus - Scotto - Milnes - Levine\CD 2\10 Addio, dolce svegliare alla mattina.wav

Peak level 94.7 %
Extraction speed 6.0 X
Track quality 100.0 %
Test CRC A0C8B2A9
Copy CRC A0C8B2A9
Accurately ripped (confidence 3) [076A43AF] (AR v2)
Copy OK

Track 11

Filename E:\MUSIC\My Music\La Boheme - Kraus - Scotto - Milnes - Levine\CD 2\11 Pintore da bottega.wav

Peak level 55.3 %
Extraction speed 5.5 X
Track quality 100.0 %
Test CRC 9E1940DF
Copy CRC 9E1940DF
Accurately ripped (confidence 3) [E2F72A05] (AR v2)
Copy OK

Track 12

Filename E:\MUSIC\My Music\La Boheme - Kraus - Scotto - Milnes - Levine\CD 2\12 In un coupe.wav

Peak level 64.3 %
Extraction speed 5.6 X
Track quality 100.0 %
Test CRC 3B5A80F7
Copy CRC 3B5A80F7
Accurately ripped (confidence 3) [E9B2F0B7] (AR v2)
Copy OK

Track 13

Filename E:\MUSIC\My Music\La Boheme - Kraus - Scotto - Milnes - Levine\CD 2\13 Oh Mimi, tu piu non torni.wav

Peak level 65.2 %
Extraction speed 6.3 X
Track quality 100.0 %
Test CRC 097B819C
Copy CRC 097B819C
Accurately ripped (confidence 3) [774B80CE] (AR v2)
Copy OK

Track 14

Filename E:\MUSIC\My Music\La Boheme - Kraus - Scotto - Milnes - Levine\CD 2\14 Che ora sia.wav

Peak level 97.7 %
Extraction speed 4.4 X
Track quality 99.9 %
Test CRC 4417E664
Copy CRC 4417E664
Accurately ripped (confidence 3) [97F33AC2] (AR v2)
Copy OK

Track 15

Filename E:\MUSIC\My Music\La Boheme - Kraus - Scotto - Milnes - Levine\CD 2\15 Gavotta.wav

Peak level 83.8 %
Extraction speed 5.8 X
Track quality 100.0 %
Test CRC AEE40578
Copy CRC AEE40578
Accurately ripped (confidence 3) [591B36CE] (AR v2)
Copy OK

Track 16

Filename E:\MUSIC\My Music\La Boheme - Kraus - Scotto - Milnes - Levine\CD 2\16 C'e Mimi … C'e Mimi che mi segue.wav

Peak level 95.5 %
Extraction speed 7.6 X
Track quality 100.0 %
Test CRC A2C503C2
Copy CRC A2C503C2
Accurately ripped (confidence 3) [C2BFE78E] (AR v2)
Copy OK

Track 17

Filename E:\MUSIC\My Music\La Boheme - Kraus - Scotto - Milnes - Levine\CD 2\17 Vecchia zimarra, senti.wav

Peak level 40.5 %
Extraction speed 7.4 X
Track quality 100.0 %
Test CRC 049DF5FC
Copy CRC 049DF5FC
Accurately ripped (confidence 3) [7635C97F] (AR v2)
Copy OK

Track 18

Filename E:\MUSIC\My Music\La Boheme - Kraus - Scotto - Milnes - Levine\CD 2\18 Sono andati.wav

Peak level 76.3 %
Extraction speed 8.0 X
Track quality 100.0 %
Test CRC AFE900A4
Copy CRC AFE900A4
Accurately ripped (confidence 3) [B536AE9A] (AR v2)
Copy OK

Track 19

Filename E:\MUSIC\My Music\La Boheme - Kraus - Scotto - Milnes - Levine\CD 2\19 Che avvien.wav

Peak level 68.8 %
Extraction speed 8.0 X
Track quality 100.0 %
Test CRC 3CFE1502
Copy CRC 3CFE1502
Accurately ripped (confidence 3) [4CA0E425] (AR v2)
Copy OK

Track 20

Filename E:\MUSIC\My Music\La Boheme - Kraus - Scotto - Milnes - Levine\CD 2\20 Come va.wav

Peak level 93.8 %
Extraction speed 7.1 X
Track quality 100.0 %
Test CRC 0F2ADB13
Copy CRC 0F2ADB13
Accurately ripped (confidence 3) [9A99EF12] (AR v2)
Copy OK


All tracks accurately ripped

No errors occurred

End of status report

==== Log checksum 04F8A7F92DF5BA2D93CBB0E2F819A7BE107DE4EAD2CB9BDCDA3F1046A65BE385 ====