Subcategories

Prokofiev - Romeo and Juliet (Tamara Rojo, Carlos Acosta) (2009) [Blu-ray]

Posted By: Vilboa
Prokofiev - Romeo and Juliet (Tamara Rojo, Carlos Acosta) (2009) [Blu-ray]

Prokofiev - Romeo and Juliet (Tamara Rojo, Carlos Acosta) (2009)
BluRay | BDMV | MPEG-4 AVC Video / 1080i / 29,970 fps | 138 min | 33,1 Gb
Audio1: LPCM Audio / 2.0 / 24-bit | Audio2: DTS-HD Master Audio / 5.1 / 48 kHz / 24-bit

BluRay-rip | AVC | MKV 1920x1080 (16:9) / 6215 kbps / 29,97 fps | 138 min | 7,45 Gb
Audio: DTS / 6ch / 48.0 KHz / 24 bits
Classical | DECCA

Cuban Superstar Carlos Acosta dances Romeo in Kenneth Macmillan’s timeless version of the Shakespeare/Prokofiev Classic Ballet ‘Romeo & Juliet.’ In this perennial favourite, Carlos Acosta dances alongside his regular partner, the Spanish ballerina, Tamara Rojo – a celebrated stage partnership which currently has no equal. The drama of the doomed lovers is set against the ravishing sets and costumes designs of Nicholas Georgiadis.
“…excellent sound and picture quality. Nicholas Geogiadis's designs, dating from 1965. are still gorgeously redolent of Renaissance Verona, and the big scenes of street life and the Capulet ball are magnificent spectacles. One of today's dream partnerships, Tamara Rojo and Carlos Acosta, prove more than a match for their distinguished predecessors. …Rojo rises to the fierce dramatic challenges of the last act with electrifying intensity. …and Prokofiev's score is vigorously conducted by Boris Gruzin.” (Gramophone Magazine)
“As… the star-crossed lovers… the inspirational Carlos Acosta and the facially so expressive Tamara Rojo… galvanising conducted by Gruzin… all flaming testosterone thanks not only to Acosta and his Mercutio, José Martín, but also to the brutal Tybalt of Thiago Soares. Like all the character dancers here, he fills the role with life and energy. The final duel practically flies off the stage, the corps' reaction seems genuine and Elizabeth MacGorian's Lady Capulet makes the mother's-grieving curtain truly hair-raising for once. …at the Royal Ballet a classic is raised to an unsurpassable level.” (BBC Music Magazine)

Cast:
Juliet - Tamara Rojo
Romeo - Carlos Acosta
Mercutio - José Martín
Tybalt - Thiago Soares
Nurse - Sandra Conley
Lord Capulet - Christopher Saunders
Lady Capulet - Elizabeth McGorian
Paris - David Pickering
Benvolio - Yohei Sasaki
Royal Ballet Sinfonia
Conductor - Boris Gruzin
Choreography Kenneth Macmillan


General
ID : 0 (0x0)
Complete name : C:\ROMEO AND JULIET\BDMV\STREAM\00007.m2ts
Format : BDAV
Format/Info : Blu-ray Video
File size : 22.0 GiB
Duration : 1h 34mn
Overall bit rate mode : Variable
Overall bit rate : 33.3 Mbps
Maximum Overall bit rate : 48.0 Mbps

Video
ID : 4113 (0x1011)
Menu ID : 1 (0x1)
Format : AVC
Format/Info : Advanced Video Codec
Format profile : High@L4.1
Format settings, CABAC : Yes
Format settings, ReFrames : 4 frames
Codec ID : 27
Duration : 1h 34mn
Bit rate mode : Variable
Maximum bit rate : 33.0 Mbps
Width : 1 920 pixels
Height : 1 080 pixels
Display aspect ratio : 16:9
Frame rate : 29.970 fps
Color space : YUV
Chroma subsampling : 4:2:0
Bit depth : 8 bits
Scan type : MBAFF
Color primaries : BT.709
Transfer characteristics : BT.709
Matrix coefficients : BT.709

Audio #1
ID : 4352 (0x1100)
Menu ID : 1 (0x1)
Format : PCM
Format settings, Endianness : Big
Format settings, Sign : Signed
Muxing mode : Blu-ray
Codec ID : 128
Duration : 1h 34mn
Bit rate mode : Constant
Bit rate : 2 304 Kbps
Channel(s) : 2 channels
Channel positions : Front: L R
Sampling rate : 48.0 KHz
Bit depth : 24 bits
Stream size : 1.52 GiB (7%)

Audio #2
ID : 4353 (0x1101)
Menu ID : 1 (0x1)
Format : DTS
Format/Info : Digital Theater Systems
Format profile : MA / Core
Mode : 16
Format settings, Endianness : Big
Muxing mode : Stream extension
Codec ID : 134
Duration : 1h 34mn
Bit rate mode : Variable
Bit rate : Unknown / 1 509 Kbps
Channel(s) : 6 channels
Channel positions : Front: L C R, Side: L R, LFE
Sampling rate : 48.0 KHz
Bit depth : 24 bits
Compression mode : Lossless / Lossy


General
Unique ID : 249879245108887748738694834046408114347 (0xBBFCFDF7E171E99DAC96201142C8C0AB)
Complete name : C:\RomJulAcos\Romeo_and_Juliet.mkv
Format : Matroska
Format version : Version 2
File size : 7.46 GiB
Duration : 2h 18mn
Overall bit rate : 7 732 Kbps
Movie name : Romeo_and_Juliet
Encoded date : UTC 2016-04-28 09:24:51
Writing application : DVDFab 9.1.6.8
Writing library : libebml v0.7.8 + libmatroska v0.8.1

Video
ID : 1
Format : AVC
Format/Info : Advanced Video Codec
Format profile : High@L4.1
Format settings, CABAC : Yes
Format settings, ReFrames : 2 frames
Codec ID : V_MPEG4/ISO/AVC
Duration : 2h 18mn
Bit rate : 6 215 Kbps
Width : 1 920 pixels
Height : 1 080 pixels
Display aspect ratio : 16:9
Frame rate mode : Constant
Frame rate : 29.970 fps
Color space : YUV
Chroma subsampling : 4:2:0
Bit depth : 8 bits
Scan type : Progressive
Bits/(Pixel*Frame) : 0.100
Stream size : 5.85 GiB (78%)
Writing library : x264 core 142
Encoding settings : cabac=1 / ref=1 / deblock=1:-1:-1 / analyse=0x3:0 / me=hex / subme=5 / psy=0 / mixed_ref=0 / me_range=16 / chroma_me=1 / trellis=0 / 8x8dct=1 / cqm=0 / deadzone=21,11 / fast_pskip=1 / chroma_qp_offset=0 / threads=8 / lookahead_threads=2 / sliced_threads=0 / nr=0 / decimate=1 / interlaced=0 / bluray_compat=0 / constrained_intra=0 / bframes=2 / b_pyramid=0 / b_adapt=1 / b_bias=0 / direct=1 / weightb=1 / open_gop=0 / weightp=0 / keyint=24 / keyint_min=13 / scenecut=40 / intra_refresh=0 / rc=abr / mbtree=0 / bitrate=6215 / ratetol=1.0 / qcomp=0.60 / qpmin=0 / qpmax=69 / qpstep=4 / ip_ratio=1.40 / pb_ratio=1.30 / aq=1:1.00
Default : Yes
Forced : No
Color primaries : BT.709
Transfer characteristics : BT.709
Matrix coefficients : BT.709
Color range : Limited

Audio
ID : 2
Format : DTS
Format/Info : Digital Theater Systems
Mode : 16
Format settings, Endianness : Big
Codec ID : A_DTS
Duration : 2h 18mn
Bit rate mode : Constant
Bit rate : 1 509 Kbps
Channel(s) : 6 channels
Channel positions : Front: L C R, Side: L R, LFE
Sampling rate : 48.0 KHz
Bit depth : 24 bits
Compression mode : Lossy
Stream size : 1.46 GiB (20%)
Default : Yes
Forced : No

Menu
00:00:00.000 : en:Chapter 01
00:01:54.147 : en:Chapter 02
00:04:54.661 : en:Chapter 03
00:06:06.833 : en:Chapter 04
00:08:22.268 : en:Chapter 05
00:10:27.393 : en:Chapter 06
00:11:34.160 : en:Chapter 07
00:14:07.446 : en:Chapter 08
00:17:05.324 : en:Chapter 09
00:18:22.167 : en:Chapter 10
00:21:54.279 : en:Chapter 11
00:25:15.680 : en:Chapter 12
00:27:59.511 : en:Chapter 13
00:31:09.334 : en:Chapter 14
00:34:34.539 : en:Chapter 15
00:37:14.699 : en:Chapter 16
00:39:37.108 : en:Chapter 17
00:42:11.161 : en:Chapter 18
00:45:33.864 : en:Chapter 19
00:47:15.799 : en:Chapter 20
00:50:56.686 : en:Chapter 21
01:00:34.230 : en:Chapter 22
01:03:57.400 : en:Chapter 23
01:06:01.190 : en:Chapter 24
01:10:10.239 : en:Chapter 25
01:12:47.062 : en:Chapter 26
01:15:34.062 : en:Chapter 27
01:19:57.993 : en:Chapter 28
01:23:06.448 : en:Chapter 29
01:24:55.056 : en:Chapter 30
01:29:23.491 : en:Chapter 31
01:31:46.100 : en:Chapter 32
01:34:22.356 : en:Chapter 33
01:36:56.777 : en:Chapter 34
01:42:06.053 : en:Chapter 35
01:46:04.558 : en:Chapter 36
01:48:51.091 : en:Chapter 37
01:52:35.715 : en:Chapter 38
01:55:56.182 : en:Chapter 39
01:59:39.872 : en:Chapter 40
02:02:02.481 : en:Chapter 41
02:03:58.864 : en:Chapter 42
02:11:01.119 : en:Chapter 43
02:16:45.564 : en:Chapter 44


All screenshots taken from Blu-ray

Prokofiev - Romeo and Juliet (Tamara Rojo, Carlos Acosta) (2009) [Blu-ray]
Prokofiev - Romeo and Juliet (Tamara Rojo, Carlos Acosta) (2009) [Blu-ray]
Prokofiev - Romeo and Juliet (Tamara Rojo, Carlos Acosta) (2009) [Blu-ray]
Prokofiev - Romeo and Juliet (Tamara Rojo, Carlos Acosta) (2009) [Blu-ray]
Prokofiev - Romeo and Juliet (Tamara Rojo, Carlos Acosta) (2009) [Blu-ray]
Blu-Ray


BDRip