Subcategories

Pakarina - Panflute Melodies (2010)

Posted By: campestre70
Pakarina - Panflute Melodies (2010)

Pakarina - Panflute Melodies (2010)
Ethnic, Panflute, Instrumental | Flac (Tracks+Cue+Log) mp3 320kbps | 444Mb/170Mb
Label: Original Indian Artistic


Pakarina - Panflute Melodies (2010)


Instruments: Samponas, toyos, quena, quenacho, charango, acoustic guitar.
Efectos: Palo de lluvias, chacchas, pitos, pajaritos and okarina.

Tracklist
01. Sound of the Silence
02. Let It Be
03. Unchained Melody
04. Imagine
05. Aicha
06. Vasija De Barno
07. House of the Rising Sun
08. Hotel California
09. Chiquitita
10. The Power of Good Bye
11. I Do It for You
12. Ocarina
13. Moonlight Shadow
14. Wind of Change
15. Fernando

Exact Audio Copy V0.99 prebeta 4 from 23. January 2008

Отчёт EAC об извлечении, выполненном 29. июня 2010, 12:41

Pakarina / Panflute Melodies

Дисковод: Optiarc DVD RW AD-5200A Adapter: 0 ID: 0

Режим чтения : Достоверность
Использование точного потока : Да
Отключение кэша аудио : Да
Использование указателей C2 : Нет

Коррекция смещения при чтении : 48
Способность читать области Lead-in и Lead-out : Нет
Заполнение пропущенных сэмплов тишиной : Да
Удаление блоков с тишиной в начале и конце : Нет
При вычислениях CRC использовались нулевые сэмплы : Да
Интерфейс : Встроенный Win32-интерфейс для Win NT/2000
Обработка зазоров : Добавлено к предыдущему треку

Выходной формат : Пользовательский кодировщик
Выбранный битрейт : 768 kBit/s
Качество : Высокий
Добавление ID3-тэга : Нет
Утилита сжатия : C:\Program Files\Exact Audio Copy\FLAC\FLAC.EXE
Дополнительные параметры : -8 -V %s


TOC извлечённого CD

Трек | Старт | Длительность | Начальный сектор | Конечный сектор
––––––––––––––––––––––––––––––––––-
1 | 0:00.00 | 4:07.20 | 0 | 18544
2 | 4:07.20 | 4:03.50 | 18545 | 36819
3 | 8:10.70 | 3:42.56 | 36820 | 53525
4 | 11:53.51 | 3:39.64 | 53526 | 70014
5 | 15:33.40 | 4:45.08 | 70015 | 91397
6 | 20:18.48 | 5:49.57 | 91398 | 117629
7 | 26:08.30 | 4:31.25 | 117630 | 137979
8 | 30:39.55 | 6:46.47 | 137980 | 168476
9 | 37:26.27 | 5:19.47 | 168477 | 192448
10 | 42:45.74 | 4:44.72 | 192449 | 213820
11 | 47:30.71 | 5:16.45 | 213821 | 237565
12 | 52:47.41 | 5:15.52 | 237566 | 261242
13 | 58:03.18 | 3:13.33 | 261243 | 275750
14 | 61:16.51 | 5:11.09 | 275751 | 299084
15 | 66:27.60 | 3:48.53 | 299085 | 316237


Трек 1

Имя файла E:\For_Upload\LOSSLESS\01 Pakarina – Sound of the Silence.wav

Длина предзазора 0:00:02.00

Пиковый уровень 98.8 %
Качество трека 100.0 %
CRC теста 6D7E7A7F
CRC копии 6D7E7A7F
Трек не обнаружен в базе AccurateRip
Копирование… OK

Трек 2

Имя файла E:\For_Upload\LOSSLESS\02 Pakarina – Let It Be.wav

Длина предзазора 0:00:02.00

Пиковый уровень 98.8 %
Качество трека 100.0 %
CRC теста 46A24E1C
CRC копии 46A24E1C
Трек не обнаружен в базе AccurateRip
Копирование… OK

Трек 3

Имя файла E:\For_Upload\LOSSLESS\03 Pakarina – Unchained Melody.wav

Длина предзазора 0:00:02.00

Пиковый уровень 100.0 %
Качество трека 100.0 %
CRC теста 3046C659
CRC копии 3046C659
Трек не обнаружен в базе AccurateRip
Копирование… OK

Трек 4

Имя файла E:\For_Upload\LOSSLESS\04 Pakarina – Imagine.wav

Длина предзазора 0:00:02.00

Пиковый уровень 100.0 %
Качество трека 100.0 %
CRC теста 7737740C
CRC копии 7737740C
Трек не обнаружен в базе AccurateRip
Копирование… OK

Трек 5

Имя файла E:\For_Upload\LOSSLESS\05 Pakarina – Aicha.wav

Длина предзазора 0:00:02.00

Пиковый уровень 100.0 %
Качество трека 100.0 %
CRC теста F54083CB
CRC копии F54083CB
Трек не обнаружен в базе AccurateRip
Копирование… OK

Трек 6

Имя файла E:\For_Upload\LOSSLESS\06 Pakarina – Vasija De Barro.wav

Длина предзазора 0:00:02.00

Пиковый уровень 100.0 %
Качество трека 100.0 %
CRC теста 1E2F7CD6
CRC копии 1E2F7CD6
Трек не обнаружен в базе AccurateRip
Копирование… OK

Трек 7

Имя файла E:\For_Upload\LOSSLESS\07 Pakarina – House of the Rising Sun.wav

Длина предзазора 0:00:02.00

Пиковый уровень 80.6 %
Качество трека 100.0 %
CRC теста AEDFA821
CRC копии AEDFA821
Трек не обнаружен в базе AccurateRip
Копирование… OK

Трек 8

Имя файла E:\For_Upload\LOSSLESS\08 Pakarina – Hotel California.wav

Длина предзазора 0:00:02.00

Пиковый уровень 98.0 %
Качество трека 100.0 %
CRC теста D274BABD
CRC копии D274BABD
Трек не обнаружен в базе AccurateRip
Копирование… OK

Трек 9

Имя файла E:\For_Upload\LOSSLESS\09 Pakarina – Chiquitita.wav

Длина предзазора 0:00:02.00

Пиковый уровень 98.0 %
Качество трека 100.0 %
CRC теста E72C8D48
CRC копии E72C8D48
Трек не обнаружен в базе AccurateRip
Копирование… OK

Трек 10

Имя файла E:\For_Upload\LOSSLESS\10 Pakarina – The Power of Good Bye.wav

Длина предзазора 0:00:02.00

Пиковый уровень 98.0 %
Качество трека 100.0 %
CRC теста 02A54168
CRC копии 02A54168
Трек не обнаружен в базе AccurateRip
Копирование… OK

Трек 11

Имя файла E:\For_Upload\LOSSLESS\11 Pakarina – I Do It for You.wav

Длина предзазора 0:00:02.00

Пиковый уровень 99.9 %
Качество трека 100.0 %
CRC теста 6CA05DC4
CRC копии 6CA05DC4
Трек не обнаружен в базе AccurateRip
Копирование… OK

Трек 12

Имя файла E:\For_Upload\LOSSLESS\12 Pakarina – Ocarina.wav

Длина предзазора 0:00:02.00

Пиковый уровень 99.9 %
Качество трека 100.0 %
CRC теста 14CC4049
CRC копии 14CC4049
Трек не обнаружен в базе AccurateRip
Копирование… OK

Трек 13

Имя файла E:\For_Upload\LOSSLESS\13 Pakarina – Moonlight Shadow.wav

Длина предзазора 0:00:02.00

Пиковый уровень 100.0 %
Качество трека 100.0 %
CRC теста E93BDA04
CRC копии E93BDA04
Трек не обнаружен в базе AccurateRip
Копирование… OK

Трек 14

Имя файла E:\For_Upload\LOSSLESS\14 Pakarina – Wind of Change.wav

Длина предзазора 0:00:02.00

Пиковый уровень 100.0 %
Качество трека 99.9 %
CRC теста AF284E62
CRC копии AF284E62
Трек не обнаружен в базе AccurateRip
Копирование… OK

Трек 15

Имя файла E:\For_Upload\LOSSLESS\15 Pakarina – Fernando.wav

Длина предзазора 0:00:02.00

Пиковый уровень 98.8 %
Качество трека 100.0 %
CRC теста DC4BB418
CRC копии DC4BB418
Трек не обнаружен в базе AccurateRip
Копирование… OK


Ни одного трека нет в базе AccurateRip

Ошибок не произошло

Конец отчёта


DOWNLOAD

Uploading MP3
http://uploading.com/files/b83327c4/Pakarina%2B320.rar/

Uploading FLAC
http://uploading.com/files/7913ee5a/Pakarina_FLAC.part3.rar/
http://uploading.com/files/6a7ded5f/Pakarina_FLAC.part2.rar/
http://uploading.com/files/6fbfe841/Pakarina_FLAC.part1.rar/


Mirror mp3
http://sharingmatrix.com/file/13182365/Pakarina_320.rar

Mirror flac
http://sharingmatrix.com/file/13182357/Pakarina_FLAC.part1.rar
http://sharingmatrix.com/file/13182359/Pakarina_FLAC.part2.rar
http://sharingmatrix.com/file/13182361/Pakarina_FLAC.part3.rar

NO MIRRORS ACCORDING THE RULES.