VA - Popular Melodies That Will Live Forever (4CD) (1994) {Reader's Digest}

Posted By: TestTickles
VA - Popular Melodies That Will Live Forever (4CD) (1994) {Reader's Digest}

VA - Popular Melodies That Will Live Forever (4CD) (1994) {Reader's Digest}
EAC Rip | FLAC with CUE and log | scans, no booklet | 1.14 gb
MP3 CBR 320kbps | RAR | 552 mb
Genre: easy listening, classical, pop

Popular Melodies That Will Live Forever is a 4CD compilation released by Reader's Digest. This 1994 collection features some of the best easy listening music ever made which, like "Fame", will live forever.

VA - Popular Melodies That Will Live Forever (4CD) (1994) {Reader's Digest}

DISC 1
Singing The Easy-Listening Classics
01. Perry Como - Till The End Of Time
02. The Four Aces featuring Al Alberta - Stranger In Paradise
03. Della Reese - Don't You Know
04. Bing Crosby with The Ken Darby Singers - Anniversary Song
05. Tommy Dorsey featuring Frank Sinatra - I Think Of You
06. Peggy Lee - Baubles, Bangles And Beads
07. The Four Aces featuring Al Alberta - My Reverie
08. The Mills Brothers - Moonlight And Roses
09. Glenn Miller featuring Ray Eberle - The Story Of A Starry Night
10. Perry Como with The Satisfyers - I'm Always Chasing Rainbows
11. Freddy Martin featuring Clyde Rogers - Tonight We Love
Moonlight Piano Magic
12. Ronnie Price - Full Moon And Empty Arms
13. Ferrante & Teicher - Claire de Lune
14. Liberace - Minuet In G
15. Gordon Langford - Fantaisie Improptu
16. Liberace - Serenade
17. Carmen Cavaliaro - The Lamp Is Low
18. Liberace - Moonlight Seranade
19. Roger Williams - Brahms' Lullaby
20. Bill Snyder - Evening Star
21. Carmen Cavaliaro - Dream Of Love



DISC 2
The Classics…Sweet-Band Style
01. Harry James - Sleepy Lagoon
02. Guy Lombardo - Humoresque
03. Freddy Martin - Moon Love
04. Jan Garber - Medley:Tales Of The Vienna Woods/The Merry Widow Waltz/The Blue Danube
05. Russ Morgan - None But The Lonely Heart
06. Tommy Dorsey Featuring Frank Sinatra - Daybreak
07. Hal Kemp - In An 18Th Century Drawing Room
08. Blue Barron featuring Russ Carlyle - On The Isle Of May
09. Freddy Martin - Overture Miniature From The Nutcracker Suite
The Big Bands Swing The Classics
10. Freddy Martin - A Lover's Concerto
11. Glen Gray - Song Of India
12. Charlie Barnet Featuring Mary Ann McCall - The Breeze And I
13. Les Brown - Let's Dance
14. Woody Herman - Golden Wedding
15. Tommy Dorsey - Ritual Fire Dance
16. Les Brown - Bizet Has His Day
17. Stan Kenton - Sabre Dance
18. Ray McKinley & The New Glenn Miller Orchestra - Anvil Chorus




DISC 3
Classics For Pop Orchestra
01. Lawrence Welk - Scheherazade- The Young Prince & Princess Theme
02. Lawrence Welk - Skater's Waltz.wav
03. Lawrence Welk - 1812 Overture.wav
04. Lawrence Welk - It's All In The Game.wav
05. Arthur Fiedler & The Boston Pops Orchestra - Serenata
06. Henry Mancini - All By Myself.wav
07. Freddy Martin - Rhapsody In Blue.wav
08. Freddy Martin - Our Love.wav
09. Hugo Winterhalter - Hungarian Dance #5.wav
10. Paul Weston - No Other Love.wav
11. Lawrence Welk - Ah, So Pure From Martha.wav
Unforgettable Themes From Classic Films
12. Ferrante & Teicher - Theme From Elvira Madigan.wav
13. Freddy Martin - Warsaw Concerto.wav
14. Bob Ralston with Lawrence Welk - Theme From The Story Of Three Loves
15. Carmen Cavallaro - To Love Again.wav
16. Hugo Winterhalter - Spellbound Concerto.wav
17. Charles Fox - Seasons.wav
18. The Romantic Strings & Orchestra - Barry Lyndon Theme
19. Ferrante & Teicher - Theme From The Apartment
20. The London Cinema Orchestra - Theme From 2001: a space odyssey



DISC 4
Classic Themes From The Golden Age Of Radio And TV
01. Lawrence Welk - The Lone Ranger Theme
02. Los Indios Tabajaras - The Green Hornet Theme
03. The London Promenade Orchestra - Phillip Morris Theme Song
04. The Romantic Strings & Orchestra - I Love A Mystery Theme
05. Arthur Fiedler & The Boston Pops Orchestra - The FBI In Peace And War Theme
06. Paul Weston - The Bell Telephone Hour Theme
07. Paul Weston - The Goldbergs Theme
08. Los Indios Tabajaras - Masterpiece Theatre Theme.wav
Alfred Hitchcock Presents Theme
09. Arthur Fiedler & The Boston Pops Orchestra - Alfred Hitchcock Presents Theme
10. Hugo Winterhalter - Hallmark Hall Of Fame Theme
Minor: 1st Movement
The Classics On Stage
11. Freddy Martin - Grieg Piano Concerto In A Minor- 1st Movement
12. Freddy Martin featuring Artie Wayne - Strange Music
13. Lawrence Welk - One Fine Day
14. Peter Durchin - Sumertime
15. Arthur Fiedler & The Boston Pops Orchestra - And This Is My Beloved
16. Ferrante & Teicher - Malaguena
17. Henry Mancini - A Fifth Of Beethoven
18. The Sovereign Collection - Mozart 40
19. Henry Mancini - Joy
20. Glenn Derringer - Ode To Joy
21. Walter Murphy - Ravel's Bolero

VA - Popular Melodies That Will Live Forever (4CD) (1994) {Reader's Digest}


Exact Audio Copy V1.1 from 23. June 2015

EAC extraction logfile from 13. September 2016, 9:12

Various Artists / Popular Melodies That Will Live Forever (Disc 1)

Used drive : TEAC DVD-ROM DV-28SW Adapter: 1 ID: 0

Read mode : Secure
Utilize accurate stream : Yes
Defeat audio cache : Yes
Make use of C2 pointers : No

Read offset correction : 6
Overread into Lead-In and Lead-Out : No
Fill up missing offset samples with silence : Yes
Delete leading and trailing silent blocks : No
Null samples used in CRC calculations : Yes
Used interface : Native Win32 interface for Win NT & 2000
Gap handling : Appended to previous track

Used output format : Internal WAV Routines
Sample format : 44.100 Hz; 16 Bit; Stereo


TOC of the extracted CD

Track | Start | Length | Start sector | End sector
––––––––––––––––––––––––––––-
1 | 0:00.37 | 3:11.70 | 37 | 14431
2 | 3:12.32 | 3:00.13 | 14432 | 27944
3 | 6:12.45 | 2:36.32 | 27945 | 39676
4 | 8:49.02 | 3:16.00 | 39677 | 54376
5 | 12:05.02 | 2:57.10 | 54377 | 67661
6 | 15:02.12 | 3:17.00 | 67662 | 82436
7 | 18:19.12 | 3:38.10 | 82437 | 98796
8 | 21:57.22 | 3:14.65 | 98797 | 113411
9 | 25:12.12 | 3:30.73 | 113412 | 129234
10 | 28:43.10 | 3:11.22 | 129235 | 143581
11 | 31:54.32 | 3:16.63 | 143582 | 158344
12 | 35:11.20 | 3:38.12 | 158345 | 174706
13 | 38:49.32 | 4:20.65 | 174707 | 194271
14 | 43:10.22 | 3:16.08 | 194272 | 208979
15 | 46:26.30 | 3:10.27 | 208980 | 223256
16 | 49:36.57 | 3:22.65 | 223257 | 238471
17 | 52:59.47 | 3:28.38 | 238472 | 254109
18 | 56:28.10 | 4:13.70 | 254110 | 273154
19 | 60:42.05 | 2:10.35 | 273155 | 282939
20 | 62:52.40 | 2:27.05 | 282940 | 293969
21 | 65:19.45 | 4:18.72 | 293970 | 313391


Track 1

Filename C:\My Documents\My FLAC\VA - Popular Melodies That Will Live Forever (4CD) (1994) [FLAC] {Reader's Digest}\Disc 1\01 - Perry Como - Till The End Of Time.wav

Pre-gap length 0:00:02.37

Peak level 77.7 %
Extraction speed 2.7 X
Track quality 100.0 %
Test CRC 4E91DC61
Copy CRC 4E91DC61
Accurately ripped (confidence 1) [0C245787] (AR v2)
Copy OK

Track 2

Filename C:\My Documents\My FLAC\VA - Popular Melodies That Will Live Forever (4CD) (1994) [FLAC] {Reader's Digest}\Disc 1\02 - The Four Aces featuring Al Alberta - Stranger In Paradise.wav

Pre-gap length 0:00:02.37

Peak level 71.5 %
Extraction speed 2.8 X
Track quality 100.0 %
Test CRC D3BC3406
Copy CRC D3BC3406
Accurately ripped (confidence 1) [8693E7BA] (AR v2)
Copy OK

Track 3

Filename C:\My Documents\My FLAC\VA - Popular Melodies That Will Live Forever (4CD) (1994) [FLAC] {Reader's Digest}\Disc 1\03 - Della Reese - Don't You Know.wav

Pre-gap length 0:00:02.57

Peak level 65.0 %
Extraction speed 3.0 X
Track quality 100.0 %
Test CRC A6ECBD2B
Copy CRC A6ECBD2B
Accurately ripped (confidence 1) [DEAE119C] (AR v2)
Copy OK

Track 4

Filename C:\My Documents\My FLAC\VA - Popular Melodies That Will Live Forever (4CD) (1994) [FLAC] {Reader's Digest}\Disc 1\04 - Bing Crosby with The Ken Darby Singers - Anniversary Song.wav

Pre-gap length 0:00:02.65

Peak level 94.6 %
Extraction speed 3.2 X
Track quality 100.0 %
Test CRC 27158A97
Copy CRC 27158A97
Accurately ripped (confidence 1) [67AD3817] (AR v2)
Copy OK

Track 5

Filename C:\My Documents\My FLAC\VA - Popular Melodies That Will Live Forever (4CD) (1994) [FLAC] {Reader's Digest}\Disc 1\05 - Tommy Dorsey featuring Frank Sinatra - I Think Of You.wav

Pre-gap length 0:00:03.10

Peak level 98.0 %
Extraction speed 3.3 X
Track quality 100.0 %
Test CRC 21F60369
Copy CRC 21F60369
Accurately ripped (confidence 1) [61E922C1] (AR v2)
Copy OK

Track 6

Filename C:\My Documents\My FLAC\VA - Popular Melodies That Will Live Forever (4CD) (1994) [FLAC] {Reader's Digest}\Disc 1\06 - Peggy Lee - Baubles, Bangles And Beads.wav

Pre-gap length 0:00:02.70

Peak level 71.3 %
Extraction speed 3.6 X
Track quality 100.0 %
Test CRC FBD6439A
Copy CRC FBD6439A
Accurately ripped (confidence 1) [E94F7ABC] (AR v2)
Copy OK

Track 7

Filename C:\My Documents\My FLAC\VA - Popular Melodies That Will Live Forever (4CD) (1994) [FLAC] {Reader's Digest}\Disc 1\07 - The Four Aces featuring Al Alberta - My Reverie.wav

Pre-gap length 0:00:02.60

Peak level 79.3 %
Extraction speed 3.2 X
Track quality 99.9 %
Test CRC 9E98BE74
Copy CRC 9E98BE74
Accurately ripped (confidence 1) [7D729ABA] (AR v2)
Copy OK

Track 8

Filename C:\My Documents\My FLAC\VA - Popular Melodies That Will Live Forever (4CD) (1994) [FLAC] {Reader's Digest}\Disc 1\08 - The Mills Brothers - Moonlight And Roses.wav

Pre-gap length 0:00:02.70

Peak level 59.0 %
Extraction speed 3.2 X
Track quality 99.9 %
Test CRC 32BC786E
Copy CRC 32BC786E
Accurately ripped (confidence 1) [9D2134F4] (AR v2)
Copy OK

Track 9

Filename C:\My Documents\My FLAC\VA - Popular Melodies That Will Live Forever (4CD) (1994) [FLAC] {Reader's Digest}\Disc 1\09 - Glenn Miller featuring Ray Eberle - The Story Of A Starry Night.wav

Pre-gap length 0:00:02.10

Peak level 79.4 %
Extraction speed 4.1 X
Track quality 100.0 %
Test CRC 33DFB3B4
Copy CRC 33DFB3B4
Accurately ripped (confidence 1) [6C82EB80] (AR v2)
Copy OK

Track 10

Filename C:\My Documents\My FLAC\VA - Popular Melodies That Will Live Forever (4CD) (1994) [FLAC] {Reader's Digest}\Disc 1\10 - Perry Como with The Satisfyers - I'm Always Chasing Rainbows.wav

Pre-gap length 0:00:02.67

Peak level 62.3 %
Extraction speed 4.2 X
Track quality 100.0 %
Test CRC 78D0D510
Copy CRC 78D0D510
Accurately ripped (confidence 1) [D1D1179D] (AR v2)
Copy OK

Track 11

Filename C:\My Documents\My FLAC\VA - Popular Melodies That Will Live Forever (4CD) (1994) [FLAC] {Reader's Digest}\Disc 1\11 - Freddy Martin featuring Clyde Rogers - Tonight We Love.wav

Pre-gap length 0:00:03.12

Peak level 81.5 %
Extraction speed 3.6 X
Track quality 99.9 %
Test CRC 711C20B4
Copy CRC 711C20B4
Accurately ripped (confidence 1) [5A86E511] (AR v2)
Copy OK

Track 12

Filename C:\My Documents\My FLAC\VA - Popular Melodies That Will Live Forever (4CD) (1994) [FLAC] {Reader's Digest}\Disc 1\12 - Ronnie Price - Full Moon And Empty Arms.wav

Pre-gap length 0:00:03.12

Peak level 83.6 %
Extraction speed 4.5 X
Track quality 100.0 %
Test CRC FC58783A
Copy CRC FC58783A
Accurately ripped (confidence 1) [91A7A3F9] (AR v2)
Copy OK

Track 13

Filename C:\My Documents\My FLAC\VA - Popular Melodies That Will Live Forever (4CD) (1994) [FLAC] {Reader's Digest}\Disc 1\13 - Ferrante & Teicher - Claire de Lune.wav

Pre-gap length 0:00:03.17

Peak level 81.6 %
Extraction speed 4.8 X
Track quality 100.0 %
Test CRC 946AA6BB
Copy CRC 946AA6BB
Accurately ripped (confidence 1) [E8A1327F] (AR v2)
Copy OK

Track 14

Filename C:\My Documents\My FLAC\VA - Popular Melodies That Will Live Forever (4CD) (1994) [FLAC] {Reader's Digest}\Disc 1\14 - Liberace - Minuet In G.wav

Pre-gap length 0:00:02.70

Peak level 79.3 %
Extraction speed 4.7 X
Track quality 100.0 %
Test CRC 582059C4
Copy CRC 582059C4
Accurately ripped (confidence 1) [D800B8BD] (AR v2)
Copy OK

Track 15

Filename C:\My Documents\My FLAC\VA - Popular Melodies That Will Live Forever (4CD) (1994) [FLAC] {Reader's Digest}\Disc 1\15 - Gordon Langford - Fantaisie Improptu.wav

Pre-gap length 0:00:03.15

Peak level 75.8 %
Extraction speed 4.8 X
Track quality 100.0 %
Test CRC 2CFC551D
Copy CRC 2CFC551D
Accurately ripped (confidence 1) [D005C8BE] (AR v2)
Copy OK

Track 16

Filename C:\My Documents\My FLAC\VA - Popular Melodies That Will Live Forever (4CD) (1994) [FLAC] {Reader's Digest}\Disc 1\16 - Liberace - Serenade.wav

Pre-gap length 0:00:02.47

Peak level 74.5 %
Extraction speed 4.1 X
Track quality 99.9 %
Test CRC D60741EF
Copy CRC D60741EF
Accurately ripped (confidence 1) [8D82CE8C] (AR v2)
Copy OK

Track 17

Filename C:\My Documents\My FLAC\VA - Popular Melodies That Will Live Forever (4CD) (1994) [FLAC] {Reader's Digest}\Disc 1\17 - Carmen Cavaliaro - The Lamp Is Low.wav

Pre-gap length 0:00:03.47

Peak level 72.4 %
Extraction speed 3.9 X
Track quality 99.9 %
Test CRC F6BB061C
Copy CRC F6BB061C
Accurately ripped (confidence 1) [89FC8F82] (AR v2)
Copy OK

Track 18

Filename C:\My Documents\My FLAC\VA - Popular Melodies That Will Live Forever (4CD) (1994) [FLAC] {Reader's Digest}\Disc 1\18 - Liberace - Moonlight Seranade.wav

Pre-gap length 0:00:03.07

Peak level 75.3 %
Extraction speed 4.1 X
Track quality 99.9 %
Test CRC 5A1AB6C6
Copy CRC 5A1AB6C6
Accurately ripped (confidence 1) [E9567689] (AR v2)
Copy OK

Track 19

Filename C:\My Documents\My FLAC\VA - Popular Melodies That Will Live Forever (4CD) (1994) [FLAC] {Reader's Digest}\Disc 1\19 - Roger Williams - Brahms' Lullaby.wav

Pre-gap length 0:00:03.40

Peak level 68.4 %
Extraction speed 3.6 X
Track quality 99.9 %
Test CRC E13E6335
Copy CRC E13E6335
Accurately ripped (confidence 1) [F68E9B60] (AR v2)
Copy OK

Track 20

Filename C:\My Documents\My FLAC\VA - Popular Melodies That Will Live Forever (4CD) (1994) [FLAC] {Reader's Digest}\Disc 1\20 - Bill Snyder - Evening Star.wav

Pre-gap length 0:00:03.65

Peak level 65.9 %
Extraction speed 3.5 X
Track quality 99.9 %
Test CRC E59990CE
Copy CRC E59990CE
Accurately ripped (confidence 1) [3E2D40F5] (AR v2)
Copy OK

Track 21

Filename C:\My Documents\My FLAC\VA - Popular Melodies That Will Live Forever (4CD) (1994) [FLAC] {Reader's Digest}\Disc 1\21 - Carmen Cavaliaro - Dream Of Love.wav

Pre-gap length 0:00:03.50

Peak level 58.9 %
Extraction speed 4.8 X
Track quality 99.9 %
Test CRC 3F0DCCEC
Copy CRC 3F0DCCEC
Accurately ripped (confidence 1) [1CFA4C32] (AR v2)
Copy OK


All tracks accurately ripped

No errors occurred

End of status report

–– CUETools DB Plugin V2.1.6

[CTDB TOCID: WAVUylp6mR6JYO5R2NeQchsLnEQ-] disk not present in database
Submit result: WAVUylp6mR6JYO5R2NeQchsLnEQ- has been uploaded


==== Log checksum 3AB7BBFBE0D72D58F3C9B869089C360D8AD87F4C162BD9B92F2EF99B69201485 ====





Exact Audio Copy V1.1 from 23. June 2015

EAC extraction logfile from 13. September 2016, 10:10

Various Artists / Popular Melodies That Will Last Forever (Disc 2)

Used drive : TEAC DVD-ROM DV-28SW Adapter: 1 ID: 0

Read mode : Secure
Utilize accurate stream : Yes
Defeat audio cache : Yes
Make use of C2 pointers : No

Read offset correction : 6
Overread into Lead-In and Lead-Out : No
Fill up missing offset samples with silence : Yes
Delete leading and trailing silent blocks : No
Null samples used in CRC calculations : Yes
Used interface : Native Win32 interface for Win NT & 2000
Gap handling : Appended to previous track

Used output format : Internal WAV Routines
Sample format : 44.100 Hz; 16 Bit; Stereo


TOC of the extracted CD

Track | Start | Length | Start sector | End sector
––––––––––––––––––––––––––––-
1 | 0:00.37 | 3:10.55 | 37 | 14341
2 | 3:11.17 | 2:30.48 | 14342 | 25639
3 | 5:41.65 | 2:44.05 | 25640 | 37944
4 | 8:25.70 | 4:36.07 | 37945 | 58651
5 | 13:02.02 | 2:38.45 | 58652 | 70546
6 | 15:40.47 | 3:13.40 | 70547 | 85061
7 | 18:54.12 | 2:48.15 | 85062 | 97676
8 | 21:42.27 | 3:22.48 | 97677 | 112874
9 | 25:05.00 | 3:05.70 | 112875 | 126819
10 | 28:10.70 | 2:58.00 | 126820 | 140169
11 | 31:08.70 | 3:06.15 | 140170 | 154134
12 | 34:15.10 | 2:57.10 | 154135 | 167419
13 | 37:12.20 | 2:14.02 | 167420 | 177471
14 | 39:26.22 | 3:17.73 | 177472 | 192319
15 | 42:44.20 | 2:15.70 | 192320 | 202514
16 | 45:00.15 | 2:24.30 | 202515 | 213344
17 | 47:24.45 | 4:18.27 | 213345 | 232721
18 | 51:42.72 | 4:03.43 | 232722 | 250989


Track 1

Filename C:\My Documents\My FLAC\VA - Popular Melodies That Will Live Forever (4CD) (1994) [FLAC] {Reader's Digest}\Disc 2\01 - Harry James - Sleepy Lagoon.wav

Pre-gap length 0:00:02.37

Peak level 86.9 %
Extraction speed 2.6 X
Track quality 100.0 %
Test CRC 2F50C15C
Copy CRC 2F50C15C
Accurately ripped (confidence 1) [C63ED129] (AR v2)
Copy OK

Track 2

Filename C:\My Documents\My FLAC\VA - Popular Melodies That Will Live Forever (4CD) (1994) [FLAC] {Reader's Digest}\Disc 2\02 - Guy Lombardo - Humoresque.wav

Pre-gap length 0:00:02.50

Peak level 69.1 %
Extraction speed 2.8 X
Track quality 100.0 %
Test CRC F80D84D0
Copy CRC F80D84D0
Accurately ripped (confidence 1) [DB7DFDE2] (AR v2)
Copy OK

Track 3

Filename C:\My Documents\My FLAC\VA - Popular Melodies That Will Live Forever (4CD) (1994) [FLAC] {Reader's Digest}\Disc 2\03 - Freddy Martin - Moon Love.wav

Pre-gap length 0:00:02.27

Peak level 71.9 %
Extraction speed 3.0 X
Track quality 100.0 %
Test CRC 146A8993
Copy CRC 146A8993
Accurately ripped (confidence 1) [D3539CB3] (AR v2)
Copy OK

Track 4

Filename C:\My Documents\My FLAC\VA - Popular Melodies That Will Live Forever (4CD) (1994) [FLAC] {Reader's Digest}\Disc 2\04 - Jan Garber - Medley- Tales Of The Vienna Woods,The Merry Widow Waltz,The Blue Danube.wav

Pre-gap length 0:00:02.07

Peak level 89.3 %
Extraction speed 3.5 X
Track quality 100.0 %
Test CRC 2732955D
Copy CRC 2732955D
Accurately ripped (confidence 1) [BE06A135] (AR v2)
Copy OK

Track 5

Filename C:\My Documents\My FLAC\VA - Popular Melodies That Will Live Forever (4CD) (1994) [FLAC] {Reader's Digest}\Disc 2\05 - Russ Morgan - None But The Lonely Heart.wav

Pre-gap length 0:00:02.70

Peak level 73.1 %
Extraction speed 3.5 X
Track quality 100.0 %
Test CRC ADA49379
Copy CRC ADA49379
Accurately ripped (confidence 1) [7DBE64E5] (AR v2)
Copy OK

Track 6

Filename C:\My Documents\My FLAC\VA - Popular Melodies That Will Live Forever (4CD) (1994) [FLAC] {Reader's Digest}\Disc 2\06 - Tommy Dorsey Featuring Frank Sinatra - Daybreak.wav

Pre-gap length 0:00:02.25

Peak level 78.6 %
Extraction speed 3.0 X
Track quality 99.9 %
Test CRC 4958B1B2
Copy CRC 4958B1B2
Accurately ripped (confidence 1) [576CA16C] (AR v2)
Copy OK

Track 7

Filename C:\My Documents\My FLAC\VA - Popular Melodies That Will Live Forever (4CD) (1994) [FLAC] {Reader's Digest}\Disc 2\07 - Hal Kemp - In An 18Th Century Drawing Room.wav

Pre-gap length 0:00:02.67

Peak level 69.1 %
Extraction speed 3.8 X
Track quality 100.0 %
Test CRC FF68A830
Copy CRC FF68A830
Accurately ripped (confidence 1) [78E6B3E2] (AR v2)
Copy OK

Track 8

Filename C:\My Documents\My FLAC\VA - Popular Melodies That Will Live Forever (4CD) (1994) [FLAC] {Reader's Digest}\Disc 2\08 - Blue Barron,Russ Carlyle - On The Isle Of May.wav

Pre-gap length 0:00:02.17

Peak level 71.3 %
Extraction speed 4.1 X
Track quality 100.0 %
Test CRC 74526AB6
Copy CRC 74526AB6
Accurately ripped (confidence 1) [102420F5] (AR v2)
Copy OK

Track 9

Filename C:\My Documents\My FLAC\VA - Popular Melodies That Will Live Forever (4CD) (1994) [FLAC] {Reader's Digest}\Disc 2\09 - Freddy Martin - Overture Miniature From The Nutcracker Suite.wav

Pre-gap length 0:00:02.60

Peak level 66.8 %
Extraction speed 3.4 X
Track quality 99.9 %
Test CRC 163B60C0
Copy CRC 163B60C0
Accurately ripped (confidence 1) [FCC9A8B3] (AR v2)
Copy OK

Track 10

Filename C:\My Documents\My FLAC\VA - Popular Melodies That Will Live Forever (4CD) (1994) [FLAC] {Reader's Digest}\Disc 2\10 - Freddy Martin - A Lover's Concerto.wav

Pre-gap length 0:00:02.62

Peak level 72.7 %
Extraction speed 4.3 X
Track quality 100.0 %
Test CRC 328E3C04
Copy CRC 328E3C04
Accurately ripped (confidence 1) [D51FE093] (AR v2)
Copy OK

Track 11

Filename C:\My Documents\My FLAC\VA - Popular Melodies That Will Live Forever (4CD) (1994) [FLAC] {Reader's Digest}\Disc 2\11 - Glen Gray - Song Of India.wav

Pre-gap length 0:00:02.05

Peak level 88.6 %
Extraction speed 4.4 X
Track quality 100.0 %
Test CRC 9A8ECF8A
Copy CRC 9A8ECF8A
Accurately ripped (confidence 1) [65A4FF39] (AR v2)
Copy OK

Track 12

Filename C:\My Documents\My FLAC\VA - Popular Melodies That Will Live Forever (4CD) (1994) [FLAC] {Reader's Digest}\Disc 2\12 - Charlie Barnet Featuring Mary Ann McCall - The Breeze And I.wav

Pre-gap length 0:00:02.20

Peak level 89.5 %
Extraction speed 4.5 X
Track quality 100.0 %
Test CRC 223CC0DB
Copy CRC 223CC0DB
Accurately ripped (confidence 1) [C2A31077] (AR v2)
Copy OK

Track 13

Filename C:\My Documents\My FLAC\VA - Popular Melodies That Will Live Forever (4CD) (1994) [FLAC] {Reader's Digest}\Disc 2\13 - Les Brown - Let's Dance.wav

Pre-gap length 0:00:02.62

Peak level 84.8 %
Extraction speed 4.3 X
Track quality 100.0 %
Test CRC 31CFD6FD
Copy CRC 31CFD6FD
Accurately ripped (confidence 1) [73BA46D9] (AR v2)
Copy OK

Track 14

Filename C:\My Documents\My FLAC\VA - Popular Melodies That Will Live Forever (4CD) (1994) [FLAC] {Reader's Digest}\Disc 2\14 - Woody Herman - Golden Wedding.wav

Pre-gap length 0:00:02.60

Peak level 79.9 %
Extraction speed 4.9 X
Track quality 100.0 %
Test CRC CC1B6D14
Copy CRC CC1B6D14
Accurately ripped (confidence 1) [A312A17F] (AR v2)
Copy OK

Track 15

Filename C:\My Documents\My FLAC\VA - Popular Melodies That Will Live Forever (4CD) (1994) [FLAC] {Reader's Digest}\Disc 2\15 - Tommy Dorsey - Ritual Fire Dance.wav

Pre-gap length 0:00:03.17

Peak level 73.4 %
Extraction speed 4.6 X
Track quality 100.0 %
Test CRC 33C11BB3
Copy CRC 33C11BB3
Accurately ripped (confidence 1) [9914C126] (AR v2)
Copy OK

Track 16

Filename C:\My Documents\My FLAC\VA - Popular Melodies That Will Live Forever (4CD) (1994) [FLAC] {Reader's Digest}\Disc 2\16 - Les Brown - Bizet Has His Day.wav

Pre-gap length 0:00:03.72

Peak level 82.9 %
Extraction speed 3.7 X
Track quality 99.9 %
Test CRC 48564CA8
Copy CRC 48564CA8
Accurately ripped (confidence 1) [0C14D105] (AR v2)
Copy OK

Track 17

Filename C:\My Documents\My FLAC\VA - Popular Melodies That Will Live Forever (4CD) (1994) [FLAC] {Reader's Digest}\Disc 2\17 - Stan Kenton - Sabre Dance.wav

Pre-gap length 0:00:02.57

Peak level 82.5 %
Extraction speed 5.4 X
Track quality 100.0 %
Test CRC BD1A7014
Copy CRC BD1A7014
Accurately ripped (confidence 1) [82570061] (AR v2)
Copy OK

Track 18

Filename C:\My Documents\My FLAC\VA - Popular Melodies That Will Live Forever (4CD) (1994) [FLAC] {Reader's Digest}\Disc 2\18 - Ray McKinley & The New Glenn Miller Orchestra - Anvil Chorus.wav

Pre-gap length 0:00:02.72

Peak level 67.1 %
Extraction speed 5.5 X
Track quality 100.0 %
Test CRC 9C4C5F7D
Copy CRC 9C4C5F7D
Accurately ripped (confidence 1) [3851A142] (AR v2)
Copy OK


All tracks accurately ripped

No errors occurred

End of status report

–– CUETools DB Plugin V2.1.6

[CTDB TOCID: 8NpE139phnyyWfRRB8yx.gFpA_A-] disk not present in database
Submit result: 8NpE139phnyyWfRRB8yx.gFpA_A- has been uploaded


==== Log checksum C61EF685FD773B7CC5451510282E5034E7FD11FB4185500F7A445D9A4C7E36FB ====





Exact Audio Copy V1.1 from 23. June 2015

EAC extraction logfile from 13. September 2016, 10:55

Various Artists / Popular Melodies That Will Live Forever (Disc 3)

Used drive : TEAC DVD-ROM DV-28SW Adapter: 1 ID: 0

Read mode : Secure
Utilize accurate stream : Yes
Defeat audio cache : Yes
Make use of C2 pointers : No

Read offset correction : 6
Overread into Lead-In and Lead-Out : No
Fill up missing offset samples with silence : Yes
Delete leading and trailing silent blocks : No
Null samples used in CRC calculations : Yes
Used interface : Native Win32 interface for Win NT & 2000
Gap handling : Appended to previous track

Used output format : Internal WAV Routines
Sample format : 44.100 Hz; 16 Bit; Stereo


TOC of the extracted CD

Track | Start | Length | Start sector | End sector
––––––––––––––––––––––––––––-
1 | 0:00.37 | 2:39.20 | 37 | 11981
2 | 2:39.57 | 1:56.50 | 11982 | 20731
3 | 4:36.32 | 3:09.58 | 20732 | 34964
4 | 7:46.15 | 2:32.60 | 34965 | 46424
5 | 10:19.00 | 3:49.72 | 46425 | 63671
6 | 14:08.72 | 3:48.05 | 63672 | 80776
7 | 17:57.02 | 3:11.38 | 80777 | 95139
8 | 21:08.40 | 2:18.27 | 95140 | 105516
9 | 23:26.67 | 2:54.73 | 105517 | 118639
10 | 26:21.65 | 3:23.02 | 118640 | 133866
11 | 29:44.67 | 2:39.38 | 133867 | 145829
12 | 32:24.30 | 3:26.65 | 145830 | 161344
13 | 35:51.20 | 3:01.37 | 161345 | 174956
14 | 38:52.57 | 2:35.30 | 174957 | 186611
15 | 41:28.12 | 3:36.28 | 186612 | 202839
16 | 45:04.40 | 3:03.30 | 202840 | 216594
17 | 48:07.70 | 3:05.72 | 216595 | 230541
18 | 51:13.67 | 2:52.58 | 230542 | 243499
19 | 54:06.50 | 3:03.37 | 243500 | 257261
20 | 57:10.12 | 2:00.60 | 257262 | 266321


Track 1

Filename C:\My Documents\My FLAC\VA - Popular Melodies That Will Live Forever (4CD) (1994) [FLAC] {Reader's Digest}\Disc 3\01 - Lawrence Welk - Scheherazade- The Young Prince & Princess Theme.wav

Pre-gap length 0:00:02.37

Peak level 65.8 %
Extraction speed 2.5 X
Track quality 100.0 %
Test CRC 5B7F7AF8
Copy CRC 5B7F7AF8
Accurately ripped (confidence 1) [2D65EB67] (AR v2)
Copy OK

Track 2

Filename C:\My Documents\My FLAC\VA - Popular Melodies That Will Live Forever (4CD) (1994) [FLAC] {Reader's Digest}\Disc 3\02 - Lawrence Welk - Skater's Waltz.wav

Pre-gap length 0:00:03.22

Peak level 63.8 %
Extraction speed 2.3 X
Track quality 100.0 %
Test CRC 93CD0A2C
Copy CRC 93CD0A2C
Accurately ripped (confidence 1) [D11E2EE2] (AR v2)
Copy OK

Track 3

Filename C:\My Documents\My FLAC\VA - Popular Melodies That Will Live Forever (4CD) (1994) [FLAC] {Reader's Digest}\Disc 3\03 - Lawrence Welk - 1812 Overture.wav

Pre-gap length 0:00:02.17

Peak level 76.6 %
Extraction speed 2.8 X
Track quality 100.0 %
Test CRC 2F2FB270
Copy CRC 2F2FB270
Accurately ripped (confidence 1) [74E3F62D] (AR v2)
Copy OK

Track 4

Filename C:\My Documents\My FLAC\VA - Popular Melodies That Will Live Forever (4CD) (1994) [FLAC] {Reader's Digest}\Disc 3\04 - Lawrence Welk - It's All In The Game.wav

Pre-gap length 0:00:03.10

Peak level 73.6 %
Extraction speed 3.1 X
Track quality 100.0 %
Test CRC B22BCC62
Copy CRC B22BCC62
Accurately ripped (confidence 1) [62E3685F] (AR v2)
Copy OK

Track 5

Filename C:\My Documents\My FLAC\VA - Popular Melodies That Will Live Forever (4CD) (1994) [FLAC] {Reader's Digest}\Disc 3\05 - Arthur Fiedler & The Boston Pops Orchestra - Serenata.wav

Pre-gap length 0:00:03.22

Peak level 55.6 %
Extraction speed 3.5 X
Track quality 100.0 %
Test CRC 9ECFFE07
Copy CRC 9ECFFE07
Accurately ripped (confidence 1) [CBF5970A] (AR v2)
Copy OK

Track 6

Filename C:\My Documents\My FLAC\VA - Popular Melodies That Will Live Forever (4CD) (1994) [FLAC] {Reader's Digest}\Disc 3\06 - Henry Mancini - All By Myself.wav

Pre-gap length 0:00:03.20

Peak level 72.7 %
Extraction speed 3.2 X
Track quality 99.9 %
Test CRC AB2C4F65
Copy CRC AB2C4F65
Accurately ripped (confidence 1) [D2A10918] (AR v2)
Copy OK

Track 7

Filename C:\My Documents\My FLAC\VA - Popular Melodies That Will Live Forever (4CD) (1994) [FLAC] {Reader's Digest}\Disc 3\07 - Freddy Martin - Rhapsody In Blue.wav

Pre-gap length 0:00:03.27

Peak level 82.6 %
Extraction speed 3.9 X
Track quality 100.0 %
Test CRC AD0AB9B5
Copy CRC AD0AB9B5
Accurately ripped (confidence 1) [5C8CC3E5] (AR v2)
Copy OK

Track 8

Filename C:\My Documents\My FLAC\VA - Popular Melodies That Will Live Forever (4CD) (1994) [FLAC] {Reader's Digest}\Disc 3\08 - Freddy Martin - Our Love.wav

Pre-gap length 0:00:02.55

Peak level 74.3 %
Extraction speed 3.8 X
Track quality 100.0 %
Test CRC E6ED8D7D
Copy CRC E6ED8D7D
Accurately ripped (confidence 1) [6F57184A] (AR v2)
Copy OK

Track 9

Filename C:\My Documents\My FLAC\VA - Popular Melodies That Will Live Forever (4CD) (1994) [FLAC] {Reader's Digest}\Disc 3\09 - Hugo Winterhalter - Hungarian Dance #5.wav

Pre-gap length 0:00:02.70

Peak level 82.1 %
Extraction speed 3.3 X
Track quality 99.9 %
Test CRC 08FC8D33
Copy CRC 08FC8D33
Accurately ripped (confidence 1) [450CD064] (AR v2)
Copy OK

Track 10

Filename C:\My Documents\My FLAC\VA - Popular Melodies That Will Live Forever (4CD) (1994) [FLAC] {Reader's Digest}\Disc 3\10 - Paul Weston - No Other Love.wav

Pre-gap length 0:00:02.42

Peak level 70.3 %
Extraction speed 4.4 X
Track quality 100.0 %
Test CRC D53721B6
Copy CRC D53721B6
Accurately ripped (confidence 1) [A5254A4F] (AR v2)
Copy OK

Track 11

Filename C:\My Documents\My FLAC\VA - Popular Melodies That Will Live Forever (4CD) (1994) [FLAC] {Reader's Digest}\Disc 3\11 - Lawrence Welk - Ah, So Pure From Martha.wav

Pre-gap length 0:00:02.55

Peak level 92.5 %
Extraction speed 4.1 X
Track quality 100.0 %
Test CRC 5AF2FB37
Copy CRC 5AF2FB37
Accurately ripped (confidence 1) [09D943C5] (AR v2)
Copy OK

Track 12

Filename C:\My Documents\My FLAC\VA - Popular Melodies That Will Live Forever (4CD) (1994) [FLAC] {Reader's Digest}\Disc 3\12 - Ferrante & Teicher - Theme From Elvira Madigan.wav

Pre-gap length 0:00:03.25

Peak level 83.9 %
Extraction speed 4.6 X
Track quality 100.0 %
Test CRC 07946CA1
Copy CRC 07946CA1
Accurately ripped (confidence 1) [A695ECB7] (AR v2)
Copy OK

Track 13

Filename C:\My Documents\My FLAC\VA - Popular Melodies That Will Live Forever (4CD) (1994) [FLAC] {Reader's Digest}\Disc 3\13 - Freddy Martin - Warsaw Concerto.wav

Pre-gap length 0:00:03.10

Peak level 82.4 %
Extraction speed 4.6 X
Track quality 100.0 %
Test CRC 5C88359D
Copy CRC 5C88359D
Accurately ripped (confidence 1) [E3C091CB] (AR v2)
Copy OK

Track 14

Filename C:\My Documents\My FLAC\VA - Popular Melodies That Will Live Forever (4CD) (1994) [FLAC] {Reader's Digest}\Disc 3\14 - Bob Ralston With Lawrence Welk - Theme From The Story Of Three Loves.wav

Pre-gap length 0:00:03.05

Peak level 71.4 %
Extraction speed 4.6 X
Track quality 100.0 %
Test CRC 8634C3A3
Copy CRC 8634C3A3
Accurately ripped (confidence 1) [AD96A61C] (AR v2)
Copy OK

Track 15

Filename C:\My Documents\My FLAC\VA - Popular Melodies That Will Live Forever (4CD) (1994) [FLAC] {Reader's Digest}\Disc 3\15 - Carmen Cavallaro - To Love Again.wav

Pre-gap length 0:00:02.60

Peak level 72.5 %
Extraction speed 4.9 X
Track quality 100.0 %
Test CRC 824ED97F
Copy CRC 824ED97F
Accurately ripped (confidence 1) [711C7C3B] (AR v2)
Copy OK

Track 16

Filename C:\My Documents\My FLAC\VA - Popular Melodies That Will Live Forever (4CD) (1994) [FLAC] {Reader's Digest}\Disc 3\16 - Hugo Winterhalter - Spellbound Concerto.wav

Pre-gap length 0:00:03.15

Peak level 74.8 %
Extraction speed 4.8 X
Track quality 100.0 %
Test CRC 2A2AEF51
Copy CRC 2A2AEF51
Accurately ripped (confidence 1) [DD772F4F] (AR v2)
Copy OK

Track 17

Filename C:\My Documents\My FLAC\VA - Popular Melodies That Will Live Forever (4CD) (1994) [FLAC] {Reader's Digest}\Disc 3\17 - Charles Fox - Seasons.wav

Pre-gap length 0:00:03.42

Peak level 82.7 %
Extraction speed 5.2 X
Track quality 100.0 %
Test CRC A6F60AC5
Copy CRC A6F60AC5
Accurately ripped (confidence 1) [FF73BDA0] (AR v2)
Copy OK

Track 18

Filename C:\My Documents\My FLAC\VA - Popular Melodies That Will Live Forever (4CD) (1994) [FLAC] {Reader's Digest}\Disc 3\18 - The Romantic Strings & Orchestra - Barry Lyndon Theme.wav

Pre-gap length 0:00:02.52

Peak level 91.8 %
Extraction speed 5.1 X
Track quality 100.0 %
Test CRC E4A2B047
Copy CRC E4A2B047
Accurately ripped (confidence 1) [F8EDD662] (AR v2)
Copy OK

Track 19

Filename C:\My Documents\My FLAC\VA - Popular Melodies That Will Live Forever (4CD) (1994) [FLAC] {Reader's Digest}\Disc 3\19 - Ferrante & Teicher - Theme From The Apartment.wav

Pre-gap length 0:00:03.07

Peak level 82.9 %
Extraction speed 4.4 X
Track quality 100.0 %
Test CRC 5458064A
Copy CRC 5458064A
Accurately ripped (confidence 1) [88405F00] (AR v2)
Copy OK

Track 20

Filename C:\My Documents\My FLAC\VA - Popular Melodies That Will Live Forever (4CD) (1994) [FLAC] {Reader's Digest}\Disc 3\20 - The London Cinema Orchestra - Theme From 2001- a space odyssey.wav

Pre-gap length 0:00:02.62

Peak level 84.1 %
Extraction speed 4.5 X
Track quality 100.0 %
Test CRC 80880F9B
Copy CRC 80880F9B
Accurately ripped (confidence 1) [B67CE40F] (AR v2)
Copy OK


All tracks accurately ripped

No errors occurred

End of status report

==== Log checksum 9CE798B67872A29948D344455BBA847AD9BD329F39F6782CBAE060F719170BFA ====





Exact Audio Copy V1.1 from 23. June 2015

EAC extraction logfile from 13. September 2016, 11:58

Various Artists / Popular Melodies That Will Live Forever (Disc 4)

Used drive : TEAC DVD-ROM DV-28SW Adapter: 1 ID: 0

Read mode : Secure
Utilize accurate stream : Yes
Defeat audio cache : Yes
Make use of C2 pointers : No

Read offset correction : 6
Overread into Lead-In and Lead-Out : No
Fill up missing offset samples with silence : Yes
Delete leading and trailing silent blocks : No
Null samples used in CRC calculations : Yes
Used interface : Native Win32 interface for Win NT & 2000
Gap handling : Appended to previous track

Used output format : Internal WAV Routines
Sample format : 44.100 Hz; 16 Bit; Stereo


TOC of the extracted CD

Track | Start | Length | Start sector | End sector
––––––––––––––––––––––––––––-
1 | 0:00.37 | 3:49.53 | 37 | 17264
2 | 3:50.15 | 1:22.27 | 17265 | 23441
3 | 5:12.42 | 4:26.65 | 23442 | 43456
4 | 9:39.32 | 3:25.35 | 43457 | 58866
5 | 13:04.67 | 1:30.63 | 58867 | 65679
6 | 14:35.55 | 2:58.07 | 65680 | 79036
7 | 17:33.62 | 2:50.15 | 79037 | 91801
8 | 20:24.02 | 2:42.65 | 91802 | 104016
9 | 23:06.67 | 4:07.38 | 104017 | 122579
10 | 27:14.30 | 4:10.30 | 122580 | 141359
11 | 31:24.60 | 2:39.32 | 141360 | 153316
12 | 34:04.17 | 3:04.30 | 153317 | 167146
13 | 37:08.47 | 2:19.68 | 167147 | 177639
14 | 39:28.40 | 2:38.07 | 177640 | 189496
15 | 42:06.47 | 3:44.43 | 189497 | 206339
16 | 45:51.15 | 3:33.02 | 206340 | 222316
17 | 49:24.17 | 3:56.05 | 222317 | 240021
18 | 53:20.22 | 3:16.33 | 240022 | 254754
19 | 56:36.55 | 3:14.12 | 254755 | 269316
20 | 59:50.67 | 2:26.13 | 269317 | 280279
21 | 62:17.05 | 5:16.35 | 280280 | 304014


Track 1

Filename C:\My Documents\My FLAC\VA - Popular Melodies That Will Live Forever (4CD) (1994) [FLAC] {Reader's Digest}\Disc 4\01 - Lawrence Welk - The Lone Ranger Theme.wav

Pre-gap length 0:00:02.37

Peak level 77.0 %
Extraction speed 2.3 X
Track quality 99.9 %
Test CRC 42C606D2
Copy CRC 42C606D2
Accurately ripped (confidence 1) [E92373FA] (AR v2)
Copy OK

Track 2

Filename C:\My Documents\My FLAC\VA - Popular Melodies That Will Live Forever (4CD) (1994) [FLAC] {Reader's Digest}\Disc 4\02 - Los Indios Tabajaras - The Green Hornet Theme.wav

Pre-gap length 0:00:02.45

Peak level 70.3 %
Extraction speed 2.2 X
Track quality 100.0 %
Test CRC BC5C7AD6
Copy CRC BC5C7AD6
Accurately ripped (confidence 1) [D0BF9432] (AR v2)
Copy OK

Track 3

Filename C:\My Documents\My FLAC\VA - Popular Melodies That Will Live Forever (4CD) (1994) [FLAC] {Reader's Digest}\Disc 4\03 - The London Promenade Orchestra - Phillip Morris Theme Song.wav

Pre-gap length 0:00:03.12

Peak level 77.3 %
Extraction speed 3.2 X
Track quality 100.0 %
Test CRC 09FB3F66
Copy CRC 09FB3F66
Accurately ripped (confidence 1) [25B880C5] (AR v2)
Copy OK

Track 4

Filename C:\My Documents\My FLAC\VA - Popular Melodies That Will Live Forever (4CD) (1994) [FLAC] {Reader's Digest}\Disc 4\04 - The Romantic Strings & Orchestra - I Love A Mystery Theme.wav

Pre-gap length 0:00:02.60

Peak level 79.5 %
Extraction speed 3.3 X
Track quality 100.0 %
Test CRC F47221CA
Copy CRC F47221CA
Accurately ripped (confidence 1) [30FCBA29] (AR v2)
Copy OK

Track 5

Filename C:\My Documents\My FLAC\VA - Popular Melodies That Will Live Forever (4CD) (1994) [FLAC] {Reader's Digest}\Disc 4\05 - Arthur Fiedler & The Boston Pops Orchestra - The FBI In Peace And War Theme.wav

Pre-gap length 0:00:02.70

Peak level 82.0 %
Extraction speed 2.9 X
Track quality 100.0 %
Test CRC 0936336E
Copy CRC 0936336E
Accurately ripped (confidence 1) [69E0EC83] (AR v2)
Copy OK

Track 6

Filename C:\My Documents\My FLAC\VA - Popular Melodies That Will Live Forever (4CD) (1994) [FLAC] {Reader's Digest}\Disc 4\06 - Paul Weston - The Bell Telephone Hour Theme.wav

Pre-gap length 0:00:02.65

Peak level 77.2 %
Extraction speed 3.3 X
Track quality 100.0 %
Test CRC 5B7376A9
Copy CRC 5B7376A9
Accurately ripped (confidence 1) [2378512F] (AR v2)
Copy OK

Track 7

Filename C:\My Documents\My FLAC\VA - Popular Melodies That Will Live Forever (4CD) (1994) [FLAC] {Reader's Digest}\Disc 4\07 - Paul Weston - The Goldbergs Theme.wav

Pre-gap length 0:00:02.55

Peak level 57.0 %
Extraction speed 2.7 X
Track quality 100.0 %
Test CRC B7C97933
Copy CRC B7C97933
Accurately ripped (confidence 1) [561EA31F] (AR v2)
Copy OK

Track 8

Filename C:\My Documents\My FLAC\VA - Popular Melodies That Will Live Forever (4CD) (1994) [FLAC] {Reader's Digest}\Disc 4\08 - Los Indios Tabajaras - Masterpiece Theatre Theme.wav

Pre-gap length 0:00:02.70

Peak level 57.7 %
Extraction speed 3.5 X
Track quality 100.0 %
Test CRC 0BB767C9
Copy CRC 0BB767C9
Accurately ripped (confidence 1) [75F8EA84] (AR v2)
Copy OK

Track 9

Filename C:\My Documents\My FLAC\VA - Popular Melodies That Will Live Forever (4CD) (1994) [FLAC] {Reader's Digest}\Disc 4\09 - Arthur Fiedler & The Boston Pops Orchestra - Alfred Hitchcock Presents Theme.wav

Pre-gap length 0:00:02.62

Peak level 91.9 %
Extraction speed 2.9 X
Track quality 100.0 %
Test CRC 5C33BAEA
Copy CRC 5C33BAEA
Accurately ripped (confidence 1) [DD21C660] (AR v2)
Copy OK

Track 10

Filename C:\My Documents\My FLAC\VA - Popular Melodies That Will Live Forever (4CD) (1994) [FLAC] {Reader's Digest}\Disc 4\10 - Hugo Winterhalter - Hallmark Hall Of Fame Theme.wav

Pre-gap length 0:00:02.30

Peak level 77.1 %
Extraction speed 4.1 X
Track quality 100.0 %
Test CRC A23EC667
Copy CRC A23EC667
Accurately ripped (confidence 1) [B959044F] (AR v2)
Copy OK

Track 11

Filename C:\My Documents\My FLAC\VA - Popular Melodies That Will Live Forever (4CD) (1994) [FLAC] {Reader's Digest}\Disc 4\11 - Freddy Martin - Grieg Piano Concerto In A Minor- 1st Movement.wav

Pre-gap length 0:00:02.22

Peak level 76.8 %
Extraction speed 4.0 X
Track quality 100.0 %
Test CRC 142C4053
Copy CRC 142C4053
Accurately ripped (confidence 1) [E2DEA2B5] (AR v2)
Copy OK

Track 12

Filename C:\My Documents\My FLAC\VA - Popular Melodies That Will Live Forever (4CD) (1994) [FLAC] {Reader's Digest}\Disc 4\12 - Freddy Martin Featuring Artie Wayne - Strange Music.wav

Pre-gap length 0:00:02.72

Peak level 71.0 %
Extraction speed 4.3 X
Track quality 100.0 %
Test CRC 2BC1EDCA
Copy CRC 2BC1EDCA
Accurately ripped (confidence 1) [D9C1D8A5] (AR v2)
Copy OK

Track 13

Filename C:\My Documents\My FLAC\VA - Popular Melodies That Will Live Forever (4CD) (1994) [FLAC] {Reader's Digest}\Disc 4\13 - Lawrence Welk - One Fine Day.wav

Pre-gap length 0:00:03.00

Peak level 53.9 %
Extraction speed 4.1 X
Track quality 100.0 %
Test CRC 06752420
Copy CRC 06752420
Accurately ripped (confidence 1) [8307FBE2] (AR v2)
Copy OK

Track 14

Filename C:\My Documents\My FLAC\VA - Popular Melodies That Will Live Forever (4CD) (1994) [FLAC] {Reader's Digest}\Disc 4\14 - Peter Durchin - Sumertime.wav

Pre-gap length 0:00:02.57

Peak level 72.7 %
Extraction speed 4.2 X
Track quality 100.0 %
Test CRC 01B262AD
Copy CRC 01B262AD
Accurately ripped (confidence 1) [CA864CB3] (AR v2)
Copy OK

Track 15

Filename C:\My Documents\My FLAC\VA - Popular Melodies That Will Live Forever (4CD) (1994) [FLAC] {Reader's Digest}\Disc 4\15 - Arthur Fiedler & The Boston Pops Orchestra - And This Is My Beloved.wav

Pre-gap length 0:00:02.17

Peak level 89.2 %
Extraction speed 4.5 X
Track quality 100.0 %
Test CRC 64203095
Copy CRC 64203095
Accurately ripped (confidence 1) [EA66130C] (AR v2)
Copy OK

Track 16

Filename C:\My Documents\My FLAC\VA - Popular Melodies That Will Live Forever (4CD) (1994) [FLAC] {Reader's Digest}\Disc 4\16 - Ferrante & Teicher - Malaguena.wav

Pre-gap length 0:00:02.45

Peak level 77.2 %
Extraction speed 5.0 X
Track quality 100.0 %
Test CRC 21CE5960
Copy CRC 21CE5960
Accurately ripped (confidence 1) [9F4AF243] (AR v2)
Copy OK

Track 17

Filename C:\My Documents\My FLAC\VA - Popular Melodies That Will Live Forever (4CD) (1994) [FLAC] {Reader's Digest}\Disc 4\17 - Henry Mancini - A Fifth Of Beethoven.wav

Pre-gap length 0:00:02.37

Peak level 92.6 %
Extraction speed 4.4 X
Track quality 99.9 %
Test CRC A32A7C21
Copy CRC A32A7C21
Accurately ripped (confidence 1) [744CE978] (AR v2)
Copy OK

Track 18

Filename C:\My Documents\My FLAC\VA - Popular Melodies That Will Live Forever (4CD) (1994) [FLAC] {Reader's Digest}\Disc 4\18 - The Sovereign Collection - Mozart 40.wav

Pre-gap length 0:00:02.32

Peak level 73.6 %
Extraction speed 5.2 X
Track quality 100.0 %
Test CRC BAE58ACF
Copy CRC BAE58ACF
Accurately ripped (confidence 1) [25B83E31] (AR v2)
Copy OK

Track 19

Filename C:\My Documents\My FLAC\VA - Popular Melodies That Will Live Forever (4CD) (1994) [FLAC] {Reader's Digest}\Disc 4\19 - Henry Mancini - Joy.wav

Pre-gap length 0:00:02.60

Peak level 87.1 %
Extraction speed 5.3 X
Track quality 100.0 %
Test CRC 42775091
Copy CRC 42775091
Accurately ripped (confidence 1) [AD6A71B8] (AR v2)
Copy OK

Track 20

Filename C:\My Documents\My FLAC\VA - Popular Melodies That Will Live Forever (4CD) (1994) [FLAC] {Reader's Digest}\Disc 4\20 - Glenn Derringer - Ode To Joy.wav

Pre-gap length 0:00:03.32

Peak level 80.8 %
Extraction speed 5.1 X
Track quality 100.0 %
Test CRC FA76937B
Copy CRC FA76937B
Accurately ripped (confidence 1) [BBE97A2C] (AR v2)
Copy OK

Track 21

Filename C:\My Documents\My FLAC\VA - Popular Melodies That Will Live Forever (4CD) (1994) [FLAC] {Reader's Digest}\Disc 4\21 - Walter Murphy - Ravel's Bolero.wav

Pre-gap length 0:00:01.67

Peak level 77.3 %
Extraction speed 5.8 X
Track quality 100.0 %
Test CRC 9EA0259F
Copy CRC 9EA0259F
Accurately ripped (confidence 1) [B778BFCB] (AR v2)
Copy OK


All tracks accurately ripped

No errors occurred

End of status report

==== Log checksum 181866A730857C8E697E7A727EBC429BBCF015136F0A7BEF31559643566F7814 ====