Subcategories

Omicron - The Generation And Motion Of A Pulse (1995)

Posted By: gribovar
Omicron - The Generation And Motion Of A Pulse (1995)

Omicron - The Generation And Motion Of A Pulse (1995)
EAC Rip | FLAC (image+.cue+log) - 399 MB | MP3 CBR 320 kbps (LAME 3.93) - 224 MB | Covers included
Genre: IDM, Ambient | RAR 3% Rec. | Label: Instinct Ambient (AMB:003-2)

While Omicron's first album "Acrocosm" was an ambient techno album, similar to other releases of the time (B12'a Electro-Soma, Global Communications 76:14), "The Generation And Motion Of A Pulse" is strictly ambient, with a few beats scattered here and there, (Think SETI, only more restrained). This is an album best enjoyed in full, with the lights low.
Tracklist:
01. New Universe
02. Box
03. Symbiont
04. Static State
05. Positron
06. O:Scent
07. Mecca
08. G-Zone
09. Metabolic Wave

Total time: 01:11:50

Exact Audio Copy V0.99 prebeta 5 from 4. May 2009

EAC extraction logfile from 11. August 2009, 20:59

Omicron / The Generation And Motion Of A Pulse

Used drive : PIONEER DVD-RW DVR-111 Adapter: 3 ID: 0

Read mode : Secure
Utilize accurate stream : Yes
Defeat audio cache : Yes
Make use of C2 pointers : No

Read offset correction : 48
Overread into Lead-In and Lead-Out : No
Fill up missing offset samples with silence : Yes
Delete leading and trailing silent blocks : No
Null samples used in CRC calculations : Yes
Used interface : Installed external ASPI interface

Used output format : User Defined Encoder
Selected bitrate : 1024 kBit/s
Quality : High
Add ID3 tag : No
Command line compressor : C:\Program Files\Exact Audio Copy\Flac\flac.exe
Additional command line options : -8 -V -T "ARTIST=%a" -T "ALBUM=%g" -T "DATE=%y" -T "GENRE=%m" %s -o %d


TOC of the extracted CD

Track | Start | Length | Start sector | End sector
––––––––––––––––––––––––––––-
1 | 0:00.00 | 9:18.25 | 0 | 41874
2 | 9:18.25 | 13:11.40 | 41875 | 101239
3 | 22:29.65 | 7:14.63 | 101240 | 133852
4 | 29:44.53 | 7:38.65 | 133853 | 168267
5 | 37:23.43 | 8:48.65 | 168268 | 207932
6 | 46:12.33 | 5:13.65 | 207933 | 231472
7 | 51:26.23 | 4:53.37 | 231473 | 253484
8 | 56:19.60 | 6:29.60 | 253485 | 282719
9 | 62:49.45 | 9:00.03 | 282720 | 323222


Range status and errors

Selected range

Filename F:\temp\nnm\Omicron - The Generation And Motion Of A Pulse.wav

Peak level 97.1 %
Range quality 100.0 %
Test CRC A02C5245
Copy CRC A02C5245
Copy OK

No errors occurred


AccurateRip summary

Track 1 accurately ripped (confidence 3) [6AF1970B]
Track 2 accurately ripped (confidence 3) [A7A37D1A]
Track 3 accurately ripped (confidence 3) [3F17F1E2]
Track 4 accurately ripped (confidence 3) [2FA980CA]
Track 5 accurately ripped (confidence 3) [DBBF202E]
Track 6 accurately ripped (confidence 3) [C10D30C0]
Track 7 accurately ripped (confidence 3) [17EE2132]
Track 8 accurately ripped (confidence 3) [05AD2B2E]
Track 9 accurately ripped (confidence 2) [2DCD83E5]

All tracks accurately ripped

End of status report

[CUETools log; Date: 23.12.2012 20:48:31; Version: 2.0.9]
[CTDB TOCID: HCjyGULy_eDQg.kk9yeWihOeQ9E-] found.
[ CTDBID ] Status
[223b27db] (5/5) Accurately ripped
[AccurateRip ID: 001a9cc6-00bdc4f2-8210d509] found.
Track [ CRC ] Status
01 [6af1970b] (4/6) Accurately ripped
02 [a7a37d1a] (4/6) Accurately ripped
03 [3f17f1e2] (4/6) Accurately ripped
04 [2fa980ca] (4/6) Accurately ripped
05 [dbbf202e] (4/6) Accurately ripped
06 [c10d30c0] (4/6) Accurately ripped
07 [17ee2132] (3/5) Accurately ripped
08 [05ad2b2e] (4/6) Accurately ripped
09 [2dcd83e5] (3/5) Accurately ripped
Offsetted by -861:
01 [5051b2b7] (2/6) Accurately ripped
02 [b6635cfe] (2/6) Accurately ripped
03 [9b414cc9] (2/6) Accurately ripped
04 [dd3d720a] (2/6) Accurately ripped
05 [f90e594b] (2/6) Accurately ripped
06 [1c58e188] (2/6) Accurately ripped
07 [0948d1d2] (2/5) Accurately ripped
08 [57164d82] (2/6) Accurately ripped
09 [f754d3be] (2/5) Accurately ripped

Track Peak [ CRC32 ] [W/O NULL] [ LOG ]
– 97,1 [A02C5245] [60F2B871] CRC32
01 93,9 [6680C1D5] [5D8089E7]
02 92,4 [B9004EFB] [493D4889]
03 80,6 [8C270D0D] [DD1DC24F]
04 88,7 [A1D9262A] [D75AA10E]
05 56,9 [9A223DF8] [4704B922]
06 95,2 [F3920AA7] [32148A04]
07 97,1 [E0EB4DC8] [7EEBB74F]
08 81,9 [0D422A92] [801C7D69]
09 89,4 [D6B750FB] [996AF96F]

Thanks to _ok

More Instinct Ambient releases from my blog:
Instinct Ambient
LOSSLESS:

Filepost.com
________________

MP3 320 kbps:

Filepost.com