Subcategories

Om Attack - Heavy Rescue (2000)

Posted By: popsakov
Om Attack - Heavy Rescue (2000)

Om Attack - Heavy Rescue (2000)
EAC Rip | FLAC (Img) + Cue + Log ~ 293 Mb | MP3 CBR320 ~ 120 Mb
Scans (PNG, 600 dpi) ~ 127 Mb | RAR 5% Recovery
Psychedelic/Space Rock | InnerSPACE #INNERSPACE 7712

Om Attack is led by Peter Robinson Fuhry, from the San Francisco space rock band Beyond-O-Matic. The 2001 album Heavy Rescue evolved from improvisational collective writing sessions, after which lyrics and overdubs were added over the course of a year. The record offers an unusual combination of 1970s progressive rock, spacy drones, and harmony pop vocals and songwriting.

As rock music approaches its half-century mark, postmoderns are finding new and unthought-of ways to combine classic forms. There can't be many other records that mix early-'70s type Pink Floyd spaciness with pop songwriting and harmonies audibly indebted to the Beach Boys, throwing in some nods to soul music and Krautrock along the way. Peter Robinson Fuhry alone guarantees a multi-layered sound by playing a dozen instruments, from guitar and organ to toy piano, kazoo, flute, mandolin, and melodica. This doesn't necessarily put this in the same league as Pink Floyd, the Beach Boys, and Marvin Gaye, but it does mean that this brand of early-21st century art rock is much more listenable and human than that of most other musicians trying to update the prog rock genre. Although these tracks were devised from improvisations, it doesn't sound like that from the end results, which graft likable pop-friendly tunes and words onto artier instrumental tracks. The material isn't brilliant, but it's amusing, tuneful, and diverse, from the early-'70s Curtis Mayfield/Marvin Gaye soul-funk of "Coffee Can Superman" and real vintage 1970 Pink Floydian passages to high-harmony folk-rock and California pop ditties, with the styles often crisscrossing into each other.
~ Richie Unterberger, All Music

***************

Om Attack - Heavy Rescue (2000)

Track List:

01. carnivalis om [01:09]
02. coffee can superman [05:58]
03. perfectly still [03:30]
04. love, here i come [05:48]
05. motivated [03:11]
06. harmonic [04:11]
07. until [04:16]
08. become [05:31]
09. now-anymore [02:36]
10. rescue [10:25]
11. a prayer [03:45]

Line-up / Musicians:

Peter Robinson fuhry: vocals, cross5 guitar, organ, acousttic guitar, accordion, cymbal, metal clarinet, flute, mandalin, melodica, kazoo, bongos, piano
Frank Grau: drums
Joe Martinez: the long stiff finger of doom, upright bass, drums
Cameron Ember: vocals, ассordion

With:

Mr. Clarke: guitar on 'rescue'
Mike Dipirro: bass on 'become'
Kurt Stenzel: keyboards on 'rescue'
Melynda Jacksen: cross5 guitar on 'become'

Exact Audio Copy V1.1 from 23. June 2015

EAC extraction logfile from 30. November 2015, 19:56

Om Attack / Heavy Rescue

Used drive : TSSTcorpCDDVDW SH-S223C Adapter: 1 ID: 0

Read mode : Secure
Utilize accurate stream : Yes
Defeat audio cache : Yes
Make use of C2 pointers : No

Read offset correction : 697
Overread into Lead-In and Lead-Out : No
Fill up missing offset samples with silence : Yes
Delete leading and trailing silent blocks : No
Null samples used in CRC calculations : Yes
Used interface : Native Win32 interface for Win NT & 2000

Used output format : User Defined Encoder
Selected bitrate : 128 kBit/s
Quality : High
Add ID3 tag : No
Command line compressor : C:\Program Files (x86)\Exact Audio Copy\wavpack\wavpack.exe
Additional command line options : -hm -w "Year=%year%" -w "Genre=%genre%" %source% %dest%


TOC of the extracted CD

Track | Start | Length | Start sector | End sector
––––––––––––––––––––––––––––-
1 | 0:00.00 | 1:08.50 | 0 | 5149
2 | 1:08.50 | 5:57.60 | 5150 | 31984
3 | 7:06.35 | 3:29.08 | 31985 | 47667
4 | 10:35.43 | 5:47.73 | 47668 | 73765
5 | 16:23.41 | 3:10.07 | 73766 | 88022
6 | 19:33.48 | 4:10.57 | 88023 | 106829
7 | 23:44.30 | 4:15.02 | 106830 | 125956
8 | 27:59.32 | 5:30.23 | 125957 | 150729
9 | 33:29.55 | 2:35.50 | 150730 | 162404
10 | 36:05.30 | 10:24.40 | 162405 | 209244
11 | 46:29.70 | 3:44.67 | 209245 | 226111


Range status and errors

Selected range

Filename D:\_NL+_\_CD\Om Attack - Heavy Rescue.wav

Peak level 96.6 %
Extraction speed 4.7 X
Range quality 100.0 %
Test CRC 8258D30A
Copy CRC 8258D30A
Copy OK

No errors occurred


AccurateRip summary

Track 1 accurately ripped (confidence 1) [A95968BB] (AR v1)
Track 2 accurately ripped (confidence 1) [797C0401] (AR v1)
Track 3 accurately ripped (confidence 1) [1613DA07] (AR v1)
Track 4 accurately ripped (confidence 1) [D6923A0E] (AR v1)
Track 5 accurately ripped (confidence 1) [C2FF8E21] (AR v1)
Track 6 accurately ripped (confidence 1) [A86D8A45] (AR v1)
Track 7 accurately ripped (confidence 1) [1C9CA6AE] (AR v1)
Track 8 accurately ripped (confidence 1) [C5FDB60E] (AR v1)
Track 9 accurately ripped (confidence 1) [1C4E6966] (AR v1)
Track 10 accurately ripped (confidence 1) [D174ADF4] (AR v1)
Track 11 accurately ripped (confidence 1) [DCD1A452] (AR v1)

All tracks accurately ripped

End of status report

–– CUETools DB Plugin V2.1.6

[CTDB TOCID: c5j3Ey2nnPXJAWXkeL_eri2cw6w-] disk not present in database
Submit result: c5j3Ey2nnPXJAWXkeL_eri2cw6w- has been uploaded


==== Log checksum E46C64269245792E9F216747A5BEEE69557C841561032009653F03DA1860B734 ====

foobar2000 1.2.6 / Dynamic Range Meter 1.1.1
log date: 2016-01-23 14:53:37

––––––––––––––––––––––––––––––––––––––––
Analyzed: Om Attack / Heavy Rescue
––––––––––––––––––––––––––––––––––––––––

DR Peak RMS Duration Track
––––––––––––––––––––––––––––––––––––––––
DR9 -4.61 dB -17.02 dB 1:09 01-carnivalis om
DR9 -0.30 dB -11.15 dB 5:58 02-coffee can superman
DR10 -5.23 dB -19.31 dB 3:29 03-perfectly still
DR10 -0.30 dB -14.02 dB 5:48 04-love, here i come
DR12 -1.30 dB -15.23 dB 3:10 05-motivated
DR11 -0.30 dB -14.91 dB 4:11 06-harmonic
DR13 -1.30 dB -18.21 dB 4:15 07-until
DR14 -0.30 dB -17.12 dB 5:30 08-become
DR12 -2.30 dB -19.04 dB 2:36 09-now-anymore
DR8 -2.30 dB -14.05 dB 10:25 10-rescue
DR11 -3.67 dB -17.73 dB 3:45 11-a prayer
––––––––––––––––––––––––––––––––––––––––

Number of tracks: 11
Official DR value: DR11

Samplerate: 44100 Hz
Channels: 2
Bits per sample: 16
Bitrate: 775 kbps
Codec: FLAC
================================================================================

[CUETools log; Date: 23.01.2016 14:53:38; Version: 2.1.5]
[CTDB TOCID: c5j3Ey2nnPXJAWXkeL_eri2cw6w-] found.
Track | CTDB Status
1 | (1/1) Accurately ripped
2 | (1/1) Accurately ripped
3 | (1/1) Accurately ripped
4 | (1/1) Accurately ripped
5 | (1/1) Accurately ripped
6 | (1/1) Accurately ripped
7 | (1/1) Accurately ripped
8 | (1/1) Accurately ripped
9 | (1/1) Accurately ripped
10 | (1/1) Accurately ripped
11 | (1/1) Accurately ripped
[AccurateRip ID: 0012bc5f-00a701fd-8f0bc60b] found.
Track [ CRC | V2 ] Status
01 [a95968bb|b394f518] (1+0/1) Accurately ripped
02 [797c0401|fd453557] (1+0/1) Accurately ripped
03 [1613da07|33960e2e] (1+0/1) Accurately ripped
04 [d6923a0e|464916b0] (1+0/1) Accurately ripped
05 [c2ff8e21|266deb3c] (1+0/1) Accurately ripped
06 [a86d8a45|a9ef9f46] (1+0/1) Accurately ripped
07 [1c9ca6ae|7ef68087] (1+0/1) Accurately ripped
08 [c5fdb60e|32e21aa5] (1+0/1) Accurately ripped
09 [1c4e6966|cffc26c3] (1+0/1) Accurately ripped
10 [d174adf4|d17ca00e] (1+0/1) Accurately ripped
11 [dcd1a452|9cb82497] (1+0/1) Accurately ripped

Track Peak [ CRC32 ] [W/O NULL] [ LOG ]
– 96,6 [8258D30A] [E36D97BF] CRC32
01 58,8 [D5501F36] [0DE979D0]
02 96,6 [37C624AC] [8A56E6ED]
03 54,7 [2C17A6F9] [ADB7B26B]
04 96,6 [D924EBBA] [1BF51761]
05 86,0 [BDDFE082] [D685BCEC]
06 96,5 [E92683B8] [1D1FCC46]
07 86,0 [438EC9E9] [CF5527E9]
08 96,5 [F77D16EA] [FC85B80E]
09 76,7 [BA117800] [41D30EC1]
10 76,7 [7D86F5E9] [DB1666E2]
11 65,5 [1D72BB4A] [7556EE1B]

Om Attack - Heavy Rescue (2000)

Om Attack - Heavy Rescue (2000)

Related Links:

Beyond-O-Matic - The Flight Of Luis Garcia (1994)
Beyond-O-Matic - Sonic Reclaimator (1996)
Beyond-O-Matic - Your Body (1998)
Beyond-O-Matic - Relations At The Borders Between (2013)

All thanks go to tatuk

Visit my blog!

No mirrors, please!

Download:
Nitroflare: FLAC | Scans | mp3