Subcategories

OM - A Retrospective (2006) {ECM 1642}

Posted By: tiburon
OM - A Retrospective (2006) {ECM 1642}

OM - A Retrospective (2006) {ECM 1642}
EAC 0.99pb4 | FLAC Image | Cue+Log | Full Scans 300dpi | 442MB + 5% Recovery
Genre: Fusion
OM - A Retrospective (2006) {ECM 1642}

Formed in Lucerne, Switzerland, in 1972 and named after Coltrane’s darkly convulsive album, the members of OM were initially inspired as much by the rock of Jimi Hendrix as by the new developments taking place in improvisation. “Electric jazz – free music” was their rallying cry, and they played it loudly. All in their early 20s when the group was launched, the members of OM achieved an early success at the Montreux Festival in 1974 which helped to put them on the map, and brought them to the attention of ECM. Four albums were recorded for ECM’s sister label Japo, between 1975 and 1980: “Kirikuki”, “Rautionaha”, “Om with Dom um Ramao” and “Cerberus”. In jazz-rock’s heyday, OM was one of the few bands (another was England’s Soft Machine) who were approaching jazz from a rock direction, rather than vice versa: most of fusion’s traffic took the opposite route. The validity of their approach is borne out by this compilation, with material chosen by the band.
Track List
01. Holly 8:37
02. Lips 5:20
03. Rautionaha 13:42
04. Dumini 6:20
05. Dreaming For The People 9:13
06. Cerberus' Dance 5:47
07. Asumusa 4:47
08. At My Ease 9:20
09. Earworms 5:08
10. Eigentich Wollte Johann auf ddem Mond Den Andern Jazz Kennenlernen 11:32

musicians
Urs Leimgruber - soprano and tenor saxophones, flutes, percussion
Christy Doran - guitars, guitar synthesizer
Bobby Burri - double-bass
Fredy Studer - drums, gongs, percussion

guests
Dom Um Romao - percussion, berimbau
Erdman Birke - accordion

Recorded 1975-1980, Ludwigsburg or Oslo

Produced by ECM


Exact Audio Copy V0.99 prebeta 4 from 23. January 2008

EAC extraction logfile from 28. October 2009, 14:02

Om / A retrospective

Used drive : MATSHITADVD-RAM UJ-875S Adapter: 1 ID: 0

Read mode : Secure
Utilize accurate stream : Yes
Defeat audio cache : Yes
Make use of C2 pointers : No

Read offset correction : 102
Overread into Lead-In and Lead-Out : No
Fill up missing offset samples with silence : Yes
Delete leading and trailing silent blocks : No
Null samples used in CRC calculations : Yes
Used interface : Installed external ASPI interface

Used output format : User Defined Encoder
Selected bitrate : 320 kBit/s
Quality : High
Add ID3 tag : No
Command line compressor : C:\Program Files\Exact Audio Copy\Flac\flac.exe
Additional command line options : –best -V -T "date=%y" -T "genre=%m" %s


TOC of the extracted CD

Track | Start | Length | Start sector | End sector
––––––––––––––––––––––––––––-
1 | 0:00.00 | 8:40.23 | 0 | 39022
2 | 8:40.23 | 5:25.38 | 39023 | 63435
3 | 14:05.61 | 13:47.08 | 63436 | 125468
4 | 27:52.69 | 6:24.12 | 125469 | 154280
5 | 34:17.06 | 9:17.29 | 154281 | 196084
6 | 43:34.35 | 5:50.30 | 196085 | 222364
7 | 49:24.65 | 4:51.15 | 222365 | 244204
8 | 54:16.05 | 9:24.00 | 244205 | 286504
9 | 63:40.05 | 5:11.37 | 286505 | 309866
10 | 68:51.42 | 11:32.02 | 309867 | 361768


Range status and errors

Selected range

Filename D:\MY MUSIC\Om - A retrospective.wav

Peak level 99.8 %
Range quality 99.9 %
Copy CRC D065BE76
Copy OK

No errors occurred


AccurateRip summary

Track 1 accurately ripped (confidence 2) [0A9C06A9]
Track 2 accurately ripped (confidence 2) [814D37F2]
Track 3 accurately ripped (confidence 2) [89A4FFE0]
Track 4 accurately ripped (confidence 2) [F1427316]
Track 5 accurately ripped (confidence 2) [CF61F8BB]
Track 6 accurately ripped (confidence 2) [955BC014]
Track 7 accurately ripped (confidence 2) [838DB6CD]
Track 8 accurately ripped (confidence 2) [13913B24]
Track 9 accurately ripped (confidence 2) [0DFB481D]
Track 10 accurately ripped (confidence 2) [0CF358FE]

All tracks accurately ripped

End of status report


––––––––––––––––––––––––––––––––––––––––
Analyzed: Om / A retrospective
––––––––––––––––––––––––––––––––––––––––

DR Peak RMS Duration Track
––––––––––––––––––––––––––––––––––––––––
DR11 -1.41 dB -15.37 dB 8:40 01-Holly
DR11 -2.19 dB -17.34 dB 5:26 02-Lips
DR11 -2.21 dB -15.32 dB 13:47 03-Rautionaha
DR12 -2.46 dB -20.09 dB 6:24 04-Dumini
DR15 -0.01 dB -18.29 dB 9:17 05-Dreaming for the people
DR17 -1.65 dB -25.04 dB 5:50 06-Cerberus' dance
DR14 -1.31 dB -22.10 dB 4:51 07-Asumusa
DR15 -0.01 dB -18.73 dB 9:24 08-At my Ease
DR15 -0.01 dB -18.90 dB 5:11 09-Earworms
DR16 -4.50 dB -28.10 dB 11:32 10-Eigentlich wollte Johann auf dem Mond den andern jazz kennenlernen
––––––––––––––––––––––––––––––––––––––––

Number of tracks: 10
Official DR value: DR14

Samplerate: 44100 Hz
Channels: 2
Bits per sample: 16
Bitrate: 747 kbps
Codec: FLAC
================================================================================

OM - A Retrospective (2006) {ECM 1642}
OM - A Retrospective (2006) {ECM 1642}
OM - A Retrospective (2006) {ECM 1642}


Rip by dawn