Nik Bartsch's Ronin - Live (2012) [2CD's] {ECM 2302/03}

Posted By: tiburon
Nik Bartsch's Ronin - Live (2012) [2CD's] {ECM 2302/03}

Nik Bartsch's Ronin - Live (2012) [2CD's] {ECM 2302/03}
EAC 1.0b3 | FLAC tracks level 8 | Cue+Log+M3U | Full Scans 300dpi | 580MB + 5% Recovery
Genre: Jazz

Ronin around the world: a powerful and atmospheric concert recording with music captured in Germany, Austria, Holland, England, and Japan, a double-album which transmits the live impact of Nik Bärtsch’s band and its enveloping modular groove music of interlocking rhythms. It’s also a set that marks the end of an era and the transition into a new one. These are the last recordings of Ronin with Björn Meyer’s elegantly-leaping bass guitar as one of the lead voices, and Bärtsch views the album as partly a tribute to Meyer’s long tenure with the band. New bassist Thomy Jordi, meanwhile, makes an impressive entrance on “Modul 55”, but it’s most often the whole band, as a unified field of force, that commands the listener’s attention.
Track List

CD 1
01.Modul 41_17 (Lörrach) 16:38
02. Modul 35 (Leipzig) 11:31
03. Modul 42 (Wien) 8:09
04. Modul 17 (Tokyo) 8:58
05. Modul 22 (Amsterdam) 14:45

CD 2
01. Modul 45 (Mannheim) 13:11
02. Modul 48 (Gateshead) 8:37
03. Modul 47 (Mannheim) 13:11
04. Modul 55 (Salzau) 10:00

musicians
Nik Bärtsch - piano
Sha - alto saxophone, bass clarinet
Björn Meyer - bass
Thomy Jordi - bass (on Modul 55)
Kaspar Rast - drums
Andi Pupato - percussion

Produced by Manfred Eicher


Exact Audio Copy V1.0 beta 3 from 29. August 2011

EAC extraction logfile from 30. September 2012, 2:21

Nik Bartsch's Ronin / Live (Disc 1) [ECM 2302-03]

Used drive : PLEXTOR DVDR PX-L890SA Adapter: 2 ID: 1

Read mode : Secure
Utilize accurate stream : Yes
Defeat audio cache : Yes
Make use of C2 pointers : No

Read offset correction : 6
Overread into Lead-In and Lead-Out : No
Fill up missing offset samples with silence : Yes
Delete leading and trailing silent blocks : No
Null samples used in CRC calculations : Yes
Used interface : Native Win32 interface for Win NT & 2000
Gap handling : Appended to previous track

Used output format : User Defined Encoder
Selected bitrate : 256 kBit/s
Quality : High
Add ID3 tag : No
Command line compressor : C:\Program Files (x86)\Exact Audio Copy\FLAC\FLAC.EXE
Additional command line options : -8 -V -T "ARTIST=%artist%" -T "TITLE=%title%" -T "ALBUM=%albumtitle%" -T "DATE=%year%" -T "TRACKNUMBER=%tracknr%" -T "TOTALTRACKS=%numtracks%" -T "GENRE=%genre%" -T "ALBUMARTIST=%albumartist%" -T "ALBUM ARTIST=%albumartist%" -T "COMMENT=EAC Secure Mode, Test & Copy, AccurateRip, FLAC -8" %source%


TOC of the extracted CD

Track | Start | Length | Start sector | End sector
––––––––––––––––––––––––––––-
1 | 0:00.00 | 16:38.48 | 0 | 74897
2 | 16:38.48 | 11:31.27 | 74898 | 126749
3 | 28:10.00 | 8:09.05 | 126750 | 163429
4 | 36:19.05 | 8:58.44 | 163430 | 203823
5 | 45:17.49 | 14:45.26 | 203824 | 270224


Track 1

Filename F:\Flac Rips\01 - Modul 41_17.wav

Pre-gap length 0:00:02.00

Peak level 99.1 %
Extraction speed 4.3 X
Track quality 99.9 %
Test CRC A092F323
Copy CRC A092F323
Track not present in AccurateRip database
Copy OK

Track 2

Filename F:\Flac Rips\02 - Modul 35.wav

Peak level 98.6 %
Extraction speed 5.6 X
Track quality 100.0 %
Test CRC 005A80F6
Copy CRC 005A80F6
Track not present in AccurateRip database
Copy OK

Track 3

Filename F:\Flac Rips\03 - Modul 42.wav

Peak level 97.0 %
Extraction speed 6.2 X
Track quality 100.0 %
Test CRC 1E8E4F9E
Copy CRC 1E8E4F9E
Track not present in AccurateRip database
Copy OK

Track 4

Filename F:\Flac Rips\04 - Modul 17.wav

Peak level 94.4 %
Extraction speed 6.7 X
Track quality 100.0 %
Test CRC 6F704AA1
Copy CRC 6F704AA1
Track not present in AccurateRip database
Copy OK

Track 5

Filename F:\Flac Rips\05 - Modul 22.wav

Peak level 99.0 %
Extraction speed 7.6 X
Track quality 100.0 %
Test CRC 5E750CDF
Copy CRC 5E750CDF
Track not present in AccurateRip database
Copy OK


None of the tracks are present in the AccurateRip database

No errors occurred

End of status report

==== Log checksum 545551D84201B86585412EE90B00D8497E4C739EAC034506EAF32AC1CF80B493 ====
___________________________________________________________________________________________
Exact Audio Copy V1.0 beta 3 from 29. August 2011

EAC extraction logfile from 30. September 2012, 0:49

Nik Bartsch's Ronin / Live (Disc 2) [ECM 2302-03]

Used drive : PLEXTOR DVDR PX-L890SA Adapter: 2 ID: 1

Read mode : Secure
Utilize accurate stream : Yes
Defeat audio cache : Yes
Make use of C2 pointers : No

Read offset correction : 6
Overread into Lead-In and Lead-Out : No
Fill up missing offset samples with silence : Yes
Delete leading and trailing silent blocks : No
Null samples used in CRC calculations : Yes
Used interface : Native Win32 interface for Win NT & 2000
Gap handling : Appended to previous track

Used output format : User Defined Encoder
Selected bitrate : 256 kBit/s
Quality : High
Add ID3 tag : No
Command line compressor : C:\Program Files (x86)\Exact Audio Copy\FLAC\FLAC.EXE
Additional command line options : -8 -V -T "ARTIST=%artist%" -T "TITLE=%title%" -T "ALBUM=%albumtitle%" -T "DATE=%year%" -T "TRACKNUMBER=%tracknr%" -T "TOTALTRACKS=%numtracks%" -T "GENRE=%genre%" -T "ALBUMARTIST=%albumartist%" -T "ALBUM ARTIST=%albumartist%" -T "COMMENT=EAC Secure Mode, Test & Copy, AccurateRip, FLAC -8" %source%


TOC of the extracted CD

Track | Start | Length | Start sector | End sector
––––––––––––––––––––––––––––-
1 | 0:00.00 | 13:11.43 | 0 | 59367
2 | 13:11.43 | 8:37.11 | 59368 | 98153
3 | 21:48.54 | 13:11.13 | 98154 | 157491
4 | 34:59.67 | 10:00.08 | 157492 | 202499


Track 1

Filename F:\Flac Rips\01 - Modul 45.wav

Pre-gap length 0:00:02.00

Peak level 98.7 %
Extraction speed 4.3 X
Track quality 100.0 %
Test CRC F62D4372
Copy CRC F62D4372
Track not present in AccurateRip database
Copy OK

Track 2

Filename F:\Flac Rips\02 - Modul 48.wav

Peak level 98.2 %
Extraction speed 5.2 X
Track quality 100.0 %
Test CRC EA7E237B
Copy CRC EA7E237B
Track not present in AccurateRip database
Copy OK

Track 3

Filename F:\Flac Rips\03 - Modul 47.wav

Peak level 98.1 %
Extraction speed 6.1 X
Track quality 100.0 %
Test CRC DC748781
Copy CRC DC748781
Track not present in AccurateRip database
Copy OK

Track 4

Filename F:\Flac Rips\04 - Modul 55.wav

Peak level 98.5 %
Extraction speed 6.7 X
Track quality 100.0 %
Test CRC 98516E7D
Copy CRC 98516E7D
Track not present in AccurateRip database
Copy OK


None of the tracks are present in the AccurateRip database

No errors occurred

End of status report

==== Log checksum 24BE2D90018809C631A26611ED1E191517524F68A2FAC4E5804FED6957EAC00B ====


––––––––––––––––––––––––––––––––––––––––
Analyzed: Nik Bartsch's Ronin / Live (Disc 1) [ECM 2302-03]
––––––––––––––––––––––––––––––––––––––––

DR Peak RMS Duration Track
––––––––––––––––––––––––––––––––––––––––
DR10 -0.07 dB -13.24 dB 16:39 01-Modul 41_17
DR10 -0.12 dB -13.97 dB 11:31 02-Modul 35
DR14 -0.26 dB -19.81 dB 8:09 03-Modul 42
DR11 -0.50 dB -14.88 dB 8:59 04-Modul 17
DR12 -0.08 dB -15.94 dB 14:45 05-Modul 22
––––––––––––––––––––––––––––––––––––––––

Number of tracks: 5
Official DR value: DR11

Samplerate: 44100 Hz
Channels: 2
Bits per sample: 16
Bitrate: 746 kbps
Codec: FLAC
================================================================================


––––––––––––––––––––––––––––––––––––––––
Analyzed: Nik Bartsch's Ronin / Live (Disc 2) [ECM 2302-03]
––––––––––––––––––––––––––––––––––––––––

DR Peak RMS Duration Track
––––––––––––––––––––––––––––––––––––––––
DR10 -0.11 dB -14.54 dB 13:12 01-Modul 45
DR11 -0.16 dB -15.71 dB 8:37 02-Modul 48
DR12 -0.16 dB -16.45 dB 13:11 03-Modul 47
DR11 -0.12 dB -14.95 dB 10:00 04-Modul 55
––––––––––––––––––––––––––––––––––––––––

Number of tracks: 4
Official DR value: DR11

Samplerate: 44100 Hz
Channels: 2
Bits per sample: 16
Bitrate: 675 kbps
Codec: FLAC
================================================================================

Nik Bartsch's Ronin - Live (2012) [2CD's] {ECM 2302/03}
Nik Bartsch's Ronin - Live (2012) [2CD's] {ECM 2302/03}
Nik Bartsch's Ronin - Live (2012) [2CD's] {ECM 2302/03}
Nik Bartsch's Ronin - Live (2012) [2CD's] {ECM 2302/03}


Rip by jlgt