Nik Bartsch's Ronin - Stoa (2006) {ECM 1939}

Posted By: tiburon
Nik Bartsch's Ronin - Stoa (2006) {ECM 1939}

Nik Bartsch's Ronin - Stoa (2006) {ECM 1939}
EAC 0.99pb5 | FLAC tracks level 8 | Cue+Log+M3U | Full Scans 300dpi | 338MB + 5% Recovery
Genre: Jazz, Avant-Garde
Nik Bartsch's Ronin - Stoa (2006) {ECM 1939}

Not everyone will love this music. It's not jazz, it doesn't exactly swing, and it may be too in-your-face for those who prefer more delicate realms of introspection. People who hate the minimalisms of Reich and Philip Glass may find Bartsch's compositions repetitive. But anyone who is interested in muscular new sounds that seem both timeless and very contemporary should check it out.
Track List
01. Modul 36 15:17
02. Modul 35 9:11
03. Modul 32 9:32
04. Modul 33 10:42
05. Modul 38_17 12:30

musicians
Nik Bartsch - piano, Fender Rhodes
Kaspar Rast - drums
Björn Meyer - bass
Andi Pupato - percussion
Sha - contrabass and bass clarinet

Produced by Manfred Eicher


Exact Audio Copy V0.99 prebeta 5 from 4. May 2009

EAC extraction logfile from 21. May 2010, 20:04

Nik Bartsch's Ronin / Stoa

Used drive : HL-DT-STDVD-RAM GH22LP20 Adapter: 0 ID: 0

Read mode : Secure
Utilize accurate stream : Yes
Defeat audio cache : Yes
Make use of C2 pointers : No

Read offset correction : 102
Overread into Lead-In and Lead-Out : No
Fill up missing offset samples with silence : Yes
Delete leading and trailing silent blocks : No
Null samples used in CRC calculations : Yes
Used interface : Installed external ASPI interface
Gap handling : Appended to previous track

Used output format : User Defined Encoder
Selected bitrate : 128 kBit/s
Quality : High
Add ID3 tag : No
Command line compressor : C:\Program Files\Exact Audio Copy\Flac\flac.exe
Additional command line options : -V -8 -T "artist=%a" -T "title=%t" -T "album=%g" -T "date=%y" -T "tracknumber=%n" -T "genre=%m" %s


TOC of the extracted CD

Track | Start | Length | Start sector | End sector
––––––––––––––––––––––––––––-
1 | 0:00.00 | 15:17.62 | 0 | 68836
2 | 15:17.62 | 9:11.43 | 68837 | 110204
3 | 24:29.30 | 9:33.01 | 110205 | 153180
4 | 34:02.31 | 10:42.23 | 153181 | 201353
5 | 44:44.54 | 12:30.21 | 201354 | 257624


Track 1

Filename F:\Music Audio\FLAC\Nik Bartsch's Ronin - Stoa\01 - Modul 36.wav

Pre-gap length 0:00:02.00

File write error
Peak level 99.0 %
Track quality 99.9 %
Test CRC 99C8384E
Copy CRC 99C8384E
Accurately ripped (confidence 38) [7F5C0685]
Copy OK

Track 2

Filename F:\Music Audio\FLAC\Nik Bartsch's Ronin - Stoa\02 - Modul 35.wav

Peak level 98.4 %
Track quality 100.0 %
Test CRC 0574E89F
Copy CRC 0574E89F
Accurately ripped (confidence 38) [68750BDB]
Copy OK

Track 3

Filename F:\Music Audio\FLAC\Nik Bartsch's Ronin - Stoa\03 - Modul 32.wav

Peak level 96.8 %
Track quality 100.0 %
Test CRC 712AFEA8
Copy CRC 712AFEA8
Accurately ripped (confidence 38) [F008E890]
Copy OK

Track 4

Filename F:\Music Audio\FLAC\Nik Bartsch's Ronin - Stoa\04 - Modul 33.wav

Peak level 99.0 %
Track quality 100.0 %
Test CRC 2B598A8A
Copy CRC 2B598A8A
Accurately ripped (confidence 38) [D742CED0]
Copy OK

Track 5

Filename F:\Music Audio\FLAC\Nik Bartsch's Ronin - Stoa\05 - Modul 38_17.wav

Peak level 98.5 %
Track quality 100.0 %
Test CRC 18151106
Copy CRC 18151106
Accurately ripped (confidence 37) [AB35D8A4]
Copy OK


All tracks accurately ripped

There were errors

End of status report


––––––––––––––––––––––––––––––––––––––––
Analyzed: Nik Bärtsch's Ronin / Stoa
––––––––––––––––––––––––––––––––––––––––

DR Peak RMS Duration Track
––––––––––––––––––––––––––––––––––––––––
DR12 -0.08 dB -15.97 dB 15:18 01-Modul 36
DR12 -0.14 dB -14.81 dB 9:12 02-Modul 35
DR14 -0.28 dB -17.16 dB 9:33 03-Modul 32
DR13 -0.08 dB -16.82 dB 10:42 04-Modul 33
DR10 -0.13 dB -12.86 dB 12:30 05-Modul 38_17
––––––––––––––––––––––––––––––––––––––––

Number of tracks: 5
Official DR value: DR12

Samplerate: 44100 Hz
Channels: 2
Bits per sample: 16
Bitrate: 803 kbps
Codec: FLAC
================================================================================

Nik Bartsch's Ronin - Stoa (2006) {ECM 1939}
Nik Bartsch's Ronin - Stoa (2006) {ECM 1939}


Rip by inasafeplace