Subcategories

Nicholas Payton / Sonic Trance (2003)

Posted By: TTito2009
Nicholas Payton / Sonic Trance (2003)

Nicholas Payton / Sonic Trance (2003)
EAC rip | Separate FLAC files, EAC log | 436 MB | no scans | RS.com
nu jazz, trance | Warner Bros. WEA

Nicholas Payton's sixth record is, he says, a new turn in a young career. 'Sonic Trance' has the ambition of retaining tradition's achievements while using them to reach a newly distinguished fusion of jazz genre. It's a very lofty goal and the resulting 68 minutes of music will leave the listener grasping for aural reference points. It is slightly discomforting, but very fresh.
Nicholas Payton took some time out to speak with me from his home in Louisiana. We're in conversation.
Read more here

tracklist
01. Praalude (Sonic Trance) (2:46)
02. Fela 1 (7:10)
03. Velvet Handcuffs (3:48)
04. Cannabis Leaf Rag 1 (3:42)
05. Seance (5:31)
06. Tantric (Lewd Interlewd) (1:12)
07. Shabba Un-Ranked (1:12)
08. Seance (Romantic Reprise) (2:08)
09. Fela 2 (5:40)
10. Tantric (5:52)
11. Blu Hays (7:09)
12. Stinkie Twinkie (Remix) (3:05)
13. Spiral (0:36)
14. Peeping Tim (4:21)
15. Cannabis Leaf Rag 2 (1:55)
16. Two Mexicans On The Wall (7:28)
17. Exorcism (0:46)
18. Toys In Babeland (3:41)

Exact Audio Copy V0.99 prebeta 5 from 4. May 2009

EAC extraction logfile from 16. June 2010, 20:22

Nicholas Payton / Sonic Trance (2003)

Used drive : HL-DT-STDVD-RAM GH22LP20 Adapter: 0 ID: 1

Read mode : Secure
Utilize accurate stream : Yes
Defeat audio cache : No
Make use of C2 pointers : No

Read offset correction : 102
Overread into Lead-In and Lead-Out : No
Fill up missing offset samples with silence : Yes
Delete leading and trailing silent blocks : No
Null samples used in CRC calculations : Yes
Used interface : Native Win32 interface for Win NT & 2000
Gap handling : Not detected, thus appended to previous track

Used output format : User Defined Encoder
Selected bitrate : 1024 kBit/s
Quality : High
Add ID3 tag : No
Command line compressor : C:\Program Files (x86)\Exact Audio Copy\FLAC\FLAC.EXE
Additional command line options : -6 -V -T "ARTIST=%a" -T "TITLE=%t" -T "ALBUM=%g" -T "DATE=%y" -T "TRACKNUMBER=%n" -T "GENRE=%m" -T "COMMENT=%e" %s -o %d


TOC of the extracted CD

Track | Start | Length | Start sector | End sector
––––––––––––––––––––––––––––-
1 | 0:00.00 | 2:46.40 | 0 | 12489
2 | 2:46.40 | 7:10.57 | 12490 | 44796
3 | 9:57.22 | 3:48.08 | 44797 | 61904
4 | 13:45.30 | 3:43.02 | 61905 | 78631
5 | 17:28.32 | 5:31.58 | 78632 | 103514
6 | 23:00.15 | 1:14.07 | 103515 | 109071
7 | 24:14.22 | 1:13.43 | 109072 | 114589
8 | 25:27.65 | 2:12.05 | 114590 | 124494
9 | 27:39.70 | 5:42.25 | 124495 | 150169
10 | 33:22.20 | 5:52.65 | 150170 | 176634
11 | 39:15.10 | 7:09.32 | 176635 | 208841
12 | 46:24.42 | 3:05.35 | 208842 | 222751
13 | 49:30.02 | 0:36.58 | 222752 | 225509
14 | 50:06.60 | 4:21.32 | 225510 | 245116
15 | 54:28.17 | 1:57.55 | 245117 | 253946
16 | 56:25.72 | 7:28.33 | 253947 | 287579
17 | 63:54.30 | 0:46.60 | 287580 | 291089
18 | 64:41.15 | 3:39.45 | 291090 | 307559


Track 1

Filename C:\Users\Johnny\Desktop\Praalude (Sonic Trance).wav

Peak level 100.0 %
Track quality 100.0 %
Test CRC 06EDDB09
Copy CRC 06EDDB09
Accurately ripped (confidence 3) [CF6F5423]
Copy OK

Track 2

Filename C:\Users\Johnny\Desktop\Fela 1.wav

Peak level 100.0 %
Track quality 100.0 %
Test CRC CAAA07C4
Copy CRC CAAA07C4
Accurately ripped (confidence 3) [7E3E23A0]
Copy OK

Track 3

Filename C:\Users\Johnny\Desktop\Velvet Handcuffs.wav

Peak level 100.0 %
Track quality 99.9 %
Test CRC FFAD3A1A
Copy CRC FFAD3A1A
Accurately ripped (confidence 3) [6F74DAE1]
Copy OK

Track 4

Filename C:\Users\Johnny\Desktop\Cannabis Leaf Rag 1.wav

Peak level 100.0 %
Track quality 100.0 %
Test CRC 0765A22F
Copy CRC 0765A22F
Accurately ripped (confidence 3) [632A2554]
Copy OK

Track 5

Filename C:\Users\Johnny\Desktop\Séance.wav

Peak level 100.0 %
Track quality 100.0 %
Test CRC F062855A
Copy CRC F062855A
Accurately ripped (confidence 3) [54405BB0]
Copy OK

Track 6

Filename C:\Users\Johnny\Desktop\Tantric (Lewd Interlewd).wav

Peak level 100.0 %
Track quality 100.0 %
Test CRC 99A04B40
Copy CRC 99A04B40
Accurately ripped (confidence 3) [F048D196]
Copy OK

Track 7

Filename C:\Users\Johnny\Desktop\Shabba Unranked.wav

Peak level 100.0 %
Track quality 100.0 %
Test CRC D08DADEE
Copy CRC D08DADEE
Accurately ripped (confidence 3) [D93C35E3]
Copy OK

Track 8

Filename C:\Users\Johnny\Desktop\Séance (Romantic Reprise).wav

Peak level 100.0 %
Track quality 100.0 %
Test CRC C73D1485
Copy CRC C73D1485
Accurately ripped (confidence 3) [96789191]
Copy OK

Track 9

Filename C:\Users\Johnny\Desktop\Fela 2.wav

Peak level 100.0 %
Track quality 99.9 %
Test CRC 63847600
Copy CRC 63847600
Accurately ripped (confidence 3) [DD78E1B9]
Copy OK

Track 10

Filename C:\Users\Johnny\Desktop\Tantric.wav

Peak level 100.0 %
Track quality 100.0 %
Test CRC 4F70C116
Copy CRC 4F70C116
Accurately ripped (confidence 3) [98F339A8]
Copy OK

Track 11

Filename C:\Users\Johnny\Desktop\Blu Hays.wav

Peak level 100.0 %
Track quality 100.0 %
Test CRC 4E2C675D
Copy CRC 4E2C675D
Accurately ripped (confidence 3) [6AD5A810]
Copy OK

Track 12

Filename C:\Users\Johnny\Desktop\Stinkie Twinkie [Remix].wav

Peak level 100.0 %
Track quality 100.0 %
Test CRC DF029019
Copy CRC DF029019
Accurately ripped (confidence 3) [23A45635]
Copy OK

Track 13

Filename C:\Users\Johnny\Desktop\Spiral.wav

Peak level 100.0 %
Track quality 100.0 %
Test CRC A24517EA
Copy CRC A24517EA
Accurately ripped (confidence 3) [4B92A4FD]
Copy OK

Track 14

Filename C:\Users\Johnny\Desktop\Peeping Tim.wav

Peak level 100.0 %
Track quality 100.0 %
Test CRC 6A119762
Copy CRC 6A119762
Accurately ripped (confidence 3) [3D4EA426]
Copy OK

Track 15

Filename C:\Users\Johnny\Desktop\Cannabis Leaf Rag 2.wav

Peak level 100.0 %
Track quality 100.0 %
Test CRC 9444C2FB
Copy CRC 9444C2FB
Accurately ripped (confidence 3) [EA2BFCA5]
Copy OK

Track 16

Filename C:\Users\Johnny\Desktop\Two Mexicans on the Wall- Too Much Tequila….wav

Peak level 100.0 %
Track quality 100.0 %
Test CRC 03F4B0DE
Copy CRC 03F4B0DE
Accurately ripped (confidence 3) [FF9E642D]
Copy OK

Track 17

Filename C:\Users\Johnny\Desktop\Exorcism.wav

Peak level 60.2 %
Track quality 99.7 %
Test CRC 065C2224
Copy CRC 065C2224
Accurately ripped (confidence 3) [544A79EF]
Copy OK

Track 18

Filename C:\Users\Johnny\Desktop\Toys in Babeland.wav

Peak level 90.8 %
Track quality 100.0 %
Test CRC AE9C6B73
Copy CRC AE9C6B73
Accurately ripped (confidence 3) [42F44DE9]
Copy OK


All tracks accurately ripped

No errors occurred

End of status report

Musicians:
Nicholas Payton trumpet, flugelhorn, effects
Tim Warfield tenor and soprano sax
Kevin Hays keyboards
Vicente Archer bass
Adonis Rose drums
Daniel Sadownick percussion
Karriem Riggins sampler

Nicholas Payton / Sonic Trance (2003)


RS.com linz:

Part 1 | Part 2 | Part 3 | Part 4 | Part 5

pelicano