Subcategories

Nicholas Payton - Sketches Of Spain (2013)

Posted By: tiburon
Nicholas Payton - Sketches Of Spain (2013)

Nicholas Payton - Sketches Of Spain (2013)
EAC 1.0b3 | FLAC tracks level 8 | Cue+Log+M3U | Full Scans 600dpi | 294MB + 5% Recovery
Genre: Jazz, Neo-Bop

The Grammy winner takes on and transcends the physical, creative, and conceptual challenges of Miles Davis-Gil Evans' milestone recording and makes a powerful musical statement of his own.
Track List
01. Concierto De Aranjuez 15:41
02. Will O' The Wisp 3:25
03. The Pan Piper 4:12
04. Saeta 4:51
05. Solea 12:49

musicians
Nicholas Payton - trumpet
Vicente Archer - bass
Marcus Gilmore - drums
Daniel Sadownick - percussion
Sinfonieorchester Basel
Conductor - Dennis Russell Davies

Produced by Nicholas Payton


Exact Audio Copy V1.0 beta 3 from 29. August 2011

EAC extraction logfile from 22. October 2013, 22:29

Nicholas Payton / Sketches of Spain

Used drive : HL-DT-STDVD-RAM GSA-H55N Adapter: 0 ID: 1

Read mode : Secure
Utilize accurate stream : Yes
Defeat audio cache : Yes
Make use of C2 pointers : No

Read offset correction : 102
Overread into Lead-In and Lead-Out : Yes
Fill up missing offset samples with silence : Yes
Delete leading and trailing silent blocks : No
Null samples used in CRC calculations : Yes
Used interface : Native Win32 interface for Win NT & 2000
Gap handling : Appended to previous track

Used output format : User Defined Encoder
Selected bitrate : 128 kBit/s
Quality : High
Add ID3 tag : No
Command line compressor : G:\Program Files\Exact Audio Copy\Encoder\flac.exe
Additional command line options : -V -8 -T "Genre=%genre%" -T "Artist=%artist%" -T "Title=%title%" -T "Album=%albumtitle%" -T "Date=%year%" -T "Tracknumber=%tracknr%" -T "Comment=EAC1.0b3 FLAC -8" %source%


TOC of the extracted CD

Track | Start | Length | Start sector | End sector
––––––––––––––––––––––––––––-
1 | 0:00.00 | 15:40.45 | 0 | 70544
2 | 15:40.45 | 3:24.73 | 70545 | 85917
3 | 19:05.43 | 4:11.42 | 85918 | 104784
4 | 23:17.10 | 4:50.39 | 104785 | 126573
5 | 28:07.49 | 12:48.57 | 126574 | 184230


Track 1

Filename F:\WAV\01 - Concierto de Aranjuez.wav

Pre-gap length 0:00:02.00

Peak level 96.6 %
Extraction speed 1.5 X
Track quality 99.9 %
Test CRC 46CCA407
Copy CRC 46CCA407
Track not present in AccurateRip database
Copy OK

Track 2

Filename F:\WAV\02 - Will O' the Wisp.wav

Peak level 96.6 %
Extraction speed 2.1 X
Track quality 100.0 %
Test CRC 889F95FF
Copy CRC 889F95FF
Track not present in AccurateRip database
Copy OK

Track 3

Filename F:\WAV\03 - The Pan Piper.wav

Pre-gap length 0:00:00.01

Peak level 96.6 %
Extraction speed 2.3 X
Track quality 100.0 %
Test CRC 912852DA
Copy CRC 912852DA
Track not present in AccurateRip database
Copy OK

Track 4

Filename F:\WAV\04 - Saeta.wav

Peak level 96.6 %
Extraction speed 2.2 X
Track quality 99.9 %
Test CRC F2170802
Copy CRC F2170802
Track not present in AccurateRip database
Copy OK

Track 5

Filename F:\WAV\05 - Solea.wav

Peak level 96.6 %
Extraction speed 3.1 X
Track quality 100.0 %
Test CRC C867A89A
Copy CRC C867A89A
Track not present in AccurateRip database
Copy OK


None of the tracks are present in the AccurateRip database

No errors occurred

End of status report

==== Log checksum B01398A418C64FB2EB76C05DCFD5ED6A8968A312D99B4E1BE1237FE65F990383 ====


––––––––––––––––––––––––––––––––––––––––
Analyzed: Nicholas Payton / Sketches of Spain
––––––––––––––––––––––––––––––––––––––––

DR Peak RMS Duration Track
––––––––––––––––––––––––––––––––––––––––
DR12 -0.30 dB -16.11 dB 15:41 01-Concierto de Aranjuez
DR12 -0.30 dB -15.35 dB 3:25 02-Will O' the Wisp
DR15 -0.30 dB -19.23 dB 4:12 03-The Pan Piper
DR13 -0.30 dB -17.84 dB 4:51 04-Saeta
DR13 -0.30 dB -16.36 dB 12:49 05-Solea
––––––––––––––––––––––––––––––––––––––––

Number of tracks: 5
Official DR value: DR13

Samplerate: 44100 Hz
Channels: 2
Bits per sample: 16
Bitrate: 804 kbps
Codec: FLAC
================================================================================

Nicholas Payton - Sketches Of Spain (2013)
Nicholas Payton - Sketches Of Spain (2013)
Nicholas Payton - Sketches Of Spain (2013)


Rip by simple.i