Nazareth - Loud'n'Proud + Razamanaz (1973) {1987, Japan 1st Press}

Posted By: popsakov
Nazareth - Loud'n'Proud + Razamanaz (1973) {1987, Japan 1st Press}

Nazareth - Loud'n'Proud + Razamanaz (1973) {1987, Japan 1st Press}
EAC Rip | FLAC (Img) + Cue + Log ~ 445 Mb | MP3 CBR320 ~ 172 Mb
Scans (JPG, 600 dpi) ~ 49 Mb | RAR 5% Recovery
Classic Hard Rock | Vertigo / Nippon Phonogram Co. #33DP-363

Razamanaz is the third studio album by the Scottish hard rock band Nazareth, released in 1973. It was the band's first LP record to break the charts and was produced by Deep Purple's Roger Glover who the band was on tour with at the time. Loud 'n' Proud is the fourth studio album by Nazareth, and their second to be released in 1973.

***************

Nazareth - Loud'n'Proud + Razamanaz (1973) {1987, Japan 1st Press}

Track List:

01. Go Down Fighting [0:03:10.00]
02. Not Fakin It [0:04:03.29]
03. Turn On Your Receiver [0:03:22.24]
04. Teenage Nervous Breakdown [0:03:46.40]
05. Freewheeler [0:05:34.93]
06. This Flight Tonight [0:03:27.66]
07. Child In The Sun [0:04:54.89]
08. The Ballad Of Hollis Brown [0:09:14.06]
09. Razamanaz [0:03:56.44]
10. Alcatraz [0:04:27.66]
11. Vigilante Man [0:05:26.40]
12. Woke Up This Morning [0:03:54.60]
13. Night Woman [0:03:32.73]
14. Bad Bad Boy [0:04:00.66]
15. Sold My Soul [0:04:53.66]
16. Broken Down Angel [0:03:47.00]

Exact Audio Copy V0.99 prebeta 5 from 4. May 2009

Отчёт EAC об извлечении, выполненном 18. мая 2010, 22:44

Nazareth / Loud'n'Proud & Razamanaz (Japan Vertigo 33DP-363)

Дисковод: HL-DT-STDVDRAM GSA-T20N Adapter: 1 ID: 0

Режим чтения : Достоверность
Использование точного потока : Да
Отключение кэша аудио : Да
Использование указателей C2 : Нет

Коррекция смещения при чтении : 667
Способность читать области Lead-in и Lead-out : Нет
Заполнение пропущенных сэмплов тишиной : Да
Удаление блоков с тишиной в начале и конце : Нет
При вычислениях CRC использовались нулевые сэмплы : Да
Интерфейс : Встроенный Win32-интерфейс для Win NT/2000

Выходной формат : Пользовательский кодировщик
Выбранный битрейт : 768 kBit/s
Качество : Высокий
Добавление ID3-тэга : Нет
Утилита сжатия : C:\Program Files\Exact Audio Copy\FLAC\FLAC.EXE
Дополнительные параметры : -8 -V %s


TOC извлечённого CD

Трек | Старт | Длительность | Начальный сектор | Конечный сектор
––––––––––––––––––––––––––––––––––-
1 | 0:00.00 | 3:10.00 | 0 | 14249
2 | 3:10.00 | 4:03.22 | 14250 | 32496
3 | 7:13.22 | 3:22.18 | 32497 | 47664
4 | 10:35.40 | 3:46.30 | 47665 | 64644
5 | 14:21.70 | 5:34.70 | 64645 | 89764
6 | 19:56.65 | 3:27.50 | 89765 | 105339
7 | 23:24.40 | 4:54.67 | 105340 | 127456
8 | 28:19.32 | 9:14.05 | 127457 | 169011
9 | 37:33.37 | 3:56.33 | 169012 | 186744
10 | 41:29.70 | 4:27.50 | 186745 | 206819
11 | 45:57.45 | 5:26.30 | 206820 | 231299
12 | 51:24.00 | 3:54.45 | 231300 | 248894
13 | 55:18.45 | 3:32.55 | 248895 | 264849
14 | 58:51.25 | 4:00.50 | 264850 | 282899
15 | 62:52.00 | 4:53.50 | 282900 | 304924
16 | 67:45.50 | 3:47.00 | 304925 | 321949


Характеристики диапазона извлечения и сообщения об ошибках

Выбранный диапазон

Имя файла D:\uTorrent.compl\Nazareth - 'Loud'n'Proud' 1973 & 'Razamanaz' 1973 ( Japan 1st press - Vertigo 33DP-363 )\Nazareth - Loud'n'Proud & Razamanaz (Japan Vertigo 33DP-363).wav

Пиковый уровень 100.0 %
Качество диапазона 100.0 %
CRC теста 7846990B
CRC копии 7846990B
Копирование… OK

Ошибок не произошло


AccurateRip: сводка

Трек 1 нет в базе данных
Трек 2 нет в базе данных
Трек 3 нет в базе данных
Трек 4 нет в базе данных
Трек 5 нет в базе данных
Трек 6 нет в базе данных
Трек 7 нет в базе данных
Трек 8 нет в базе данных
Трек 9 нет в базе данных
Трек 10 нет в базе данных
Трек 11 нет в базе данных
Трек 12 нет в базе данных
Трек 13 нет в базе данных
Трек 14 нет в базе данных
Трек 15 нет в базе данных
Трек 16 нет в базе данных

Ни одного трека нет в базе AccurateRip

Конец отчёта

foobar2000 1.2.6 / Dynamic Range Meter 1.1.1
log date: 2017-01-11 12:47:24

––––––––––––––––––––––––––––––––––––––––
Analyzed: Nazareth / Loud'n'Proud & Razamanaz (Japan Vertigo 33DP-363)
––––––––––––––––––––––––––––––––––––––––

DR Peak RMS Duration Track
––––––––––––––––––––––––––––––––––––––––
DR12 -1.11 dB -14.76 dB 3:10 01-Go Down Fighting
DR12 -0.61 dB -14.12 dB 4:03 02-Not Fakin It
DR14 0.00 dB -15.07 dB 3:22 03-Turn On Your Receiver
DR12 -1.10 dB -16.11 dB 3:46 04-Teenage Nervous Breakdown
DR13 -0.06 dB -15.42 dB 5:35 05-Freewheeler
DR13 -0.90 dB -16.59 dB 3:28 06-This Flight Tonight
DR13 0.00 dB -16.16 dB 4:55 07-Child In The Sun
DR12 0.00 dB -14.32 dB 9:14 08-The Ballad Of Hollis Brown
DR13 -0.58 dB -15.69 dB 3:56 09-Razamanaz
DR14 0.00 dB -16.54 dB 4:28 10-Alcatraz
DR14 -0.14 dB -19.95 dB 5:26 11-Vigilante Man
DR13 0.00 dB -15.26 dB 3:55 12-Woke Up This Morning
DR13 -0.27 dB -15.67 dB 3:33 13-Night Woman
DR14 -0.01 dB -15.95 dB 4:01 14-Bad Bad Boy
DR14 -0.25 dB -16.78 dB 4:54 15-Sold My Soul
DR14 -0.07 dB -16.04 dB 3:47 16-Broken Down Angel
––––––––––––––––––––––––––––––––––––––––

Number of tracks: 16
Official DR value: DR13

Samplerate: 44100 Hz
Channels: 2
Bits per sample: 16
Bitrate: 828 kbps
Codec: FLAC
================================================================================

[CUETools log; Date: 11.01.2017 12:46:44; Version: 2.1.5]
[CTDB TOCID: .E0IY86CSr3a9kmXTb8PPMiAJrw-] found.
Track | CTDB Status
1 | (1/1) Accurately ripped
2 | (1/1) Accurately ripped
3 | (1/1) Accurately ripped
4 | (1/1) Accurately ripped
5 | (1/1) Accurately ripped
6 | (1/1) Accurately ripped
7 | (1/1) Accurately ripped
8 | (1/1) Accurately ripped
9 | (1/1) Accurately ripped
10 | (1/1) Accurately ripped
11 | (1/1) Accurately ripped
12 | (1/1) Accurately ripped
13 | (1/1) Accurately ripped
14 | (1/1) Accurately ripped
15 | (1/1) Accurately ripped
16 | (1/1) Accurately ripped
[AccurateRip ID: 00292f08-01f63902-e410c410] found.
Track [ CRC | V2 ] Status
01 [06393295|06b538f5] (0+1/1) Accurately ripped
02 [798c563b|016f9e44] (0+1/1) Accurately ripped
03 [c93fa5c8|817003e8] (0+1/1) Accurately ripped
04 [ecfe7421|e4c4cad1] (0+1/1) Accurately ripped
05 [26d960ad|7025ac6e] (0+1/1) Accurately ripped
06 [47297953|443d5eb7] (0+1/1) Accurately ripped
07 [a2614b12|bac8d3de] (0+1/1) Accurately ripped
08 [81efa868|ada0eb99] (0+1/1) Accurately ripped
09 [e015902d|e6d0f9f0] (0+1/1) Accurately ripped
10 [54cbe606|a9e36997] (0+1/1) Accurately ripped
11 [59a1e4ee|8a367a3a] (0+1/1) Accurately ripped
12 [20d5a4d7|033370c2] (0+1/1) Accurately ripped
13 [7665bffe|b316339d] (0+1/1) Accurately ripped
14 [8728c627|a5c6f3d0] (0+1/1) Accurately ripped
15 [f3f56661|bec9da4e] (0+1/1) Accurately ripped
16 [9c8a240d|b445280e] (0+1/1) Accurately ripped

Track Peak [ CRC32 ] [W/O NULL] [ LOG ]
– 100,0 [7846990B] [09C60C55] CRC32
01 88,0 [7A39737C] [955AC7F8]
02 93,2 [A62E1289] [8138456C]
03 100,0 [8B2E6724] [FEC361AD]
04 88,1 [4BB8063D] [4A792783]
05 99,2 [1922379C] [92A61CBF]
06 90,1 [771DC6A1] [08E2E1D8]
07 100,0 [E0A43724] [7EE3DD84]
08 100,0 [7BB303C5] [C69A1881]
09 93,5 [870691B1] [E6DC2E69]
10 100,0 [8CAC8F8B] [A7F1F345]
11 98,3 [7E075980] [4453AF4A]
12 99,9 [223523B7] [1F3C0F3E]
13 96,9 [E4BF6005] [F2C3546C]
14 99,9 [696ADA44] [3BF81962]
15 97,1 [2F289946] [68085284]
16 99,2 [C05AF8E6] [869D62BA]

Nazareth - Loud'n'Proud + Razamanaz (1973) {1987, Japan 1st Press}

Nazareth - Loud'n'Proud + Razamanaz (1973) {1987, Japan 1st Press}

All thanks go to kurok79

> Nazareth in my blog <