Subcategories

Me First And The Gimme Gimmes - Are We Not Men? We Are Diva! (2014)

Posted By: flac jacket
Me First And The Gimme Gimmes - Are We Not Men? We Are Diva! (2014)

Me First And The Gimme Gimmes - Are We Not Men? We Are Diva! (2014)
EAC Secure Rip | FLAC (Image + Cue + Log) - 255 MB | Complete Scans (Jpeg 600 dpi) - 96.4 MB | MP3 (CBR320 Kbps) - 87.5 MB
Rock, Punk Rock | Fat Wreck Chords | FAT919-2 | 34:17 minutes | Hosted on: FilePost & Uploaded

Are We Not Men? We Are Diva! is a cover album from punk rock supergroup Me First and the Gimme Gimmes. The album consists of covers of songs originally performed by divas.

Prior to the album's release, the band put out two singles. The first was their cover of Paula Abdul's track "Straight Up". On May 5th, the released a cover of Christina Aguilera's "Beautiful" as a second pre-release single.

Speaking about the album, guitarist Joey Cape said in an interview that "we always cover songs that one might consider to be guilty pleasures. 'Beautiful' clearly fits the bill. It is a great song but not necessarily something a fan of any of our bands would even consider." The title is a reference to Devo's album Q: Are We Not Men? A: We Are Devo!.

The album continues the band's of marrying cover versions with elements of classic punk songs. For example, this album's version of "Speechless" borrows the intro to "Sonic Reducer" by Dead Boys, "On the radio" uses the intro to "Brickfield Nights" by The Boys, "Beautiful" uses the intro to "Superficial Love" by TSOL, and "Karma Chameleon" uses the intro to "Everybody's Happy Nowadays" by Buzzcocks.

There are very few acts in the world that featured as predominantly in the highlights of my social life during my teenage years as Me First and the Gimme Gimmes. So it’s with this nostalgia-tinged bias firmly etched in the pleasure seeking portion of my mind that I set about pressing play on MFAGG’s new album, the excellently titled Are We Not Men? We Are Diva!. A punk-rock tribute to 12 of the world’s most infamous divas’ signature tunes, Are We Not Men? We Are Diva! features MFAGG providing their own take on classic songs by the likes of Christina Aguilera, Whitney Houston, Gloria Gaynor and Cher (among others), and the results, I’m relieved to say, are nothing short of triumphant.

Indeed, from the moment the familiar intro of Gloria Gaynor’s “I Will Survive” makes way for an explosive 2:27 of the classic ’90s skate-punk we have come to know and love from these guys, We Are Diva! proves to be an absolute riot of a time.

With Spike Slawson’s (Swinging Utters) infamous croon cutting cleanly through the frantically chugged power chords and face-melting solos of guitarists Joey Cape (Lagwagon) and Chris Shifflet (Foo Fighters, NUFAN), all set to the bombastic rhythms provided by Fat Mike (NOFX) and Dave Raun (Lagwagon) MFAGG have you at “at first I was afraid, I was petrified” and refuse to let you go until the dramatic final utterances of Barbara Streisand’s “The Way We Were.”

What happens in the 30 minutes provided here is anything but original and all the more enjoyable for it.

Personally, I couldn’t help but find myself dancing like the whitest boy alive while singing along at the top of my voice to MFAGG’s stellar renditions of Paula Abdul’s “Straight Up,” Lady Gaga’s “Speechless” and Culture Club’s “Karma Chameleon” and if you are a fan of MFAGG and their trademark shtick, you will no doubt find yourself doing the same.

While admittedly venturing into some rather well-worn territory with their song selections (how many times have we heard a punk act cover “Crazy For You” now, seriously) MFAGG manage to add enough of their own flavour to each track to keep the record flowing nicely.

Highlighted by the stupendously hyperactive cover of Christina Aguilera’s mega-anthem “Beautiful” (complete with Fat Mike’s unmistakable punk-rock snarl killing it on the backing vocals) and the bluegrass-tinged folk-punk of Celine Dion’s hilariously over-the-top “My Heart Will Go On” (Slawson, take a bow) We Are Diva! is a rambunctious return to form for MFAGG that proves that there is life left in this gimmick yet.

Undoubtedly the best sounding record of MFAGG’S career production wise, Are We Not Men? We Are Diva! does exactly what it promises on the cover and provides a damn fun time while doing it, and considering having fun is this act’s modus operandi, what more could or should you ask for?

Reviewed by Brenton Harris of underthegunreview.com


Exact Audio Copy V1.0 beta 2 from 29. April 2011

EAC extraction logfile from 16. May 2014, 10:59

Me First And The Gimme Gimmes / Are We Not Men? We Are Diva!

Used drive : HL-DT-STBD-RE BH14NS40 Adapter: 0 ID: 2

Read mode : Secure
Utilize accurate stream : Yes
Defeat audio cache : Yes
Make use of C2 pointers : No

Read offset correction : 6
Overread into Lead-In and Lead-Out : No
Fill up missing offset samples with silence : Yes
Delete leading and trailing silent blocks : No
Null samples used in CRC calculations : Yes
Used interface : Native Win32 interface for Win NT & 2000

Used output format : User Defined Encoder
Selected bitrate : 1024 kBit/s
Quality : High
Add ID3 tag : No
Command line compressor : C:\Program Files (x86)\Exact Audio Copy\Flac\flac.exe
Additional command line options : -V -5 -T "artist=%albumartist%" -T "title=%title%" -T "album=%albumtitle%" -T "date=%year%" -T "genre=%genre%" -T "tracknumber=%tracknr%" %source%


TOC of the extracted CD

Track | Start | Length | Start sector | End sector
––––––––––––––––––––––––––––-
1 | 0:00.00 | 2:27.68 | 0 | 11092
2 | 2:27.68 | 2:59.13 | 11093 | 24530
3 | 5:27.06 | 3:08.33 | 24531 | 38663
4 | 8:35.39 | 2:12.19 | 38664 | 48582
5 | 10:47.58 | 2:44.11 | 48583 | 60893
6 | 13:31.69 | 2:12.10 | 60894 | 70803
7 | 15:44.04 | 2:09.28 | 70804 | 80506
8 | 17:53.32 | 3:19.25 | 80507 | 95456
9 | 21:12.57 | 3:45.24 | 95457 | 112355
10 | 24:58.06 | 2:48.00 | 112356 | 124955
11 | 27:46.06 | 3:36.71 | 124956 | 141226
12 | 31:23.02 | 2:53.72 | 141227 | 154273


Range status and errors

Selected range

Filename C:\EAC\Me First And The Gimme Gimmes - (2014) Are We Not Men. We Are Diva!\Me First And The Gimme Gimmes - Are We Not Men_ We Are Diva!.wav

Peak level 100.0 %
Extraction speed 2.7 X
Range quality 100.0 %
Test CRC E7FBB1BD
Copy CRC E7FBB1BD
Copy OK

No errors occurred


AccurateRip summary

Track 1 not present in database
Track 2 not present in database
Track 3 not present in database
Track 4 not present in database
Track 5 not present in database
Track 6 not present in database
Track 7 not present in database
Track 8 not present in database
Track 9 not present in database
Track 10 not present in database
Track 11 not present in database
Track 12 not present in database

None of the tracks are present in the AccurateRip database

End of status report

==== Log checksum 3347BDEE7156541797A8BEB4EF6B99C697881D58A26F88B84B1180C868ECE1A6 ====



Track Listing:

01. I Will Survive (Gloria Gaynor)
02. Straight Up (Paula Abdul)
03. Believe (Cher)
04. Beautiful (Christina Aguilera)
05. My Heart Will Go On (Celine Dion)
06. I Will Always Love You (Whitney Houston)
07. Top Of The World (The Carpenters)
08. Speechless (Lady Gaga)
09. Karma Chameleon (Culture Club)
10. Crazy For You (Madonna)
11. On The Radio (Donna Summer)
12. The Way We Were (Barbra Streisand)

The Band:

Spike Slawson – vocals
Fat Mike – bass
Chris Shiflett – lead guitar
Joey Cape – rhythm guitar
Dave Raun – drums

Album Released: May 13, 2014


foobar2000 1.2.9 / Dynamic Range Meter 1.1.0
log date: 2014-05-16 23:47:13

––––––––––––––––––––––––––––––––––––––––
Analyzed: Me First And The Gimme Gimmes / Are We Not Men? We Are Diva!
––––––––––––––––––––––––––––––––––––––––

DR Peak RMS Duration Track
––––––––––––––––––––––––––––––––––––––––
DR7 0.00 dB -7.78 dB 2:28 01-I Will Survive
DR6 0.00 dB -7.64 dB 2:59 02-Straight Up
DR7 0.00 dB -8.60 dB 3:08 03-Believe
DR6 0.00 dB -7.06 dB 2:12 04-Beautiful
DR8 0.00 dB -9.30 dB 2:44 05-My Heart Will Go On
DR8 0.00 dB -9.02 dB 2:12 06-I Will Always Love You
DR7 0.00 dB -7.87 dB 2:09 07-Top Of The World
DR7 0.00 dB -8.23 dB 3:19 08-Speechless
DR7 0.00 dB -7.93 dB 3:45 09-Karma Chameleon
DR10 0.00 dB -11.53 dB 2:48 10-Crazy For You
DR6 0.00 dB -7.73 dB 3:37 11-On The Radio
DR6 0.00 dB -8.34 dB 2:54 12-The Way We Were
––––––––––––––––––––––––––––––––––––––––

Number of tracks: 12
Official DR value: DR7

Samplerate: 44100 Hz
Channels: 2
Bits per sample: 16
Bitrate: 992 kbps
Codec: FLAC
================================================================================

5% WinRar Recovery
If you experience any problems or broken links, PLEASE SEND PM to flac jacket.


CLICK HERE FOR ALL THE ME FIRST AND THE GIMME GIMMES ALBUMS!