Subcategories

Maynard Ferguson - The New Sounds Of Maynard Ferguson And His Orchestra '64 (1994)

Posted By: PCWhizzkid
Maynard Ferguson - The New Sounds Of Maynard Ferguson And His Orchestra '64 (1994)

Maynard Ferguson - The New Sounds Of Maynard Ferguson And His Orchestra '64 (1994)
EAC V1.0 beta 1 | FLAC ( Secure Mode ) Image + Cue + Log - 411 MB
FULL SCANS - 9 MB (600dpi) | Recovery Record + 3%
Genre: Jazz / Big Band | Label: Fresh Sound Records | Catalogue No: FSCD 2010
Wupload & Filesonic

Fabulous Maynard in his mid-60's form.This CD is interesting as it contains two albums Maynard recorded for the Camden label in 1964.It's swinging, straight-ahead jazz, with a number of high-note trumpet features for Maynard and some tasty solos by some of his talented sidemen.Wonderful.

Biography:

When he debuted with Stan Kenton's Orchestra in 1950, Maynard Ferguson could play higher than any other trumpeter up to that point in jazz history, and he was accurate. Somehow he has kept most of that range through the decades and since the 1970s has been one of the most famous musicians in jazz. Never known for his exquisite taste (some of his more commercial efforts are unlistenable), Maynard Ferguson has nevertheless led some important bands and definitely made an impact with his trumpet playing.
After heading his own big band in Montreal, Ferguson came to the United States in 1949 with hopes of joining Kenton's orchestra, but that ensemble had just recently broke up. So instead, MF gained experience playing with the big bands of Boyd Raeburn, Jimmy Dorsey and Charlie Barnet. In 1950 with the formation of Kenton's Innovations Orchestra, Ferguson became a star, playing ridiculous high notes with ease. In 1953 he left Kenton to work in the studios of Los Angeles and three years later led the all-star "Birdland Dreamband." In 1957 he put together a regular big band that lasted until 1965, recorded regularly for Roulette (all of its recordings with that label are on a massive Mosaic box set) and performed some of the finest music of Ferguson's career. Such players as Slide Hampton, Don Ellis, Don Sebesky, Willie Maiden, John Bunch, Joe Zawinul, Joe Farrell, Jaki Byard, Lanny Morgan, Rufus Jones, Bill Berry and Don Menza were among the more notable sidemen.
After economics forced him to give up the impressive band, Ferguson had a few years in which he was only semiactive in music, spending time in India and eventually forming a new band in England. After moving back to the U.S., Ferguson in 1974 drifted quickly into commercialism. Young trumpeters in high school and colleges were amazed by his high notes but jazz fans were dismayed by the tasteless recordings which resulted in hit versions of such songs as the themes from Star Wars and Rocky and much worse. After cutting back on his huge orchestra in the early '80s, Ferguson recorded some bop in a 1983 session, led a funk band called High Voltage during 1987-88 and then returned to jazz with his "Big Bop Nouveau Band," a medium-sized outfit.Sadly Maynard passed away in 2006.

Personnel:

Maynard Ferguson (trumpet, French horn, valve trombone); Lanny Morgan (flute, alto saxophone); Frank Vicari, Willie Maiden (tenor saxophone); Ronnie Cuber (baritone saxophone); Dusko Gojkovic, Nat Pavone, Harry Hall, Rick Kiefer (trumpet); Kenny Rupp (trombone); Mike Abene, Roger Kellaway (piano); Tony Inzalaco, Rufus "Speedy" Jones (drums)


TRACK LIST:

1. Chicago (Fred Fisher)
2. Gravy Waltz (Ray Brown)
3. Cherokee (Ray Noble)
4. One O'clock JUmp (Count Basie)
5. Bossa Nova De Funk (Willie Maiden)
6. Whisper Not (Benny Golson)
7. Take The "A" Train (Billy Strayhorn)
8. At The Sound Of The Trumpet (M.Ferguson-W.Maiden)
9. Maine Bone (M.Abene)
10. Watermelon Man (Herbie Hancock)
11. Danny Boy (Traditional)
12. Groove (Oliver Nelson)
13. Country Boy (Bill Homan)
14. We're Got A World That Swings (Mattis-Brown)
15. Naked City Theme (Billy May)
16. Blues For A Four String Guitar (Elmer Bernstein)
17. I'm Getting Sentimental Over You (G.Bassman-N.Washington)
18. New Hope (Don Rader)
19. Come Blow Your Horn (Van Heusen-Cahn)
20. Antony And Cleopatra Theme (Alex North)

Recording Time 75 Minutes


Exact Audio Copy V1.0 beta 1 from 15. November 2010

EAC extraction logfile from 14. June 2011, 14:49

Maynard Ferguson / The New Sounds Of Maynard Ferguson And His Orchestra 1964

Used drive : HL-DT-STDVDRAM GH22NS40 Adapter: 4 ID: 0

Read mode : Secure
Utilize accurate stream : Yes
Defeat audio cache : Yes
Make use of C2 pointers : No

Read offset correction : 667
Overread into Lead-In and Lead-Out : No
Fill up missing offset samples with silence : Yes
Delete leading and trailing silent blocks : No
Null samples used in CRC calculations : Yes
Used interface : Native Win32 interface for Win NT & 2000

Used output format : User Defined Encoder
Selected bitrate : 1024 kBit/s
Quality : High
Add ID3 tag : No
Command line compressor : C:\Program Files (x86)\Exact Audio Copy\FLAC\FLAC.EXE
Additional command line options : -6 -V -T "ARTIST=%a" -T "TITLE=%t" -T "ALBUM=%g" -T "DATE=%y" -T "TRACKNUMBER=%n" -T "GENRE=%m" -T "COMMENT=%e" %j–picture="%i"%j %s -o %d


TOC of the extracted CD

Track | Start | Length | Start sector | End sector
––––––––––––––––––––––––––––-
1 | 0:00.32 | 6:09.08 | 32 | 27714
2 | 6:09.40 | 4:07.07 | 27715 | 46246
3 | 10:16.47 | 4:19.20 | 46247 | 65691
4 | 14:35.67 | 5:54.60 | 65692 | 92301
5 | 20:30.52 | 5:31.35 | 92302 | 117161
6 | 26:02.12 | 6:31.48 | 117162 | 146534
7 | 32:33.60 | 2:45.45 | 146535 | 158954
8 | 35:19.30 | 4:42.42 | 158955 | 180146
9 | 40:01.72 | 3:00.53 | 180147 | 193699
10 | 43:02.50 | 2:21.07 | 193700 | 204281
11 | 45:23.57 | 3:51.50 | 204282 | 221656
12 | 49:15.32 | 2:53.50 | 221657 | 234681
13 | 52:09.07 | 3:59.20 | 234682 | 252626
14 | 56:08.27 | 2:23.15 | 252627 | 263366
15 | 58:31.42 | 2:32.45 | 263367 | 274811
16 | 61:04.12 | 2:28.73 | 274812 | 285984
17 | 63:33.10 | 3:11.32 | 285985 | 300341
18 | 66:44.42 | 2:45.53 | 300342 | 312769
19 | 69:30.20 | 3:40.65 | 312770 | 329334
20 | 73:11.10 | 2:33.00 | 329335 | 340809


Range status and errors

Selected range

Filename H:\Maynard Ferguson - The New Sounds Of Maynard Ferguson And His Orchestra 1964.wav

Peak level 94.1 %
Extraction speed 0.0 X
Range quality 100.0 %
Copy CRC 457F1D23
Copy OK

No errors occurred


AccurateRip summary

Track 1 accurately ripped (confidence 2) [2B210C56]
Track 2 accurately ripped (confidence 2) [78533537]
Track 3 accurately ripped (confidence 2) [1C39F53E]
Track 4 accurately ripped (confidence 2) [CAF47012]
Track 5 accurately ripped (confidence 2) [6778D35C]
Track 6 accurately ripped (confidence 2) [BFA0EEDA]
Track 7 accurately ripped (confidence 2) [751130A1]
Track 8 accurately ripped (confidence 2) [C84D8EAE]
Track 9 accurately ripped (confidence 2) [4375AAAD]
Track 10 accurately ripped (confidence 2) [B35728DC]
Track 11 accurately ripped (confidence 2) [92F609B3]
Track 12 accurately ripped (confidence 2) [962D5EE4]
Track 13 accurately ripped (confidence 2) [3B237B7F]
Track 14 accurately ripped (confidence 2) [ACB3896A]
Track 15 accurately ripped (confidence 2) [198BEC23]
Track 16 accurately ripped (confidence 2) [A38BA7F7]
Track 17 accurately ripped (confidence 2) [C787FC49]
Track 18 accurately ripped (confidence 2) [60CCC74B]
Track 19 accurately ripped (confidence 2) [2E249D90]
Track 20 accurately ripped (confidence 2) [8B113590]

All tracks accurately ripped

End of status report

==== Log checksum DD8E91B37FB5EEDA965997D4F4069FE9B468E7271BBBB6AC38D7DD0AF71748FF ====



Maynard Ferguson - The New Sounds Of Maynard Ferguson And His Orchestra '64 (1994)



Maynard Ferguson - The New Sounds Of Maynard Ferguson And His Orchestra '64 (1994)