Mats Lidstrom, Bengt Forsberg - Smorgasbord (2001)

Posted By: peotuvave
Mats Lidstrom, Bengt Forsberg - Smorgasbord (2001)

Mats Lidstrom, Bengt Forsberg - Smorgasbord (2001)
EAC Rip | Flac (Tracks + cue + log) | 268 MB | MP3 320Kbps CBR | 185 MB | 1 CD | Full Scans
Genre: Classical | Label: Hyperion | Catalog Number: 67184

Taking its title from the Scandinavian culinary terminology for a variety of delicacies, surely there has never been a more fascinating and evocative collection of short pieces recorded onto one disc? Personally chosen by the performers (with fascinating insights presented in Lidström's accompanying booklet, both historical and intimate), these musical jewels from around the world are firmly and deservedly ensconced in the hearts of these two engaging musicians, resulting in a magical discovery of pure indulgence for the privileged listener. One could not readily expect to find a more satisfying assembly of beautifully written and stunningly played works.

Reviews: Smorgasbord indeed! This "all-you-can-eat" collection offers a tasty selection of musical delicacies. Beginning with Korngold's lovely Mummenschantz and Romance Impromptu, and proceeding through Sibelius' Rondino and Berceuse, Jongen's beautiful Waltz, Scriabin's serene Poem, Martinu's perky Arabesque, Kreisler's poignant Liebeslied, Fauré's lovely Piece for Cello, and finally Stenhammar's stately and lyrical Adagio, we are offered more than 25 mouth-watering items from which to choose. Lidström and Forsberg make each number irresistible with their skillful and impassioned playing, unerring good taste, and exceptional musicianship. Those with adventurous palettes will savor such special pieces as Paul Tortelier's darkly dancing Pishnetto (with its tangy plucked glissandos), and Lidström's own The Sea of Flowers is Rising Higher, an elegiac rhapsody for solo cello. There are even dollops of Rameau (Torture d'Alphise) and Tille (Courante) for connoisseurs of the baroque. A feast such as this would be incomplete without a fine wine, and Hyperion's ideally balanced, dynamically vivid recording provides the equivalent of that. Bon appetit!

Tracklisting:

Erich Wolfgang Korngold (1897-1957)
01 Mummenschantz (Hornpipe) (Movement 3 of Much Ado About Nothing, Op 11) [2'21]
02 Romance Impromptu in E flat major Op posth. [2'15]

Anonymous
03 The Sussex mummer's Christmas carol (traditional, arr. Percy Grainger (1882-1961) [3'06]

Jean Sibelius (1865-1957)
04 Rondino (No 2 of Five Pieces for violin and piano, Op 81) [1'59]
05 Berceuse Op 79 No 6 [2'27]

Leopold Godowsky (1870-1938)
06 Larghetto Lamentoso (Movement from Twelve Impressions) [4'25]

Joseph Jongen (1873-1953)
07 Valse [4'34]
08 Habanera Op 86[4'12]

Xavier Montsalvatge (1912-2002)
09 Canto negro !Yambambó, yambambé! (No 5 of Cinco canciones negras) (arr. Mats Lidström (b?) [1'17]

Ernesto Halffter (1905-1989)
10 Habanera (arr. Maurice Gendron) (1920-1990)[3'58]

Ernest John Moeran (1894-1950)
11 Prelude[4'57]

Fritz Kreisler (1875-1962)
12 Liebesleid (arr. Sergei Rachmaninov (1873-1943) & Mats Lidström (b?) [5'09]

Alexander Scriabin (1872-1915)
13 Deux poemes Op 32, No 1 in F sharp major: Andante cantabile (arr. Mats Lidström (b?) [4'10]
14 Romance in A minor [2'34]

Bohuslav Martinů (1890-1959)
15 Arabesque No 1[2'32]

Paul Tortelier (1914-1990)
16 Pishnetto [1'57]

Jakob Adolf Hägg (1850-1928)
17 Andante [2'19]
18 Albumblatt [2'46]

Sir Lennox Berkeley (1903-1989)
19 Andantino Op 21 No 2a [1'20]

Mats Lidström (b?)
20 The sea of flowers is rising higher [2'53]

Jean-Philippe Rameau (1683-1764)
21 Les Boréades Act 4: Air vif. Torture d'Alphise(arr. Mats Lidström (b?) [1'57]

François Lucas Tille (1712-1772)
22 Le Tombeau de Rameau Movement 4: Courante[2'29]

Jacques Offenbach (1819-1880)
23 Souvenir du Val Op 29 No 1: Romance [1'10]

Gabriel Fauré (1845-1924)
24 Papillon Op 77 [2'29]

Wilhelm Stenhammar (1871-1927)
25 Five Songs Op 20, No 5: Adagio arr. Mats Lidström (b?) [3'20]

Total duration: 72'36

Exact Audio Copy V1.0 beta 3 from 29. August 2011

EAC extraction logfile from 18. June 2015, 8:29

Mats Lidström / Smörgåsbord

Used drive : PLDS DVD-RW DA8A5SH Adapter: 0 ID: 0

Read mode : Secure
Utilize accurate stream : Yes
Defeat audio cache : Yes
Make use of C2 pointers : No

Read offset correction : 6
Overread into Lead-In and Lead-Out : No
Fill up missing offset samples with silence : Yes
Delete leading and trailing silent blocks : No
Null samples used in CRC calculations : Yes
Used interface : Native Win32 interface for Win NT & 2000
Gap handling : Appended to previous track

Used output format : User Defined Encoder
Selected bitrate : 768 kBit/s
Quality : High
Add ID3 tag : No
Command line compressor : C:\Program Files (x86)\Exact Audio Copy\FLAC\FLAC.EXE
Additional command line options : -8 -V -T "ARTIST=%artist%" -T "TITLE=%title%" -T "ALBUM=%albumtitle%" -T "DATE=%year%" -T "TRACKNUMBER=%tracknr%" -T "TOTALTRACKS=%numtracks%" -T "GENRE=%genre%" -T "ALBUMARTIST=%albumartist%" -T "ALBUM ARTIST=%albumartist%" -T "COMMENT=EAC Secure Mode, Test & Copy, AccurateRip, FLAC -8" %source%


TOC of the extracted CD

Track | Start | Length | Start sector | End sector
––––––––––––––––––––––––––––-
1 | 0:00.00 | 2:19.31 | 0 | 10455
2 | 2:19.31 | 2:16.13 | 10456 | 20668
3 | 4:35.44 | 3:05.27 | 20669 | 34570
4 | 7:40.71 | 1:59.30 | 34571 | 43525
5 | 9:40.26 | 2:27.08 | 43526 | 54558
6 | 12:07.34 | 4:27.28 | 54559 | 74611
7 | 16:34.62 | 4:33.29 | 74612 | 95115
8 | 21:08.16 | 4:12.33 | 95116 | 114048
9 | 25:20.49 | 1:17.33 | 114049 | 119856
10 | 26:38.07 | 3:59.08 | 119857 | 137789
11 | 30:37.15 | 4:57.03 | 137790 | 160067
12 | 35:34.18 | 5:10.04 | 160068 | 183321
13 | 40:44.22 | 4:10.35 | 183322 | 202106
14 | 44:54.57 | 2:32.17 | 202107 | 213523
15 | 47:26.74 | 1:56.37 | 213524 | 222260
16 | 49:23.36 | 2:21.16 | 222261 | 232851
17 | 51:44.52 | 2:45.52 | 232852 | 245278
18 | 54:30.29 | 1:21.51 | 245279 | 251404
19 | 55:52.05 | 2:54.13 | 251405 | 264467
20 | 58:46.18 | 1:56.20 | 264468 | 273187
21 | 60:42.38 | 2:28.53 | 273188 | 284340
22 | 63:11.16 | 1:10.43 | 284341 | 289633
23 | 64:21.59 | 2:30.59 | 289634 | 300942
24 | 66:52.43 | 3:19.54 | 300943 | 315921
25 | 70:12.22 | 3:16.16 | 315922 | 330637


Track 1

Filename D:\Smörgåsbord (2001) {FLAC] {CDA67184}\ 01 - Erich Wolfgang Korngold - Mummenschantz (Hornpipe) (Movement from Much Ado About Nothing, Op. 11).wav

Pre-gap length 0:00:02.00

Peak level 78.0 %
Extraction speed 1.1 X
Track quality 99.9 %
Test CRC 06AC2C80
Copy CRC 06AC2C80
Accurately ripped (confidence 2) [53F954A9] (AR v2)
Copy OK

Track 2

Filename D:\Smörgåsbord (2001) {FLAC] {CDA67184}\ 02 - Erich Wolfgang Korngold - Romance Impromptu in E flat, major Op posth..wav

Pre-gap length 0:00:01.63

Peak level 52.9 %
Extraction speed 1.6 X
Track quality 100.0 %
Test CRC 1DB60D06
Copy CRC 1DB60D06
Accurately ripped (confidence 2) [CE4B8BD0] (AR v2)
Copy OK

Track 3

Filename D:\Smörgåsbord (2001) {FLAC] {CDA67184}\ 03 - Anonymous - The Sussex Mummers' Christmas Carol (arr. Percy Grainger).wav

Pre-gap length 0:00:01.37

Peak level 62.5 %
Extraction speed 1.8 X
Track quality 100.0 %
Test CRC 99CD4002
Copy CRC 99CD4002
Accurately ripped (confidence 2) [724713F6] (AR v2)
Copy OK

Track 4

Filename D:\Smörgåsbord (2001) {FLAC] {CDA67184}\ 04 - Jean Sibelius - Rondino (No 2 of Five Pieces for violin and piano, Op. 81).wav

Pre-gap length 0:00:02.33

Peak level 34.8 %
Extraction speed 1.3 X
Track quality 100.0 %
Test CRC 12AB9EDE
Copy CRC 12AB9EDE
Accurately ripped (confidence 2) [C083406E] (AR v2)
Copy OK

Track 5

Filename D:\Smörgåsbord (2001) {FLAC] {CDA67184}\ 05 - Jean Sibelius - Berceuse, Op. 79 No. 6.wav

Pre-gap length 0:00:02.00

Peak level 26.3 %
Extraction speed 1.8 X
Track quality 100.0 %
Test CRC 1E825775
Copy CRC 1E825775
Accurately ripped (confidence 2) [A09889A1] (AR v2)
Copy OK

Track 6

Filename D:\Smörgåsbord (2001) {FLAC] {CDA67184}\ 06 - Leopold Godowsky - Larghetto Lamentoso (Movement from Twelve Impressions).wav

Pre-gap length 0:00:02.08

Peak level 46.1 %
Extraction speed 2.3 X
Track quality 100.0 %
Test CRC C7D4176B
Copy CRC C7D4176B
Accurately ripped (confidence 2) [48548D80] (AR v2)
Copy OK

Track 7

Filename D:\Smörgåsbord (2001) {FLAC] {CDA67184}\ 07 - Joseph Jongen - Valse.wav

Pre-gap length 0:00:00.47

Peak level 38.5 %
Extraction speed 2.4 X
Track quality 100.0 %
Test CRC 5F38B034
Copy CRC 5F38B034
Accurately ripped (confidence 2) [546B4079] (AR v2)
Copy OK

Track 8

Filename D:\Smörgåsbord (2001) {FLAC] {CDA67184}\ 08 - Joseph Jongen - Habanera, Op. 86.wav

Pre-gap length 0:00:01.34

Peak level 57.4 %
Extraction speed 2.6 X
Track quality 100.0 %
Test CRC A35E316A
Copy CRC A35E316A
Accurately ripped (confidence 2) [3FBF9C0A] (AR v2)
Copy OK

Track 9

Filename D:\Smörgåsbord (2001) {FLAC] {CDA67184}\ 09 - Xavier Montsalvatge - Canto Negro ¡Yambambó, yambambé! (from Cinco Canciones Negras) (arr Mats Lidström).wav

Pre-gap length 0:00:02.31

Peak level 58.0 %
Extraction speed 2.0 X
Track quality 100.0 %
Test CRC B5D9EBCE
Copy CRC B5D9EBCE
Accurately ripped (confidence 2) [91ED9248] (AR v2)
Copy OK

Track 10

Filename D:\Smörgåsbord (2001) {FLAC] {CDA67184}\ 10 - Ernesto Halffter - Habanera (arr Maurice Gendron).wav

Pre-gap length 0:00:01.18

Peak level 59.6 %
Extraction speed 2.7 X
Track quality 100.0 %
Test CRC 10C1472D
Copy CRC 10C1472D
Accurately ripped (confidence 2) [53D51D8E] (AR v2)
Copy OK

Track 11

Filename D:\Smörgåsbord (2001) {FLAC] {CDA67184}\ 11 - Ernest John Moeran - Prelude.wav

Pre-gap length 0:00:02.02

Peak level 40.8 %
Extraction speed 2.9 X
Track quality 100.0 %
Test CRC 25321063
Copy CRC 25321063
Accurately ripped (confidence 2) [8946C4C8] (AR v2)
Copy OK

Track 12

Filename D:\Smörgåsbord (2001) {FLAC] {CDA67184}\ 12 - Fritz Kreisler - Liebesleid (arr Rachmaninov - Lindström).wav

Pre-gap length 0:00:02.09

Peak level 79.7 %
Extraction speed 2.5 X
Track quality 99.9 %
Test CRC A634551C
Copy CRC A634551C
Accurately ripped (confidence 2) [3C65006F] (AR v2)
Copy OK

Track 13

Filename D:\Smörgåsbord (2001) {FLAC] {CDA67184}\ 13 - Alexander Scriabin - Deux poèmes Op. 32 - No 1 in F sharp major; Andante cantabile(arr Mats Lidström).wav

Pre-gap length 0:00:01.17

Peak level 37.8 %
Extraction speed 3.1 X
Track quality 100.0 %
Test CRC BBFE1114
Copy CRC BBFE1114
Accurately ripped (confidence 2) [7F50D472] (AR v2)
Copy OK

Track 14

Filename D:\Smörgåsbord (2001) {FLAC] {CDA67184}\ 14 - Alexander Scriabin - Romance in A minor.wav

Pre-gap length 0:00:01.48

Peak level 66.2 %
Extraction speed 3.0 X
Track quality 100.0 %
Test CRC 27D97CCD
Copy CRC 27D97CCD
Accurately ripped (confidence 2) [385E81D6] (AR v2)
Copy OK

Track 15

Filename D:\Smörgåsbord (2001) {FLAC] {CDA67184}\ 15 - Bohuslav Martinu - Arabesque No. 1 (from Sept Arabesques).wav

Pre-gap length 0:00:01.09

Peak level 51.9 %
Extraction speed 1.9 X
Track quality 99.9 %
Test CRC 473D852F
Copy CRC 473D852F
Accurately ripped (confidence 2) [18225CBE] (AR v2)
Copy OK

Track 16

Filename D:\Smörgåsbord (2001) {FLAC] {CDA67184}\ 16 - Paul Tortelier - Pishnetto (Recital étude No. 5).wav

Pre-gap length 0:00:02.09

Peak level 60.3 %
Extraction speed 3.0 X
Track quality 100.0 %
Test CRC 7D70C98B
Copy CRC 7D70C98B
Accurately ripped (confidence 2) [0F6C99E9] (AR v2)
Copy OK

Track 17

Filename D:\Smörgåsbord (2001) {FLAC] {CDA67184}\ 17 - Jakob Adolf Hägg - Andante.wav

Pre-gap length 0:00:01.02

Peak level 38.5 %
Extraction speed 2.3 X
Track quality 99.9 %
Test CRC 9C905A26
Copy CRC 9C905A26
Accurately ripped (confidence 2) [CADCFB3B] (AR v2)
Copy OK

Track 18

Filename D:\Smörgåsbord (2001) {FLAC] {CDA67184}\ 18 - Jakob Adolf Hägg - Albumblatt.wav

Pre-gap length 0:00:02.17

Peak level 42.2 %
Extraction speed 1.6 X
Track quality 99.8 %
Test CRC 973572EF
Copy CRC 973572EF
Accurately ripped (confidence 2) [B851C0DB] (AR v2)
Copy OK

Track 19

Filename D:\Smörgåsbord (2001) {FLAC] {CDA67184}\ 19 - Lennox Berkeley - Andantino, Op. 21, No. 2a.wav

Pre-gap length 0:00:01.32

Peak level 44.7 %
Extraction speed 3.2 X
Track quality 100.0 %
Test CRC F5ED3E9D
Copy CRC F5ED3E9D
Accurately ripped (confidence 2) [400009D1] (AR v2)
Copy OK

Track 20

Filename D:\Smörgåsbord (2001) {FLAC] {CDA67184}\ 20 - Mats Lidström - The Sea of Flowers is Rising Higher (Elegy for solo cello).wav

Pre-gap length 0:00:01.29

Peak level 43.1 %
Extraction speed 3.0 X
Track quality 100.0 %
Test CRC 64C223BE
Copy CRC 64C223BE
Accurately ripped (confidence 2) [45DA693D] (AR v2)
Copy OK

Track 21

Filename D:\Smörgåsbord (2001) {FLAC] {CDA67184}\ 21 - Jean-Philippe Rameau - Les Boréades - Act 4; Air vif. Torture d'Alphise (arr Mats Lidström).wav

Pre-gap length 0:00:01.44

Peak level 75.1 %
Extraction speed 2.2 X
Track quality 99.9 %
Test CRC 901A31C7
Copy CRC 901A31C7
Accurately ripped (confidence 2) [C2A30864] (AR v2)
Copy OK

Track 22

Filename D:\Smörgåsbord (2001) {FLAC] {CDA67184}\ 22 - François Lucas Tille - Le Tombeau de Rameau - Movement 4 - Courante.wav

Pre-gap length 0:00:00.63

Peak level 63.0 %
Extraction speed 2.6 X
Track quality 100.0 %
Test CRC 6E1AEC2E
Copy CRC 6E1AEC2E
Accurately ripped (confidence 2) [DAA31E87] (AR v2)
Copy OK

Track 23

Filename D:\Smörgåsbord (2001) {FLAC] {CDA67184}\ 23 - Jacques Offenbach - Souvenir du Val - No 1; Romance.wav

Pre-gap length 0:00:00.20

Peak level 23.3 %
Extraction speed 3.3 X
Track quality 100.0 %
Test CRC DE72E0CD
Copy CRC DE72E0CD
Accurately ripped (confidence 2) [0657192E] (AR v2)
Copy OK

Track 24

Filename D:\Smörgåsbord (2001) {FLAC] {CDA67184}\ 24 - Gabriel Fauré - Papillon, Op. 77.wav

Pre-gap length 0:00:02.06

Peak level 53.7 %
Extraction speed 3.4 X
Track quality 100.0 %
Test CRC 86001104
Copy CRC 86001104
Accurately ripped (confidence 2) [A6081818] (AR v2)
Copy OK

Track 25

Filename D:\Smörgåsbord (2001) {FLAC] {CDA67184}\ 25 - Wilhelm Stenhammar - Five Songs Op. 20 - No 5. - Adagio.wav

Pre-gap length 0:00:00.60

Peak level 29.1 %
Extraction speed 2.7 X
Track quality 99.9 %
Test CRC ABAA5C71
Copy CRC ABAA5C71
Accurately ripped (confidence 2) [45CF328C] (AR v2)
Copy OK


All tracks accurately ripped

No errors occurred

End of status report

==== Log checksum 7974BFED20238BE29D37BAB1A9B8215BEA5CF335C3A356A675B910598FC50D31 ====



Thanks to the original releaser
Download:

Nitroflare: FLAC | MP3