Subcategories

Lynyrd Skynyrd - Sounds Of The South/MCA Years 1973-1988 (2007) [Japanese LTD mini-LP CD, Promo Box Set]

Posted By: Andi_Deris
Lynyrd Skynyrd - Sounds Of The South/MCA Years 1973-1988 (2007) [Japanese LTD mini-LP CD, Promo Box Set]

Lynyrd Skynyrd - Sounds Of The South/MCA Years 1973-1988 (2007) [Japanese LTD mini-LP CD, Promo Box Set]
EAC Rip | FLAC: Tracks+Cue+Log | 3.4 Gb | MP3 CBR 320 kbps | 1.3 Gb | Scans | TTime: 08:23:44
Genre: Southern Rock, Blues Rock, Hard Rock | Label: Universal (Japan) | Cat.№: UICY-90400/7

LYNYRD SKYNYRD Sounds Of The South/MCA Years 1973-1988 (Limited edition 2007 promotional Japanese box set) contains Lynyrd Skynyrd's original MCA albums digitally remastered and expanded and housed in miniature LP sleeves [One More For The Road is a double CD], all of whichare promo-stamped. Five of the albums include bonus tracks and each includes replica liner notes or picture inserts. Not least there are two booklets: an extensive 80-page booklet with English lyrics and specific notes onthe bonus tracks + a 28-page booklet about the boxand album reissues themselves.

Included in this box are: Pronounced Leh-Nerd Skin-Nerd (1973/five bonus tracks), Second Helping (1974/three bonus tracks), Nuthin' Fancy (1975/two bonus tracks), Gimme Back My Bullets (1976/two bonus tracks), the two disc One More For The Road (1976/eight bonus tracks), Street Survivors (1977/five bonus tracks) and Southern By The Grace Of God: Lynyrd Skynyrd Tribute Tour 1987 Universal

Lynyrd Skynyrd - Sounds Of The South/MCA Years 1973-1988 (2007) [Japanese LTD mini-LP CD, Promo Box Set]




•····························································•


Lynyrd Skynyrd - Sounds Of The South/MCA Years 1973-1988 (2007) [Japanese LTD mini-LP CD, Promo Box Set]


Pronounced 'Lĕh-'Nérd 'Skin-'Nérd (1973)
FLAC | 520 Mb | MP3 | 187 Mb | Scans | Time: 1:16:06
Cat.№: UICY-90400

(Pronounced 'Lĕh-'nérd 'Skin-'nérd) is the debut album from Lynyrd Skynyrd, released in 1973. The album features several of the band's most well-known songs, including "Gimme Three Steps", "Simple Man", "Tuesday's Gone" and "Free Bird", the latter of which launched the band to national stardom. Wikipedia

Track Listing

01. I Ain't The One (03:53)
02. Tuesday's Gone (07:32)
03. Gimme Three Steps (04:30)
04. Simple Man (05:58)
05. Things Goin' On (04:59)
06. Mississippi Kid (03:56)
07. Poison Whiskey (03:13)
08. Free Bird (09:18)
09. Mr. Banker [demo version] (05:22)
10. Down South Jukin' [demo version] (02:57)
11. Tuesday's Gone [demo version] (07:55)
12. Gimme Three Steps [demo version] (05:19)
13. Free Bird [demo version] (11:09)

Produced by Al Kooper

The Band

• Ronnie Van Zant - lead vocals
• Gary Rossington - lead guitar on "Tuesday's Gone", "Gimme Three Steps", "Things Goin' On", "Poison Whiskey", "Simple Man", rhythm guitar on the others, slide guitar on "Free Bird"
• Allen Collins - lead guitar on "I Ain't The One", Simple Man" & "Free Bird", rhythm guitar on the others
• Ed King - lead guitar on "Mississippi Kid", bass on all tracks except "Mississippi Kid" and "Tuesday's Gone"
• Billy Powell - keyboards
• Bob Burns - drums except on "Tuesday's Gone"
• Leon Wilkeson - bass for the group up until the album was cut, rejoined shortly thereafter

Additional personnel
• Al Kooper (Roosevelt Gook) - bass, Mellotron & back-up harmony on "Tuesday's Gone", mandolin & bass drum on "Mississippi Kid", organ on "Simple Man", "Poison Whiskey" & "Free Bird", Mellotron on "Free Bird"
• Robert Nix - drums on "Tuesday's Gone"
• Bobbye Hall - percussion on "Gimme Three Steps" & "Things Goin' On"
• Steve Katz - harmonica on "Mississippi Kid"

•····························································•


Lynyrd Skynyrd - Sounds Of The South/MCA Years 1973-1988 (2007) [Japanese LTD mini-LP CD, Promo Box Set]


Second Helping (1974)
FLAC | 339 Mb | MP3 | 133 Mb | Scans | Time: 53:56
Cat.№: UICY-90401

Second Helping is a 1974 album by Lynyrd Skynyrd. It was the band's second album, and featured its biggest hit single, "Sweet Home Alabama", an answer song to Neil Young's "Alabama" and "Southern Man". The song reached #8 on the Billboard Hot 100 chart in August 1974. This was the first Lynyrd Skynyrd album to feature the band's trademark triple guitar attack and also the first album to feature Ed King on guitar after playing bass on the debut album, Leon Wilkeson on bass and the last to feature Bob Burns on drums. The album reached #12 on the Billboard album charts. It was certified Gold on 9/20/1974, Platinum and 2x Platinum on 7/21/1987 by the RIAA.Wikipedia

Track Listing

01. Sweet Home Alabama (04:43)
02. I Need You (06:55)
03. Don't Ask Me No Questions (03:26)
04. Working For MCA (04:49)
05. The Ballad Of Curtis Loew (04:51)
06. Swamp Music (03:31)
07. The Needle And The Spoon (03:53)
08. Call Me The Breeze (05:09)
09. Don't Ask Me No Questions [single version] (03:31)
10. Was I Right or Wrong [Sounds Of The Southdemo version] (05:33)
11. Take Your Time [Sounds Of The South demo version] (07:29)

Produced by Al Kooper

The Band

• Ronnie Van Zant - lead vocals
• Gary Rossington - Gibson Les Paul guitar, rhythm and acoustic guitar on "Sweet Home Alabama"
• Allen Collins - Gibson Firebird guitar
• Ed King - Fender Stratocaster guitar, slide guitar, rhythm guitar and bass on "I Need You" and "Don't Ask Me No Questions"
• Billy Powell - keyboards, piano on "Sweet Home Alabama"
• Leon Wilkeson - Gibson Thunderbird bass
• Bob Burns - drums except "I Need You"

Additional personnel
• Mike Porter - drums on "I Need You"
• Clydie King, Sherlie Matthews - background vocals on "Sweet Home Alabama"
• Merry Clayton and friends - background vocals on "Sweet Home Alabama"
• Bobby Keys, Trewor Lawrence and Steve Madiao - horns on "Don't Ask Me No Questions" and "Call Me the Breeze"
• Al Kooper - backing vocals, piano on "Don't Ask…" & "The Ballad of Curtis Loew"

•····························································•


Lynyrd Skynyrd - Sounds Of The South/MCA Years 1973-1988 (2007) [Japanese LTD mini-LP CD, Promo Box Set]


Nuthin' Fancy (1975)
FLAC | 305 Mb | MP3 | 128 Mb | Scans | Time: 49:13
Cat.№: UICY-90402

Nuthin' Fancy is a 1975 album by Lynyrd Skynyrd, their third studio album, and their first to reach the Top 10, peaking at #9 on the US albums chart. It was certified Gold on 6/27/1975 and Platinum on 7/21/1987 by the RIAA. This is the first record with new drummer Artimus Pyle and the last with guitarist Ed King until the reformation of Lynyrd Skynyrd and the release of Lynyrd Skynyrd 1991.Wikipedia

Track Listing

01. Saturday Night Special (05:09)
02. Cheatin' Woman (04:39)
03. Railroad Song (04:15)
04. I'm A Country Boy (04:26)
05. On The Hunt (05:28)
06. Am I Losin' (04:35)
07. Made In The Shade (04:40)
08. Whiskey Rock-A Roller (04:20)
09. Railroad Song [Live at Winterland, San Francisco, April 27th 1975] (05:27)
10. On The Hunt [Live at Winterland, San Francisco, April 27th 1975] (06:09)

Produced by Al Kooper

The Band

• Ronnie Van Zant - lead vocals
• Allen Collins - Gibson Firebird guitar
• Ed King - Fender Stratocaster and Gibson SG guitar
• Gary Rossington - Gibson Les Paul guitar
• Billy Powell - keyboards
• Leon Wilkeson - bass guitar
• Artimus Pyle - drums, percussion

Additional personnel
• Barry Harwood - dobro, mandolin
• Jimmy Hall - harmonica
• David Foster - piano
• Bobbye Hall - percussion

•····························································•


Lynyrd Skynyrd - Sounds Of The South/MCA Years 1973-1988 (2007) [Japanese LTD mini-LP CD, Promo Box Set]


Gimme Back My Bullets (1976)
FLAC | 283 Mb | MP3 | 113 Mb | Scans | Time: 45:09
Cat.№: UICY-90403

Gimme Back My Bullets is Lynyrd Skynyrd's fourth studio album. It was released on February 2, 1976. It reached # 20 on the U.S. albums chart. The album was certified Gold on 1/20/1981 by the RIAA.Wikipedia

Track Listing

01. Gimme Back My Bullets (03:29)
02. Every Mother' Son (04:58)
03. Trust (04:26)
04. I Got the Same Old Blues (04:10)
05. Double Trouble (02:50)
06. Roll Gypsy Roll (02:51)
07. Searching (03:19)
08. Cry for the Bad Man (04:50)
09. All I Can Do is Write About It (04:19)
10. Gimme Back My Bullets [live] (04:18)
11. Cry for the Bad Man [live] (05:35)

Produced by Tom Dowd

The Band

• Ronnie Van Zant - lead vocals
• Allen Collins - guitars
• Gary Rossington - guitars
• Billy Powell - keyboards
• Leon Wilkeson - bass, background vocals
• Artimus Pyle - drums, percussion

Additional personnel
• The Honkettes (background vocals: 5,8), Lee Freeman (harp: 4), Barry Lee Harwood (dobro & mandolin: 9), violin on (9) is "unidentified"

•····························································•


Lynyrd Skynyrd - Sounds Of The South/MCA Years 1973-1988 (2007) [Japanese LTD mini-LP CD, Promo Box Set]


One More From The Road (1976)
FLAC | 568 + 559 Mb | MP3 | 199 + 212 Mb | Scans | Time: 1:12:43 + 1:17:31
Cat.№: UICY-90404/5

One More from the Road (Styled as "One More For From The Road") is a live album by Southern rock band Lynyrd Skynyrd. It marked the band's first live album, and the only live album from the "classic" era of the band (1970–1977) prior to the plane crash that killed lead singer/songwriter Ronnie Van Zant, as well as band members Steve Gaines and Cassie Gaines. The album was released in September 1976. It was certified Gold on 10/26/1976, Platinum on 12/30/1976 and 3x Platinum on 7/21/1987 by the RIAA.Wikipedia

DISC 1

01. Introduction / Workin' For MCA (05:32)
02. I Ain't The One (03:47)
03. Saturday Night Special (05:39)
04. Searching (04:00)
05. Travellin' Man (04:37)
06. Simple Man (06:56)
07. Whiskey Rock-A-Roller (04:48)
08. The Needle And The Spoon (04:35)
09. Gimme Back My Bullets (04:01)
10. Tuesday's Gone (08:25)
11. Gimme Three Steps (05:11)
12. Call Me The Breeze (05:51)
13. T For Texas (Blue Yodel No. 1) (09:15)

DISC 2

01. Sweet Home Alabama (07:29)
02. Crossroads (04:16)
03. Free Bird (14:25)
04. Introduction By Alex Cooley / Workin' For MCA [alternate take] (05:37)
05. I Ain't The One [alternate take] (03:52)
06. Searching [alternate take] (04:13)
07. Gimme Three Steps [alternate take] (04:42)
08. Call Me The Breeze [alternate take] (05:43)
09. Sweet Home Alabama [alternate take] (07:27)
10. Crossroads [alternate take] (04:46)
11. Free Bird [alternate take] (14:56)

Produced by Tom Dowd

The Band

• Ronnie Van Zant - lead vocals
• Steve Gaines - guitar, backing vocals
• Allen Collins - guitar
• Gary Rossington - guitar, keyboards
• Billy Powell - keyboards
• Leon Wilkeson - bass, backing vocals
• Artimus Pyle - drums
• JoJo Billingsley, Cassie Gaines, Leslie Hawkins - backing vocals

•····························································•


Lynyrd Skynyrd - Sounds Of The South/MCA Years 1973-1988 (2007) [Japanese LTD mini-LP CD, Promo Box Set]


Street Survivors (1977)
FLAC | 390 Mb | MP3 | 149 Mb | Scans | Time: 56:44
Cat.№: UICY-90406

Street Survivors is the fifth studio album by Southern rock band, Lynyrd Skynyrd, released on October 17, 1977. The LP is the last Skynyrd album recorded by original members Ronnie Van Zant and Allen Collins, and is the sole Skynyrd studio recording by guitarist Steve Gaines. Three days after the album's release, the band's chartered airplane crashed en route to Baton Rouge, Louisiana, killing the pilot, co-pilot, the group's assistant road-manager and three band members (Van Zant, Gaines, and Gaines' older sister, backup singer Cassie Gaines), and severely injuring most who survived the crash. The album performed well on the charts, peaking at #5 (their first top 5 album), as did the singles "What's Your Name" and "That Smell", the former a top 20 hit on the singles chart.

The album was an instant success, achieving gold certification just ten days after its release. It would later go double platinum.Wikipedia

Track Listing

01. What's Your Name? (03:33)
02. That Smell (05:48)
03. One More Time (05:03)
04. I Know A Little (03:28)
05. You Got That Right (03:47)
06. I Never Dreamed (05:22)
07. Honky Tonk Night Time Man (04:04)
08. Ain't No Good Life (04:43)
09. Georgia Peaches [bonus track] (03:15)
10. Sweet Little Missy [bonus track] (05:10)
11. You Got That Right [alternate version] (03:26)
12. I Never Dreamed [alternate version] (04:55)
13. Jacksonville Kid [aka ''Honky Tonk Night Time Man''] (04:03)

Produced by Tom Dowd, Jimmy Johnson & Tim Smith

The Band

• Ronnie Van Zant - lead vocals
• Steve Gaines - guitar, backing vocals, lead vocal on "Ain't No Good Life", co-lead vocal on "You Got That Right"
• Allen Collins - guitar
• Gary Rossington - guitar
• Billy Powell - keyboards
• Leon Wilkeson - bass, backing vocals
• Artimus Pyle - drums
• The Honkettes (JoJo Billingsley, Cassie Gaines, Leslie Hawkins) - backing vocals on "That Smell" and "One More Time"

Additional personnel
• track "One More Time" featuring Ed King (guitar), Greg T. Walker (bass), Rick Medlocke (drums and bk vocals); Tim Smith & Leslie Hawkins (bk vocals)

•····························································•


Lynyrd Skynyrd - Sounds Of The South/MCA Years 1973-1988 (2007) [Japanese LTD mini-LP CD, Promo Box Set]


Southern By The Grace Of God: Lynyrd Skynyrd Tribute Tour 1987 (1988)
FLAC | 521 Mb | MP3 | 181 Mb | Scans | Time: 1:12:25
Cat.№: UICY-90407

Southern by the Grace of God is a live album by southern rock band Lynyrd Skynyrd, this live concert was a tribute by Lynyrd Skynyrd to the members of the band who had died in the 1977 plane crash. The plane crash killed frontman Ronnie Van Zant, guitarist Steve Gaines, backing vocalist Cassie Gaines and road manager Dean Kilpatrick. This is the first album produced by the band after the '77 plane crash. The band's lineup was re-worked into a second-generation Skynyrd. The changes include: Johnny Van Zant, younger brother of Ronnie Van Zant, taking over on vocals, Ed King, who departed the band during a 1975 tour and Randall Hall, who replaced the paralyzed Allen Collins. The three (King, Hall along with founding member Gary Rossington) re-form the famous triple-lead guitar attack of the original band. New background vocalists Carol Bristow and Dale Krantz Rossington were added to take the place of the original Honkettes.Wikipedia

Track Listing

01. Introduction Vy Lacy Van Zant / Workin' For MCA (06:04)
02. That Smell (06:33)
03. I Know A Little (04:58)
04. Comin' Home (06:36)
05. You Got That Right (04:33)
06. What's Your Name? (03:59)
07. Gimme Back My Bullets (04:57)
08. Swamp Music (03:51)
09. Call Me The Breeze (07:29)
10. Dixie / Sweet Home Alabama (08:29)
11. Free Bird (14:51)

Produced by Jimmy Johnson

The Band

• Johnny Van Zant - lead vocals
• Gary Rossington - guitar
• Ed King - guitar, Yamaha DX7, backing vocals
• Randall Hall - backing vocals, guitar
• Leon Wilkeson - backing vocals, bass
• Billy Powell - piano, organ, Yamaha DX7
• Artimus Pyle - drums
• Chris Pyle - percussion
• Dale Krantz Rossington - backing vocals
• Carol Bristow - backing vocals

Special Appearances
• Allen Collins - arrangement consultant
• Ronnie Eades - Muscle Shoals Horn Section
• Don Taylor - Sax Attack Horn Section
• Lacy Van Zant - Master of Ceremonies
• Charlie Daniels - vocals ("Sweet Home Alabama"), fiddle ("Call Me The Breeze")
• Steve Morse - guitar ("Gimme Back My Bullets")
• Toy Caldwell - guitar ("Call Me The Breeze")
• Jeff Carlisi - guitar ("Call Me The Breeze")
• Donnie Van Zant - vocals ("Call Me The Breeze" and "Sweet Home Alabama")

Lynyrd Skynyrd - Sounds Of The South/MCA Years 1973-1988 (2007) [Japanese LTD mini-LP CD, Promo Box Set]


EAC extraction logfile from 11. January 2009, 13:12 for CD
Lynyrd Skynyrd / pronounced 'leh-'nerd 'skin-'nerd

Used drive : BENQ DVD DD DW1620 Adapter: 0 ID: 0
Read mode : Secure with NO C2, accurate stream, disable cache
Read offset correction : 618
Overread into Lead-In and Lead-Out : No

Used output format : C:\Program Files\Flac Frontend\FLAC\flac.exe (User Defined Encoder)
192 kBit/s
Additional command line options : -8 -V -T "ARTIST=%a" -T "TITLE=%t" -T "ALBUM=%g" -T "DATE=%y" -T "TRACKNUMBER=%n" -T "GENRE=%m" -T "COMMENT=EAC Flac 1.1.2 -8" %s

Other options :
Fill up missing offset samples with silence : Yes
Delete leading and trailing silent blocks : No
Native Win32 interface for Win NT & 2000


Track 1
Filename G:\BTMusic\Lynyrd Skynyrd - Sounds of South MCA Years (1973-1988) [FLAC] {Limited edition 2007 Japan Box Set}\pronounced 'leh-'nerd 'skin-'nerd-UICY-90400\01 - I Ain't The One.wav

Pre-gap length 0:00:02.00

Peak level 94.4 %
Track quality 100.0 %
Test CRC BD421987
Copy CRC BD421987
Copy OK

Track 2
Filename G:\BTMusic\Lynyrd Skynyrd - Sounds of South MCA Years (1973-1988) [FLAC] {Limited edition 2007 Japan Box Set}\pronounced 'leh-'nerd 'skin-'nerd-UICY-90400\02 - Tuesday's Gone.wav

Peak level 94.4 %
Track quality 100.0 %
Test CRC E237883E
Copy CRC E237883E
Copy OK

Track 3
Filename G:\BTMusic\Lynyrd Skynyrd - Sounds of South MCA Years (1973-1988) [FLAC] {Limited edition 2007 Japan Box Set}\pronounced 'leh-'nerd 'skin-'nerd-UICY-90400\03 - Gimme Three Steps.wav

Peak level 94.4 %
Track quality 99.9 %
Test CRC 33E822B5
Copy CRC 33E822B5
Copy OK

Track 4
Filename G:\BTMusic\Lynyrd Skynyrd - Sounds of South MCA Years (1973-1988) [FLAC] {Limited edition 2007 Japan Box Set}\pronounced 'leh-'nerd 'skin-'nerd-UICY-90400\04 - Simple Man.wav

Peak level 94.4 %
Track quality 99.9 %
Test CRC F0B35441
Copy CRC F0B35441
Copy OK

Track 5
Filename G:\BTMusic\Lynyrd Skynyrd - Sounds of South MCA Years (1973-1988) [FLAC] {Limited edition 2007 Japan Box Set}\pronounced 'leh-'nerd 'skin-'nerd-UICY-90400\05 - Things Goin' On.wav

Peak level 94.4 %
Track quality 100.0 %
Test CRC 945EFB13
Copy CRC 945EFB13
Copy OK

Track 6
Filename G:\BTMusic\Lynyrd Skynyrd - Sounds of South MCA Years (1973-1988) [FLAC] {Limited edition 2007 Japan Box Set}\pronounced 'leh-'nerd 'skin-'nerd-UICY-90400\06 - Mississippi Kid.wav

Pre-gap length 0:00:01.16

Peak level 94.4 %
Track quality 99.9 %
Test CRC B65DA523
Copy CRC B65DA523
Copy OK

Track 7
Filename G:\BTMusic\Lynyrd Skynyrd - Sounds of South MCA Years (1973-1988) [FLAC] {Limited edition 2007 Japan Box Set}\pronounced 'leh-'nerd 'skin-'nerd-UICY-90400\07 - Poison Whiskey.wav

Peak level 94.4 %
Track quality 100.0 %
Test CRC 6AD895AD
Copy CRC 6AD895AD
Copy OK

Track 8
Filename G:\BTMusic\Lynyrd Skynyrd - Sounds of South MCA Years (1973-1988) [FLAC] {Limited edition 2007 Japan Box Set}\pronounced 'leh-'nerd 'skin-'nerd-UICY-90400\08 - Free Bird.wav

Peak level 94.4 %
Track quality 100.0 %
Test CRC 8FB52C16
Copy CRC 8FB52C16
Copy OK

Track 9
Filename G:\BTMusic\Lynyrd Skynyrd - Sounds of South MCA Years (1973-1988) [FLAC] {Limited edition 2007 Japan Box Set}\pronounced 'leh-'nerd 'skin-'nerd-UICY-90400\09 - Mr. Banker [Demo].wav

Pre-gap length 0:00:07.96

Peak level 98.1 %
Track quality 100.0 %
Test CRC 4FD0790D
Copy CRC 4FD0790D
Copy OK

Track 10
Filename G:\BTMusic\Lynyrd Skynyrd - Sounds of South MCA Years (1973-1988) [FLAC] {Limited edition 2007 Japan Box Set}\pronounced 'leh-'nerd 'skin-'nerd-UICY-90400\10 - Down South Jukin' [Demo].wav

Pre-gap length 0:00:01.53

Peak level 94.4 %
Track quality 100.0 %
Test CRC 3D4E4632
Copy CRC 3D4E4632
Copy OK

Track 11
Filename G:\BTMusic\Lynyrd Skynyrd - Sounds of South MCA Years (1973-1988) [FLAC] {Limited edition 2007 Japan Box Set}\pronounced 'leh-'nerd 'skin-'nerd-UICY-90400\11 - Tuesday's Gone [Demo].wav

Pre-gap length 0:00:01.74

Peak level 94.4 %
Track quality 100.0 %
Test CRC 02387796
Copy CRC 02387796
Copy OK

Track 12
Filename G:\BTMusic\Lynyrd Skynyrd - Sounds of South MCA Years (1973-1988) [FLAC] {Limited edition 2007 Japan Box Set}\pronounced 'leh-'nerd 'skin-'nerd-UICY-90400\12 - Gimme Three Steps [Demo].wav

Pre-gap length 0:00:02.60

Peak level 89.1 %
Track quality 100.0 %
Test CRC A121E91A
Copy CRC A121E91A
Copy OK

Track 13
Filename G:\BTMusic\Lynyrd Skynyrd - Sounds of South MCA Years (1973-1988) [FLAC] {Limited edition 2007 Japan Box Set}\pronounced 'leh-'nerd 'skin-'nerd-UICY-90400\13 - Free Bird [Demo].wav

Pre-gap length 0:00:02.56

Peak level 94.4 %
Track quality 100.0 %
Test CRC 60C9EA92
Copy CRC 60C9EA92
Copy OK

No errors occured


End of status report

EAC extraction logfile from 11. January 2009, 12:04 for CD
Lynyrd Skynyrd / Second Helping

Used drive : BENQ DVD DD DW1620 Adapter: 0 ID: 0
Read mode : Secure with NO C2, accurate stream, disable cache
Read offset correction : 618
Overread into Lead-In and Lead-Out : No

Used output format : C:\Program Files\Flac Frontend\FLAC\flac.exe (User Defined Encoder)
192 kBit/s
Additional command line options : -8 -V -T "ARTIST=%a" -T "TITLE=%t" -T "ALBUM=%g" -T "DATE=%y" -T "TRACKNUMBER=%n" -T "GENRE=%m" -T "COMMENT=EAC Flac 1.1.2 -8" %s

Other options :
Fill up missing offset samples with silence : Yes
Delete leading and trailing silent blocks : No
Native Win32 interface for Win NT & 2000


Track 1
Filename G:\BTMusic\Lynyrd Skynyrd - Sounds of South MCA Years (1973-1988) [FLAC] {Limited edition 2007 Japan Box Set}\Second Helping-UICY-90401\01 - Sweet Home Alabama.wav

Pre-gap length 0:00:02.00

Peak level 85.8 %
Track quality 100.0 %
Test CRC 83EAFA42
Copy CRC 83EAFA42
Copy OK

Track 2
Filename G:\BTMusic\Lynyrd Skynyrd - Sounds of South MCA Years (1973-1988) [FLAC] {Limited edition 2007 Japan Box Set}\Second Helping-UICY-90401\02 - I Need You.wav

Peak level 83.2 %
Track quality 100.0 %
Test CRC 05AF3AF5
Copy CRC 05AF3AF5
Copy OK

Track 3
Filename G:\BTMusic\Lynyrd Skynyrd - Sounds of South MCA Years (1973-1988) [FLAC] {Limited edition 2007 Japan Box Set}\Second Helping-UICY-90401\03 - Don't Ask Me No Questions.wav

Peak level 91.1 %
Track quality 100.0 %
Test CRC 695D731C
Copy CRC 695D731C
Copy OK

Track 4
Filename G:\BTMusic\Lynyrd Skynyrd - Sounds of South MCA Years (1973-1988) [FLAC] {Limited edition 2007 Japan Box Set}\Second Helping-UICY-90401\04 - Working For MCA.wav

Peak level 85.2 %
Track quality 100.0 %
Test CRC 7F857B55
Copy CRC 7F857B55
Copy OK

Track 5
Filename G:\BTMusic\Lynyrd Skynyrd - Sounds of South MCA Years (1973-1988) [FLAC] {Limited edition 2007 Japan Box Set}\Second Helping-UICY-90401\05 - The Ballad Of Curtis Loew.wav

Pre-gap length 0:00:01.60

Peak level 91.2 %
Track quality 100.0 %
Test CRC 150F3C72
Copy CRC 150F3C72
Copy OK

Track 6
Filename G:\BTMusic\Lynyrd Skynyrd - Sounds of South MCA Years (1973-1988) [FLAC] {Limited edition 2007 Japan Box Set}\Second Helping-UICY-90401\06 - Swamp Music.wav

Peak level 84.6 %
Track quality 100.0 %
Test CRC 6BD91A2C
Copy CRC 6BD91A2C
Copy OK

Track 7
Filename G:\BTMusic\Lynyrd Skynyrd - Sounds of South MCA Years (1973-1988) [FLAC] {Limited edition 2007 Japan Box Set}\Second Helping-UICY-90401\07 - The Needle And The Spoon.wav

Peak level 79.1 %
Track quality 100.0 %
Test CRC F091B535
Copy CRC F091B535
Copy OK

Track 8
Filename G:\BTMusic\Lynyrd Skynyrd - Sounds of South MCA Years (1973-1988) [FLAC] {Limited edition 2007 Japan Box Set}\Second Helping-UICY-90401\08 - Call Me The Breeze.wav

Peak level 91.1 %
Track quality 99.9 %
Test CRC A4E64E4D
Copy CRC A4E64E4D
Copy OK

Track 9
Filename G:\BTMusic\Lynyrd Skynyrd - Sounds of South MCA Years (1973-1988) [FLAC] {Limited edition 2007 Japan Box Set}\Second Helping-UICY-90401\09 - Don't Ask Me No Questions (Single Version).wav

Pre-gap length 0:00:02.60

Peak level 91.2 %
Track quality 99.9 %
Test CRC 886A6B6D
Copy CRC 886A6B6D
Copy OK

Track 10
Filename G:\BTMusic\Lynyrd Skynyrd - Sounds of South MCA Years (1973-1988) [FLAC] {Limited edition 2007 Japan Box Set}\Second Helping-UICY-90401\10 - Was I Right or Wrong (Demo).wav

Pre-gap length 0:00:01.84

Peak level 93.8 %
Track quality 100.0 %
Test CRC 9C5B7A91
Copy CRC 9C5B7A91
Copy OK

Track 11
Filename G:\BTMusic\Lynyrd Skynyrd - Sounds of South MCA Years (1973-1988) [FLAC] {Limited edition 2007 Japan Box Set}\Second Helping-UICY-90401\11 - Take Your Time.wav

Pre-gap length 0:00:02.53

Peak level 91.2 %
Track quality 100.0 %
Test CRC 4D59874B
Copy CRC 4D59874B
Copy OK

No errors occured


End of status report

EAC extraction logfile from 12. January 2009, 9:31 for CD
Lynyrd Skynyrd / Nuthin' Fancy

Used drive : BENQ DVD DD DW1620 Adapter: 0 ID: 0
Read mode : Secure with NO C2, accurate stream, disable cache
Read offset correction : 618
Overread into Lead-In and Lead-Out : No

Used output format : C:\Program Files\Flac Frontend\FLAC\flac.exe (User Defined Encoder)
192 kBit/s
Additional command line options : -8 -V -T "ARTIST=%a" -T "TITLE=%t" -T "ALBUM=%g" -T "DATE=%y" -T "TRACKNUMBER=%n" -T "GENRE=%m" -T "COMMENT=EAC Flac 1.1.2 -8" %s

Other options :
Fill up missing offset samples with silence : Yes
Delete leading and trailing silent blocks : No
Installed external ASPI interface


Track 1
Filename G:\BTMusic\Lynyrd Skynyrd - Sounds of South MCA Years (1973-1988) [FLAC] {Limited edition 2007 Japan Box Set}\Nuthin' Fancy-UICY-90402\01 - Saturday Night Special.wav

Pre-gap length 0:00:02.00

Peak level 100.0 %
Track quality 100.0 %
Test CRC CEC3172F
Copy CRC CEC3172F
Copy OK

Track 2
Filename G:\BTMusic\Lynyrd Skynyrd - Sounds of South MCA Years (1973-1988) [FLAC] {Limited edition 2007 Japan Box Set}\Nuthin' Fancy-UICY-90402\02 - Cheatin' Woman.wav

Peak level 94.4 %
Track quality 100.0 %
Test CRC 41C42467
Copy CRC 41C42467
Copy OK

Track 3
Filename G:\BTMusic\Lynyrd Skynyrd - Sounds of South MCA Years (1973-1988) [FLAC] {Limited edition 2007 Japan Box Set}\Nuthin' Fancy-UICY-90402\03 - Railroad Song.wav

Peak level 94.4 %
Track quality 100.0 %
Test CRC 1831C82D
Copy CRC 1831C82D
Copy OK

Track 4
Filename G:\BTMusic\Lynyrd Skynyrd - Sounds of South MCA Years (1973-1988) [FLAC] {Limited edition 2007 Japan Box Set}\Nuthin' Fancy-UICY-90402\04 - I'm A Country Boy.wav

Peak level 94.4 %
Track quality 100.0 %
Test CRC 0F22F590
Copy CRC 0F22F590
Copy OK

Track 5
Filename G:\BTMusic\Lynyrd Skynyrd - Sounds of South MCA Years (1973-1988) [FLAC] {Limited edition 2007 Japan Box Set}\Nuthin' Fancy-UICY-90402\05 - On The Hunt.wav

Peak level 94.4 %
Track quality 100.0 %
Test CRC A367359B
Copy CRC A367359B
Copy OK

Track 6
Filename G:\BTMusic\Lynyrd Skynyrd - Sounds of South MCA Years (1973-1988) [FLAC] {Limited edition 2007 Japan Box Set}\Nuthin' Fancy-UICY-90402\06 - Am I Losin'.wav

Peak level 100.0 %
Track quality 100.0 %
Test CRC 596D7DEA
Copy CRC 596D7DEA
Copy OK

Track 7
Filename G:\BTMusic\Lynyrd Skynyrd - Sounds of South MCA Years (1973-1988) [FLAC] {Limited edition 2007 Japan Box Set}\Nuthin' Fancy-UICY-90402\07 - Made In The Shade.wav

Peak level 94.4 %
Track quality 100.0 %
Test CRC D0BBD7DE
Copy CRC D0BBD7DE
Copy OK

Track 8
Filename G:\BTMusic\Lynyrd Skynyrd - Sounds of South MCA Years (1973-1988) [FLAC] {Limited edition 2007 Japan Box Set}\Nuthin' Fancy-UICY-90402\08 - Whiskey Rock-A Roller.wav

Peak level 94.4 %
Track quality 100.0 %
Test CRC 6DC4F2EA
Copy CRC 6DC4F2EA
Copy OK

Track 9
Filename G:\BTMusic\Lynyrd Skynyrd - Sounds of South MCA Years (1973-1988) [FLAC] {Limited edition 2007 Japan Box Set}\Nuthin' Fancy-UICY-90402\09 - Railroad Song (Live).wav

Pre-gap length 0:00:04.80

Peak level 93.3 %
Track quality 100.0 %
Test CRC CB319A00
Copy CRC CB319A00
Copy OK

Track 10
Filename G:\BTMusic\Lynyrd Skynyrd - Sounds of South MCA Years (1973-1988) [FLAC] {Limited edition 2007 Japan Box Set}\Nuthin' Fancy-UICY-90402\10 - On The Hunt (Live).wav

Peak level 94.4 %
Track quality 99.9 %
Test CRC 87B352E8
Copy CRC 87B352E8
Copy OK

No errors occured


End of status report

EAC extraction logfile from 11. January 2009, 8:48 for CD
Lynyrd Skynyrd / Gimme Back My Bullets

Used drive : BENQ DVD DD DW1620 Adapter: 0 ID: 0
Read mode : Secure with NO C2, accurate stream, disable cache
Read offset correction : 618
Overread into Lead-In and Lead-Out : No

Used output format : C:\Program Files\Flac Frontend\FLAC\flac.exe (User Defined Encoder)
192 kBit/s
Additional command line options : -8 -V -T "ARTIST=%a" -T "TITLE=%t" -T "ALBUM=%g" -T "DATE=%y" -T "TRACKNUMBER=%n" -T "GENRE=%m" -T "COMMENT=EAC Flac 1.1.2 -8" %s

Other options :
Fill up missing offset samples with silence : Yes
Delete leading and trailing silent blocks : No
Native Win32 interface for Win NT & 2000


Track 1
Filename G:\BTMusic\Lynyrd Skynyrd - Sounds of South MCA Years (1973-1988) [FLAC] {Limited edition 2007 Japan Box Set}\Gimme Back My Bullets-UICY-90403\01 - Gimme Back My Bullets.wav

Pre-gap length 0:00:02.00

Peak level 94.4 %
Track quality 100.0 %
Test CRC 63826110
Copy CRC 63826110
Copy OK

Track 2
Filename G:\BTMusic\Lynyrd Skynyrd - Sounds of South MCA Years (1973-1988) [FLAC] {Limited edition 2007 Japan Box Set}\Gimme Back My Bullets-UICY-90403\02 - Every Mother' Son.wav

Peak level 94.4 %
Track quality 100.0 %
Test CRC 719C8950
Copy CRC 719C8950
Copy OK

Track 3
Filename G:\BTMusic\Lynyrd Skynyrd - Sounds of South MCA Years (1973-1988) [FLAC] {Limited edition 2007 Japan Box Set}\Gimme Back My Bullets-UICY-90403\03 - Trust.wav

Peak level 94.4 %
Track quality 100.0 %
Test CRC 4EA873F6
Copy CRC 4EA873F6
Copy OK

Track 4
Filename G:\BTMusic\Lynyrd Skynyrd - Sounds of South MCA Years (1973-1988) [FLAC] {Limited edition 2007 Japan Box Set}\Gimme Back My Bullets-UICY-90403\04 - I Got the Same Old Blues.wav

Peak level 94.4 %
Track quality 100.0 %
Test CRC AA25488A
Copy CRC AA25488A
Copy OK

Track 5
Filename G:\BTMusic\Lynyrd Skynyrd - Sounds of South MCA Years (1973-1988) [FLAC] {Limited edition 2007 Japan Box Set}\Gimme Back My Bullets-UICY-90403\05 - Double Trouble.wav

Pre-gap length 0:00:01.13

Peak level 94.4 %
Track quality 100.0 %
Test CRC 1BB44F3C
Copy CRC 1BB44F3C
Copy OK

Track 6
Filename G:\BTMusic\Lynyrd Skynyrd - Sounds of South MCA Years (1973-1988) [FLAC] {Limited edition 2007 Japan Box Set}\Gimme Back My Bullets-UICY-90403\06 - Roll Gypsy Roll.wav

Peak level 94.4 %
Track quality 99.9 %
Test CRC 1D6580AF
Copy CRC 1D6580AF
Copy OK

Track 7
Filename G:\BTMusic\Lynyrd Skynyrd - Sounds of South MCA Years (1973-1988) [FLAC] {Limited edition 2007 Japan Box Set}\Gimme Back My Bullets-UICY-90403\07 - Searching.wav

Peak level 94.4 %
Track quality 100.0 %
Test CRC C78EDFFF
Copy CRC C78EDFFF
Copy OK

Track 8
Filename G:\BTMusic\Lynyrd Skynyrd - Sounds of South MCA Years (1973-1988) [FLAC] {Limited edition 2007 Japan Box Set}\Gimme Back My Bullets-UICY-90403\08 - Cry for the Bad Man.wav

Pre-gap length 0:00:01.46

Peak level 94.4 %
Track quality 100.0 %
Test CRC 6107A4BB
Copy CRC 6107A4BB
Copy OK

Track 9
Filename G:\BTMusic\Lynyrd Skynyrd - Sounds of South MCA Years (1973-1988) [FLAC] {Limited edition 2007 Japan Box Set}\Gimme Back My Bullets-UICY-90403\09 - All I Can Do is Write About It.wav

Pre-gap length 0:00:01.04

Peak level 94.4 %
Track quality 100.0 %
Test CRC 3075DAF0
Copy CRC 3075DAF0
Copy OK

Track 10
Filename G:\BTMusic\Lynyrd Skynyrd - Sounds of South MCA Years (1973-1988) [FLAC] {Limited edition 2007 Japan Box Set}\Gimme Back My Bullets-UICY-90403\10 - Gimme Back My Bullets (Live).wav

Pre-gap length 0:00:02.90

Peak level 96.1 %
Track quality 99.9 %
Test CRC 4C1C949E
Copy CRC 4C1C949E
Copy OK

Track 11
Filename G:\BTMusic\Lynyrd Skynyrd - Sounds of South MCA Years (1973-1988) [FLAC] {Limited edition 2007 Japan Box Set}\Gimme Back My Bullets-UICY-90403\11 - Cry for the Bad Man (Live).wav

Peak level 91.6 %
Track quality 100.0 %
Test CRC F66ABA98
Copy CRC F66ABA98
Copy OK

No errors occured


End of status report

EAC extraction logfile from 11. January 2009, 13:43 for CD
Lynyrd Skynyrd / One More From The Road - Disc 1

Used drive : BENQ DVD DD DW1620 Adapter: 0 ID: 0
Read mode : Secure with NO C2, accurate stream, disable cache
Read offset correction : 618
Overread into Lead-In and Lead-Out : No

Used output format : C:\Program Files\Flac Frontend\FLAC\flac.exe (User Defined Encoder)
192 kBit/s
Additional command line options : -8 -V -T "ARTIST=%a" -T "TITLE=%t" -T "ALBUM=%g" -T "DATE=%y" -T "TRACKNUMBER=%n" -T "GENRE=%m" -T "COMMENT=EAC Flac 1.1.2 -8" %s

Other options :
Fill up missing offset samples with silence : Yes
Delete leading and trailing silent blocks : No
Native Win32 interface for Win NT & 2000


Track 1
Filename G:\BTMusic\Lynyrd Skynyrd - Sounds of South MCA Years (1973-1988) [FLAC] {Limited edition 2007 Japan Box Set}\One More From The Road CD 1-UICY-90404\01 - Introduction , Workin' For MCA.wav

Pre-gap length 0:00:02.00

Peak level 98.9 %
Track quality 100.0 %
Test CRC B1D9DDCE
Copy CRC B1D9DDCE
Copy OK

Track 2
Filename G:\BTMusic\Lynyrd Skynyrd - Sounds of South MCA Years (1973-1988) [FLAC] {Limited edition 2007 Japan Box Set}\One More From The Road CD 1-UICY-90404\02 - I Ain't The One.wav

Peak level 100.0 %
Track quality 100.0 %
Test CRC E31158D0
Copy CRC E31158D0
Copy OK

Track 3
Filename G:\BTMusic\Lynyrd Skynyrd - Sounds of South MCA Years (1973-1988) [FLAC] {Limited edition 2007 Japan Box Set}\One More From The Road CD 1-UICY-90404\03 - Saturday Night Special.wav

Peak level 97.7 %
Track quality 100.0 %
Test CRC A7ADE3A5
Copy CRC A7ADE3A5
Copy OK

Track 4
Filename G:\BTMusic\Lynyrd Skynyrd - Sounds of South MCA Years (1973-1988) [FLAC] {Limited edition 2007 Japan Box Set}\One More From The Road CD 1-UICY-90404\04 - Searching.wav

Peak level 98.8 %
Track quality 100.0 %
Test CRC 11274718
Copy CRC 11274718
Copy OK

Track 5
Filename G:\BTMusic\Lynyrd Skynyrd - Sounds of South MCA Years (1973-1988) [FLAC] {Limited edition 2007 Japan Box Set}\One More From The Road CD 1-UICY-90404\05 - Travellin' Man.wav

Peak level 94.4 %
Track quality 99.9 %
Test CRC 54227C84
Copy CRC 54227C84
Copy OK

Track 6
Filename G:\BTMusic\Lynyrd Skynyrd - Sounds of South MCA Years (1973-1988) [FLAC] {Limited edition 2007 Japan Box Set}\One More From The Road CD 1-UICY-90404\06 - Simple Man.wav

Peak level 94.4 %
Track quality 100.0 %
Test CRC 2B3470AC
Copy CRC 2B3470AC
Copy OK

Track 7
Filename G:\BTMusic\Lynyrd Skynyrd - Sounds of South MCA Years (1973-1988) [FLAC] {Limited edition 2007 Japan Box Set}\One More From The Road CD 1-UICY-90404\07 - Whiskey Rock-A-Roller.wav

Peak level 94.4 %
Track quality 100.0 %
Test CRC 7F5A2BDD
Copy CRC 7F5A2BDD
Copy OK

Track 8
Filename G:\BTMusic\Lynyrd Skynyrd - Sounds of South MCA Years (1973-1988) [FLAC] {Limited edition 2007 Japan Box Set}\One More From The Road CD 1-UICY-90404\08 - The Needle And The Spoon.wav

Peak level 96.9 %
Track quality 100.0 %
Test CRC A1EA8157
Copy CRC A1EA8157
Copy OK

Track 9
Filename G:\BTMusic\Lynyrd Skynyrd - Sounds of South MCA Years (1973-1988) [FLAC] {Limited edition 2007 Japan Box Set}\One More From The Road CD 1-UICY-90404\09 - Gimme Back My Bullets.wav

Peak level 95.1 %
Track quality 99.9 %
Test CRC 9FC2CA4B
Copy CRC 9FC2CA4B
Copy OK

Track 10
Filename G:\BTMusic\Lynyrd Skynyrd - Sounds of South MCA Years (1973-1988) [FLAC] {Limited edition 2007 Japan Box Set}\One More From The Road CD 1-UICY-90404\10 - Tuesday's Gone.wav

Peak level 94.4 %
Track quality 100.0 %
Test CRC 09381B38
Copy CRC 09381B38
Copy OK

Track 11
Filename G:\BTMusic\Lynyrd Skynyrd - Sounds of South MCA Years (1973-1988) [FLAC] {Limited edition 2007 Japan Box Set}\One More From The Road CD 1-UICY-90404\11 - Gimme Three Steps.wav

Peak level 96.1 %
Track quality 100.0 %
Test CRC 89B17401
Copy CRC 89B17401
Copy OK

Track 12
Filename G:\BTMusic\Lynyrd Skynyrd - Sounds of South MCA Years (1973-1988) [FLAC] {Limited edition 2007 Japan Box Set}\One More From The Road CD 1-UICY-90404\12 - Call Me The Breeze.wav

Peak level 94.4 %
Track quality 99.9 %
Test CRC 4753E9E0
Copy CRC 4753E9E0
Copy OK

Track 13
Filename G:\BTMusic\Lynyrd Skynyrd - Sounds of South MCA Years (1973-1988) [FLAC] {Limited edition 2007 Japan Box Set}\One More From The Road CD 1-UICY-90404\13 - T For Texas.wav

Peak level 97.7 %
Track quality 100.0 %
Test CRC 6843813A
Copy CRC 6843813A
Copy OK

No errors occured


End of status report

EAC extraction logfile from 11. January 2009, 17:09 for CD
Lynyrd Skynyrd / One More From The Road (Disc 2)

Used drive : BENQ DVD DD DW1620 Adapter: 0 ID: 0
Read mode : Secure with NO C2, accurate stream, disable cache
Read offset correction : 618
Overread into Lead-In and Lead-Out : No

Used output format : C:\Program Files\Flac Frontend\FLAC\flac.exe (User Defined Encoder)
192 kBit/s
Additional command line options : -8 -V -T "ARTIST=%a" -T "TITLE=%t" -T "ALBUM=%g" -T "DATE=%y" -T "TRACKNUMBER=%n" -T "GENRE=%m" -T "COMMENT=EAC Flac 1.1.2 -8" %s

Other options :
Fill up missing offset samples with silence : Yes
Delete leading and trailing silent blocks : No
Native Win32 interface for Win NT & 2000


Track 1
Filename G:\BTMusic\Lynyrd Skynyrd - Sounds of South MCA Years (1973-1988) [FLAC] {Limited edition 2007 Japan Box Set}\One More From The Road CD 2-UICY-90405\01 - Sweet Home Alabama.wav

Pre-gap length 0:00:02.00

Peak level 94.4 %
Track quality 100.0 %
Test CRC 9676B364
Copy CRC 9676B364
Copy OK

Track 2
Filename G:\BTMusic\Lynyrd Skynyrd - Sounds of South MCA Years (1973-1988) [FLAC] {Limited edition 2007 Japan Box Set}\One More From The Road CD 2-UICY-90405\02 - Crossroads.wav

Peak level 99.4 %
Track quality 100.0 %
Test CRC F03070FB
Copy CRC F03070FB
Copy OK

Track 3
Filename G:\BTMusic\Lynyrd Skynyrd - Sounds of South MCA Years (1973-1988) [FLAC] {Limited edition 2007 Japan Box Set}\One More From The Road CD 2-UICY-90405\03 - Free Bird.wav

Peak level 100.0 %
Track quality 100.0 %
Test CRC AF048656
Copy CRC AF048656
Copy OK

Track 4
Filename G:\BTMusic\Lynyrd Skynyrd - Sounds of South MCA Years (1973-1988) [FLAC] {Limited edition 2007 Japan Box Set}\One More From The Road CD 2-UICY-90405\04 - Introduction By Alex Cooley , Workin' For MCA (Alternate Take).wav

Pre-gap length 0:00:07.17

Peak level 100.0 %
Track quality 100.0 %
Test CRC D4CA2095
Copy CRC D4CA2095
Copy OK

Track 5
Filename G:\BTMusic\Lynyrd Skynyrd - Sounds of South MCA Years (1973-1988) [FLAC] {Limited edition 2007 Japan Box Set}\One More From The Road CD 2-UICY-90405\05 - I Ain't The One (Alternate Take).wav

Peak level 99.9 %
Track quality 100.0 %
Test CRC 652CFE0C
Copy CRC 652CFE0C
Copy OK

Track 6
Filename G:\BTMusic\Lynyrd Skynyrd - Sounds of South MCA Years (1973-1988) [FLAC] {Limited edition 2007 Japan Box Set}\One More From The Road CD 2-UICY-90405\06 - Searching (Alternate Take).wav

Peak level 99.9 %
Track quality 100.0 %
Test CRC AC8CA617
Copy CRC AC8CA617
Copy OK

Track 7
Filename G:\BTMusic\Lynyrd Skynyrd - Sounds of South MCA Years (1973-1988) [FLAC] {Limited edition 2007 Japan Box Set}\One More From The Road CD 2-UICY-90405\07 - Gimme Three Steps (Alternate Take).wav

Peak level 85.4 %
Track quality 100.0 %
Test CRC 2B2E2E47
Copy CRC 2B2E2E47
Copy OK

Track 8
Filename G:\BTMusic\Lynyrd Skynyrd - Sounds of South MCA Years (1973-1988) [FLAC] {Limited edition 2007 Japan Box Set}\One More From The Road CD 2-UICY-90405\08 - Call Me The Breeze (Alternate Take).wav

Peak level 90.2 %
Track quality 100.0 %
Test CRC E29BB467
Copy CRC E29BB467
Copy OK

Track 9
Filename G:\BTMusic\Lynyrd Skynyrd - Sounds of South MCA Years (1973-1988) [FLAC] {Limited edition 2007 Japan Box Set}\One More From The Road CD 2-UICY-90405\09 - Sweet Home Alabama (Alternate Take).wav

Peak level 98.8 %
Track quality 99.9 %
Test CRC F11E9AA3
Copy CRC F11E9AA3
Copy OK

Track 10
Filename G:\BTMusic\Lynyrd Skynyrd - Sounds of South MCA Years (1973-1988) [FLAC] {Limited edition 2007 Japan Box Set}\One More From The Road CD 2-UICY-90405\10 - Crossroads (Alternate Take).wav

Peak level 99.7 %
Track quality 100.0 %
Test CRC D9E68A4B
Copy CRC D9E68A4B
Copy OK

Track 11
Filename G:\BTMusic\Lynyrd Skynyrd - Sounds of South MCA Years (1973-1988) [FLAC] {Limited edition 2007 Japan Box Set}\One More From The Road CD 2-UICY-90405\11 - Free Bird (Alternate Take).wav

Peak level 94.4 %
Track quality 99.9 %
Test CRC 7037CD8E
Copy CRC 7037CD8E
Copy OK

No errors occured


End of status report

EAC extraction logfile from 11. January 2009, 10:10 for CD
Lynyrd Skynyrd / Street Survivors

Used drive : BENQ DVD DD DW1620 Adapter: 0 ID: 0
Read mode : Secure with NO C2, accurate stream, disable cache
Read offset correction : 618
Overread into Lead-In and Lead-Out : No

Used output format : C:\Program Files\Flac Frontend\FLAC\flac.exe (User Defined Encoder)
192 kBit/s
Additional command line options : -8 -V -T "ARTIST=%a" -T "TITLE=%t" -T "ALBUM=%g" -T "DATE=%y" -T "TRACKNUMBER=%n" -T "GENRE=%m" -T "COMMENT=EAC Flac 1.1.2 -8" %s

Other options :
Fill up missing offset samples with silence : Yes
Delete leading and trailing silent blocks : No
Native Win32 interface for Win NT & 2000


Track 1
Filename G:\BTMusic\Lynyrd Skynyrd - Sounds of South MCA Years (1973-1988) [FLAC] {Limited edition 2007 Japan Box Set}\Street Survivors-UICY-90406\01 - What's Your Name.wav

Pre-gap length 0:00:02.00

Peak level 100.0 %
Track quality 100.0 %
Test CRC 0BDBA82D
Copy CRC 0BDBA82D
Copy OK

Track 2
Filename G:\BTMusic\Lynyrd Skynyrd - Sounds of South MCA Years (1973-1988) [FLAC] {Limited edition 2007 Japan Box Set}\Street Survivors-UICY-90406\02 - That Smell.wav

Pre-gap length 0:00:01.49

Peak level 99.8 %
Track quality 100.0 %
Test CRC 2D180E56
Copy CRC 2D180E56
Copy OK

Track 3
Filename G:\BTMusic\Lynyrd Skynyrd - Sounds of South MCA Years (1973-1988) [FLAC] {Limited edition 2007 Japan Box Set}\Street Survivors-UICY-90406\03 - One More Time.wav

Peak level 100.0 %
Track quality 100.0 %
Test CRC ED813BDE
Copy CRC ED813BDE
Copy OK

Track 4
Filename G:\BTMusic\Lynyrd Skynyrd - Sounds of South MCA Years (1973-1988) [FLAC] {Limited edition 2007 Japan Box Set}\Street Survivors-UICY-90406\04 - I Know A Little.wav

Pre-gap length 0:00:01.06

Peak level 98.8 %
Track quality 100.0 %
Test CRC 063E4826
Copy CRC 063E4826
Copy OK

Track 5
Filename G:\BTMusic\Lynyrd Skynyrd - Sounds of South MCA Years (1973-1988) [FLAC] {Limited edition 2007 Japan Box Set}\Street Survivors-UICY-90406\05 - You Got That Right.wav

Peak level 97.7 %
Track quality 100.0 %
Test CRC 3B8EF67E
Copy CRC 3B8EF67E
Copy OK

Track 6
Filename G:\BTMusic\Lynyrd Skynyrd - Sounds of South MCA Years (1973-1988) [FLAC] {Limited edition 2007 Japan Box Set}\Street Survivors-UICY-90406\06 - I Never Dreamed.wav

Peak level 97.7 %
Track quality 100.0 %
Test CRC 68608907
Copy CRC 68608907
Copy OK

Track 7
Filename G:\BTMusic\Lynyrd Skynyrd - Sounds of South MCA Years (1973-1988) [FLAC] {Limited edition 2007 Japan Box Set}\Street Survivors-UICY-90406\07 - Honky Tonk Night Time Man.wav

Pre-gap length 0:00:01.24

Peak level 97.7 %
Track quality 100.0 %
Test CRC F4CF031D
Copy CRC F4CF031D
Copy OK

Track 8
Filename G:\BTMusic\Lynyrd Skynyrd - Sounds of South MCA Years (1973-1988) [FLAC] {Limited edition 2007 Japan Box Set}\Street Survivors-UICY-90406\08 - Ain't No Good Life.wav

Pre-gap length 0:00:01.29

Peak level 97.7 %
Track quality 100.0 %
Test CRC 6B14832B
Copy CRC 6B14832B
Copy OK

Track 9
Filename G:\BTMusic\Lynyrd Skynyrd - Sounds of South MCA Years (1973-1988) [FLAC] {Limited edition 2007 Japan Box Set}\Street Survivors-UICY-90406\09 - Georgia Peaches (Bonus Track).wav

Pre-gap length 0:00:03.62

Peak level 94.4 %
Track quality 100.0 %
Test CRC D41A63BE
Copy CRC D41A63BE
Copy OK

Track 10
Filename G:\BTMusic\Lynyrd Skynyrd - Sounds of South MCA Years (1973-1988) [FLAC] {Limited edition 2007 Japan Box Set}\Street Survivors-UICY-90406\10 - Sweet Little Missy (Bonus Track).wav

Pre-gap length 0:00:01.93

Peak level 100.0 %
Track quality 100.0 %
Test CRC 0F140E1A
Copy CRC 0F140E1A
Copy OK

Track 11
Filename G:\BTMusic\Lynyrd Skynyrd - Sounds of South MCA Years (1973-1988) [FLAC] {Limited edition 2007 Japan Box Set}\Street Survivors-UICY-90406\11 - You Got That Right (Alternate Version).wav

Pre-gap length 0:00:01.62

Peak level 84.1 %
Track quality 100.0 %
Test CRC F9DE07A6
Copy CRC F9DE07A6
Copy OK

Track 12
Filename G:\BTMusic\Lynyrd Skynyrd - Sounds of South MCA Years (1973-1988) [FLAC] {Limited edition 2007 Japan Box Set}\Street Survivors-UICY-90406\12 - I Never Dreamed (Alternate Version).wav

Pre-gap length 0:00:01.56

Peak level 93.6 %
Track quality 100.0 %
Test CRC 4BA257FC
Copy CRC 4BA257FC
Copy OK

Track 13
Filename G:\BTMusic\Lynyrd Skynyrd - Sounds of South MCA Years (1973-1988) [FLAC] {Limited edition 2007 Japan Box Set}\Street Survivors-UICY-90406\13 - Jacksonville Kid (Bonus Track).wav

Pre-gap length 0:00:01.57

Peak level 84.1 %
Track quality 100.0 %
Test CRC 5166DB30
Copy CRC 5166DB30
Copy OK

No errors occured


End of status report

EAC extraction logfile from 11. January 2009, 9:30 for CD
Lynyrd Skynyrd / Southern By The Grace Of God

Used drive : BENQ DVD DD DW1620 Adapter: 0 ID: 0
Read mode : Secure with NO C2, accurate stream, disable cache
Read offset correction : 618
Overread into Lead-In and Lead-Out : No

Used output format : C:\Program Files\Flac Frontend\FLAC\flac.exe (User Defined Encoder)
192 kBit/s
Additional command line options : -8 -V -T "ARTIST=%a" -T "TITLE=%t" -T "ALBUM=%g" -T "DATE=%y" -T "TRACKNUMBER=%n" -T "GENRE=%m" -T "COMMENT=EAC Flac 1.1.2 -8" %s

Other options :
Fill up missing offset samples with silence : Yes
Delete leading and trailing silent blocks : No
Native Win32 interface for Win NT & 2000


Track 1
Filename G:\BTMusic\Lynyrd Skynyrd - Sounds of South MCA Years (1973-1988) [FLAC] {Limited edition 2007 Japan Box Set}\Southern By The Grace Of God-UICY-90407\01 - Intro - Workin' For MCA.wav

Pre-gap length 0:00:02.00

Peak level 99.8 %
Track quality 99.9 %
Test CRC 056B4412
Copy CRC 056B4412
Copy OK

Track 2
Filename G:\BTMusic\Lynyrd Skynyrd - Sounds of South MCA Years (1973-1988) [FLAC] {Limited edition 2007 Japan Box Set}\Southern By The Grace Of God-UICY-90407\02 - That Smell.wav

Peak level 99.8 %
Track quality 100.0 %
Test CRC E9C012CF
Copy CRC E9C012CF
Copy OK

Track 3
Filename G:\BTMusic\Lynyrd Skynyrd - Sounds of South MCA Years (1973-1988) [FLAC] {Limited edition 2007 Japan Box Set}\Southern By The Grace Of God-UICY-90407\03 - I Know A Little.wav

Peak level 99.8 %
Track quality 100.0 %
Test CRC AC56BC53
Copy CRC AC56BC53
Copy OK

Track 4
Filename G:\BTMusic\Lynyrd Skynyrd - Sounds of South MCA Years (1973-1988) [FLAC] {Limited edition 2007 Japan Box Set}\Southern By The Grace Of God-UICY-90407\04 - Comin' Home.wav

Peak level 99.8 %
Track quality 100.0 %
Test CRC 167FDEEA
Copy CRC 167FDEEA
Copy OK

Track 5
Filename G:\BTMusic\Lynyrd Skynyrd - Sounds of South MCA Years (1973-1988) [FLAC] {Limited edition 2007 Japan Box Set}\Southern By The Grace Of God-UICY-90407\05 - You Got That Right.wav

Peak level 99.8 %
Track quality 100.0 %
Test CRC E92BA61E
Copy CRC E92BA61E
Copy OK

Track 6
Filename G:\BTMusic\Lynyrd Skynyrd - Sounds of South MCA Years (1973-1988) [FLAC] {Limited edition 2007 Japan Box Set}\Southern By The Grace Of God-UICY-90407\06 - What's Your Name.wav

Peak level 99.8 %
Track quality 100.0 %
Test CRC 7901DE08
Copy CRC 7901DE08
Copy OK

Track 7
Filename G:\BTMusic\Lynyrd Skynyrd - Sounds of South MCA Years (1973-1988) [FLAC] {Limited edition 2007 Japan Box Set}\Southern By The Grace Of God-UICY-90407\07 - Gimme Back My Bullets.wav

Peak level 99.8 %
Track quality 100.0 %
Test CRC 942E6A65
Copy CRC 942E6A65
Copy OK

Track 8
Filename G:\BTMusic\Lynyrd Skynyrd - Sounds of South MCA Years (1973-1988) [FLAC] {Limited edition 2007 Japan Box Set}\Southern By The Grace Of God-UICY-90407\08 - Swamp Music.wav

Peak level 99.8 %
Track quality 100.0 %
Test CRC 7F4D294E
Copy CRC 7F4D294E
Copy OK

Track 9
Filename G:\BTMusic\Lynyrd Skynyrd - Sounds of South MCA Years (1973-1988) [FLAC] {Limited edition 2007 Japan Box Set}\Southern By The Grace Of God-UICY-90407\09 - Call Me The Breeze.wav

Peak level 99.8 %
Track quality 100.0 %
Test CRC 3BDD21B0
Copy CRC 3BDD21B0
Copy OK

Track 10
Filename G:\BTMusic\Lynyrd Skynyrd - Sounds of South MCA Years (1973-1988) [FLAC] {Limited edition 2007 Japan Box Set}\Southern By The Grace Of God-UICY-90407\10 - Dixie - Sweet Home Alabama.wav

Peak level 99.8 %
Track quality 100.0 %
Test CRC B7B20D48
Copy CRC B7B20D48
Copy OK

Track 11
Filename G:\BTMusic\Lynyrd Skynyrd - Sounds of South MCA Years (1973-1988) [FLAC] {Limited edition 2007 Japan Box Set}\Southern By The Grace Of God-UICY-90407\11 - Free Bird.wav

Peak level 99.8 %
Track quality 100.0 %
Test CRC 9759D85D
Copy CRC 9759D85D
Copy OK

No errors occured


End of status report


Many thanks to the original uploader: roarrr