Subcategories

Lynyrd Skynyrd - One More For The Fans (2015) Blu-ray

Posted By: popsakov
Lynyrd Skynyrd - One More For The Fans (2015) Blu-ray

Lynyrd Skynyrd - One More For The Fans (2015)
Blu-ray | MPEG-4 AVC, 1920x1080i (16:9), 29,970 fps, ~ 28177 kbps
Audio #1: LPCM 2.0, 48 kHz/24-bit, 2304 kbps | Audio #2: DTS-HD MA 5.1, 48 kHz/24-bit, 4704 kbps
01:42:16 | ~ 31,9 Gb | RAR 5% Recovery
Southern Rock, Blues Rock, Blues

On one special night last November, an extraordinary collection of artists came together at the historic Fox Theatre in Atlanta, GA to perform and celebrate the songs of Lynyrd Skynyrd, one of the most influential bands of our time. This unique concert event centred around performances by Lynyrd Skynyrd, including a special rendition of “Travelin' Man” with Johnny Van Zant singing along with an archival video of his late brother, Ronnie performing, as well as a rousing rendition of “Sweet Home Alabama” with Skynyrd inviting the entire star-studded line-up up on stage to perform alongside them.

“One More For The Fans” features performances by Lynyrd Skynyrd as well as music legends and young talent, culled from multiple genres including Classic Rock, Country and Americana with Gregg Allman, Trace Adkins, Alabama, Blackberry Smoke, Cheap Trick, Charlie Daniels, Peter Frampton, Gov't Mule, Warren Haynes, John Hiatt, Randy Houser, Jason Isbell, Jamey Johnson, Aaron Lewis, moe., O.A.R., Robert Randolph and Donnie Van Zant all coming together to perform songs from Lynyrd Skynyrd's extensive catalog of music. As part of the campaign to save the Fox Theatre from demolition, Lynyrd Skynyrd recorded their 1976 live album, “One More From The Road”, at the landmark theatre.

The title “Lynyrd Skynyrd - One More For The Fans” was inspired by that legendary album's title. Hearing all of these incredible musician perform Lynyrd Skynyrd classics surely makes this night unfortgettable for both fans and Lynyrd Skynyrd themselves.

Track List:

01. Whiskey Rock A Roller – performed by Randy Houser
02. You Got That Right – performed by Robert Randolph & Jimmy Hall
03. Saturday Night Special – performed by Aaron Lewis
04. Working For MCA – performed by Blackberry Smoke
05. Don't Ask Me No Questions – performed by O.A.R.
06. Gimme Back My Bullets – performed by Cheap Trick
07. The Ballad Of Curtis Loew – performed by moe. & John Hiatt
08. Simple Man – performed by Gov't Mule
09. That Smell – performed by Warren Haynes
10. Four Walls Of Raiford – performed by Jamey Johnson
11. I Know A Little – performed by Jason Isbell
12. Call Me The Breeze – performed by Peter Frampton
13. What's Your Name – performed by Trace Adkins
14. Down South Jukin' – performed by Charlie Daniels & Donnie Van Zant
15. Gimme Three Steps – performed by Alabama
16. Tuesday's Gone – performed by Gregg Allman
17. Travelin' Man – performed by Lynyrd Skynyrd with Jonny and Ronnie – Ronnie on big screen
18. Free Bird - performed by Lynyrd Skynyrd
19. Sweet Home Alabama – performed by Lynyrd Skynyrd and the entire line-up

Bonus Material:

Lynyrd Skynyrd Interview
Influence of Lynyrd Skynyrd
Country and Lynyrd Skynyrd

Disc Title: LYNYRD_SKYNYRD_ONE_MORE_FOR_THE_FANS
Disc Size: 32 712 225 384 bytes
Protection: AACS
BD-Java: No
BDInfo: 0.5.8

Notes:

BDINFO HOME:
Cinema Squid
http://www.cinemasquid.com/blu-ray/tools/bdinfo

INCLUDES FORUMS REPORT FOR:
AVS Forum Blu-ray Audio and Video Specifications Thread
http://www.avsforum.com/avs-vb/showthread.php?t=1155731


********************
PLAYLIST: 00000.MPLS
********************
Total Video
Title Codec Length Movie Size Disc Size Bitrate Bitrate Main Audio Track Secondary Audio Track
––- ––– –––- ––––––– ––––––– –––- –––- ––––––––– ––––––––––-
00000.MPLS AVC 1:42:16 28 465 889 280 32 712 225 384 37,11 28,18 LPCM 2.0 2304Kbps (48kHz/24-bit) DTS-HD Master 5.1 4704Kbps (48kHz/24-bit)

DISC INFO:

Disc Title: LYNYRD_SKYNYRD_ONE_MORE_FOR_THE_FANS
Disc Size: 32 712 225 384 bytes
Protection: AACS
BD-Java: No
BDInfo: 0.5.8

PLAYLIST REPORT:

Name: 00000.MPLS
Length: 1:42:16.797 (h:m:s.ms)
Size: 28 465 889 280 bytes
Total Bitrate: 37,11 Mbps

VIDEO:

Codec Bitrate Description
––- –––- –––––-
MPEG-4 AVC Video 28177 kbps 1080i / 29,970 fps / 16:9 / High Profile 4.1

AUDIO:

Codec Language Bitrate Description
––- –––– –––- –––––-
LPCM Audio English 2304 kbps 2.0 / 48 kHz / 2304 kbps / 24-bit
DTS-HD Master Audio English 4704 kbps 5.1 / 48 kHz / 4704 kbps / 24-bit (DTS Core: 5.1 / 48 kHz / 1509 kbps / 24-bit)

FILES:

Name Time In Length Size Total Bitrate
–– –––- ––– –– ––––––-
00003.M2TS 0:00:00.000 1:42:15.796 28 465 311 744 37 114
00006.M2TS 1:42:15.796 0:00:01.000 577 536 4 616

CHAPTERS:

Number Time In Length Avg Video Rate Max 1-Sec Rate Max 1-Sec Time Max 5-Sec Rate Max 5-Sec Time Max 10Sec Rate Max 10Sec Time Avg Frame Size Max Frame Size Max Frame Time
––– –––- ––– ––––––– ––––––– ––––––– ––––––– ––––––– ––––––– ––––––– ––––––– ––––––– –––––––
1 0:00:00.000 0:00:26.159 27 428 kbps 38 529 kbps 00:00:13.780 37 152 kbps 00:00:16.316 34 200 kbps 00:00:11.311 114 253 bytes 288 760 bytes 00:00:02.168
2 0:00:26.159 0:04:22.028 27 384 kbps 37 952 kbps 00:01:55.715 33 356 kbps 00:01:49.609 32 319 kbps 00:01:49.142 114 216 bytes 328 914 bytes 00:02:48.134
3 0:04:48.187 0:04:28.601 27 902 kbps 39 321 kbps 00:08:41.787 36 233 kbps 00:07:39.859 34 663 kbps 00:07:39.859 116 374 bytes 338 365 bytes 00:05:00.366
4 0:09:16.789 0:04:37.543 30 004 kbps 39 341 kbps 00:13:28.207 35 869 kbps 00:10:04.236 35 254 kbps 00:10:05.004 125 143 bytes 300 484 bytes 00:09:22.495
5 0:13:54.333 0:05:00.767 30 617 kbps 39 314 kbps 00:18:08.153 36 117 kbps 00:18:24.203 35 720 kbps 00:18:22.468 127 696 bytes 328 990 bytes 00:18:49.928
6 0:18:55.100 0:03:54.167 31 742 kbps 39 286 kbps 00:19:54.826 37 527 kbps 00:20:01.667 36 433 kbps 00:19:40.112 132 391 bytes 281 565 bytes 00:19:15.921
7 0:22:49.267 0:03:22.502 35 022 kbps 39 335 kbps 00:25:10.942 38 165 kbps 00:22:52.270 37 234 kbps 00:22:52.070 146 071 bytes 270 425 bytes 00:25:10.976
8 0:26:11.770 0:04:56.329 33 743 kbps 39 437 kbps 00:27:17.535 38 170 kbps 00:29:57.028 36 774 kbps 00:29:57.028 140 737 bytes 289 985 bytes 00:26:29.287
9 0:31:08.099 0:09:47.553 27 186 kbps 39 521 kbps 00:35:35.266 36 826 kbps 00:33:47.325 33 891 kbps 00:35:28.493 113 389 bytes 317 365 bytes 00:38:08.753
10 0:40:55.653 0:06:28.921 29 356 kbps 38 963 kbps 00:45:49.880 37 419 kbps 00:42:11.929 36 563 kbps 00:42:07.124 122 439 bytes 321 652 bytes 00:41:46.337
11 0:47:24.575 0:04:51.157 27 233 kbps 38 730 kbps 00:47:34.718 36 514 kbps 00:48:54.865 35 949 kbps 00:48:49.927 113 584 bytes 319 040 bytes 00:47:41.491
12 0:52:15.732 0:03:24.771 29 872 kbps 39 438 kbps 00:55:29.125 35 686 kbps 00:54:43.513 34 776 kbps 00:54:28.999 124 589 bytes 315 746 bytes 00:52:58.742
13 0:55:40.503 0:05:20.586 27 197 kbps 37 924 kbps 01:00:24.787 35 264 kbps 00:59:15.919 31 909 kbps 00:57:35.518 113 434 bytes 325 548 bytes 00:56:40.330
14 1:01:01.090 0:03:43.489 26 845 kbps 37 998 kbps 01:04:33.870 34 557 kbps 01:04:36.172 32 840 kbps 01:04:32.568 111 965 bytes 295 415 bytes 01:03:30.239
15 1:04:44.580 0:03:59.005 25 675 kbps 38 536 kbps 01:08:26.569 37 572 kbps 01:08:25.634 30 341 kbps 01:08:22.097 107 085 bytes 316 519 bytes 01:05:43.606
16 1:08:43.586 0:04:30.436 27 616 kbps 39 268 kbps 01:12:37.252 37 592 kbps 01:12:53.435 36 280 kbps 01:12:52.234 115 180 bytes 325 426 bytes 01:08:59.001
17 1:13:14.022 0:06:34.193 27 404 kbps 38 586 kbps 01:13:59.935 37 616 kbps 01:14:02.004 36 481 kbps 01:13:59.001 114 296 bytes 321 986 bytes 01:18:32.340
18 1:19:48.216 0:04:52.425 25 097 kbps 38 176 kbps 01:19:50.952 32 454 kbps 01:19:48.483 31 334 kbps 01:23:11.086 104 675 bytes 340 058 bytes 01:21:25.814
19 1:24:40.642 0:14:25.164 25 745 kbps 39 408 kbps 01:35:51.779 37 136 kbps 01:31:25.913 35 823 kbps 01:35:57.885 107 379 bytes 337 261 bytes 01:37:46.994
20 1:39:05.806 0:03:09.989 27 851 kbps 38 897 kbps 01:40:00.794 34 673 kbps 01:41:09.096 33 123 kbps 01:41:03.290 116 163 bytes 327 080 bytes 01:40:28.689
21 1:42:15.796 0:00:01.001 111 kbps 0 kbps 00:00:00.000 0 kbps 00:00:00.000 0 kbps 00:00:00.000 477 bytes 2 456 bytes 01:42:16.597

STREAM DIAGNOSTICS:

File PID Type Codec Language Seconds Bitrate Bytes Packets
–– –- –– ––- –––– ––––––– ––––––– ––––––- ––-
00003.M2TS 4113 (0x1011) 0x1B AVC 6135,663 28 182 21 614 248 501 117 668 770
00003.M2TS 4352 (0x1100) 0x80 LPCM eng (English) 6135,663 2 310 1 772 019 040 9 817 280
00003.M2TS 4353 (0x1101) 0x86 DTS-HD MA eng (English) 6135,663 4 704 3 607 944 316 20 565 209
00006.M2TS 4113 (0x1011) 0x1B AVC 0,901 145 16 293 112
00006.M2TS 4352 (0x1100) 0x80 LPCM eng (English) 0,901 2 577 290 244 1 608
00006.M2TS 4353 (0x1101) 0x86 DTS-HD MA eng (English) 0,901 1 736 195 520 1 222

QUICK SUMMARY:

Disc Title: LYNYRD_SKYNYRD_ONE_MORE_FOR_THE_FANS
Disc Size: 32 712 225 384 bytes
Protection: AACS
BD-Java: No
Playlist: 00000.MPLS
Size: 28 465 889 280 bytes
Length: 1:42:16.797
Total Bitrate: 37,11 Mbps
Video: MPEG-4 AVC Video / 28177 kbps / 1080i / 29,970 fps / 16:9 / High Profile 4.1
Audio: English / LPCM Audio / 2.0 / 48 kHz / 2304 kbps / 24-bit
Audio: English / DTS-HD Master Audio / 5.1 / 48 kHz / 4704 kbps / 24-bit (DTS Core: 5.1 / 48 kHz / 1509 kbps / 24-bit)


********************
PLAYLIST: 00003.MPLS
********************
Total Video
Title Codec Length Movie Size Disc Size Bitrate Bitrate Main Audio Track Secondary Audio Track
––- ––– –––- ––––––– ––––––– –––- –––- ––––––––– ––––––––––-
00003.MPLS AVC 0:10:24 1 966 872 576 32 712 225 384 25,18 22,21 DTS-HD Master 2.0 1686Kbps (48kHz/24-bit)

DISC INFO:

Disc Title: LYNYRD_SKYNYRD_ONE_MORE_FOR_THE_FANS
Disc Size: 32 712 225 384 bytes
Protection: AACS
BD-Java: No
BDInfo: 0.5.8

PLAYLIST REPORT:

Name: 00003.MPLS
Length: 0:10:24.790 (h:m:s.ms)
Size: 1 966 872 576 bytes
Total Bitrate: 25,18 Mbps

VIDEO:

Codec Bitrate Description
––- –––- –––––-
MPEG-4 AVC Video 22210 kbps 1080i / 29,970 fps / 16:9 / High Profile 4.1

AUDIO:

Codec Language Bitrate Description
––- –––– –––- –––––-
DTS-HD Master Audio English 1686 kbps 2.0 / 48 kHz / 1686 kbps / 24-bit (DTS Core: 2.0 / 48 kHz / 768 kbps / 24-bit)

FILES:

Name Time In Length Size Total Bitrate
–– –––- ––– –– ––––––-
00002.M2TS 0:00:00.000 0:10:23.789 1 966 712 832 25 223
00005.M2TS 0:10:23.789 0:00:01.000 159 744 1 277

CHAPTERS:

Number Time In Length Avg Video Rate Max 1-Sec Rate Max 1-Sec Time Max 5-Sec Rate Max 5-Sec Time Max 10Sec Rate Max 10Sec Time Avg Frame Size Max Frame Size Max Frame Time
––– –––- ––– ––––––– ––––––– ––––––– ––––––– ––––––– ––––––– ––––––– ––––––– ––––––– –––––––
1 0:00:00.000 0:10:23.789 22 246 kbps 37 526 kbps 00:09:25.765 35 928 kbps 00:09:24.964 35 235 kbps 00:09:23.963 92 779 bytes 357 142 bytes 00:04:07.247
2 0:10:23.789 0:00:01.000 111 kbps 0 kbps 00:00:00.000 0 kbps 00:00:00.000 0 kbps 00:00:00.000 477 bytes 2 456 bytes 00:10:24.590

STREAM DIAGNOSTICS:

File PID Type Codec Language Seconds Bitrate Bytes Packets
–– –- –– ––- –––– ––––––– ––––––– ––––––- ––-
00002.M2TS 4113 (0x1011) 0x1B AVC 623,656 22 251 1 734 585 347 9 447 271
00002.M2TS 4352 (0x1100) 0x86 DTS-HD MA eng (English) 623,656 1 688 131 558 316 775 084
00005.M2TS 4113 (0x1011) 0x1B AVC 0,901 145 16 293 112
00005.M2TS 4352 (0x1100) 0x86 DTS-HD MA eng (English) 0,901 908 102 272 658

QUICK SUMMARY:

Disc Title: LYNYRD_SKYNYRD_ONE_MORE_FOR_THE_FANS
Disc Size: 32 712 225 384 bytes
Protection: AACS
BD-Java: No
Playlist: 00003.MPLS
Size: 1 966 872 576 bytes
Length: 0:10:24.790
Total Bitrate: 25,18 Mbps
Video: MPEG-4 AVC Video / 22210 kbps / 1080i / 29,970 fps / 16:9 / High Profile 4.1
Audio: English / DTS-HD Master Audio / 2.0 / 48 kHz / 1686 kbps / 24-bit (DTS Core: 2.0 / 48 kHz / 768 kbps / 24-bit)


********************
PLAYLIST: 00001.MPLS
********************
Total Video
Title Codec Length Movie Size Disc Size Bitrate Bitrate Main Audio Track Secondary Audio Track
––- ––– –––- ––––––– ––––––– –––- –––- ––––––––– ––––––––––-
00001.MPLS AVC 0:05:39 1 084 643 328 32 712 225 384 25,56 22,58 DTS-HD Master 2.0 1681Kbps (48kHz/24-bit)

DISC INFO:

Disc Title: LYNYRD_SKYNYRD_ONE_MORE_FOR_THE_FANS
Disc Size: 32 712 225 384 bytes
Protection: AACS
BD-Java: No
BDInfo: 0.5.8

PLAYLIST REPORT:

Name: 00001.MPLS
Length: 0:05:39.439 (h:m:s.ms)
Size: 1 084 643 328 bytes
Total Bitrate: 25,56 Mbps

VIDEO:

Codec Bitrate Description
––- –––- –––––-
MPEG-4 AVC Video 22578 kbps 1080i / 29,970 fps / 16:9 / High Profile 4.1

AUDIO:

Codec Language Bitrate Description
––- –––– –––- –––––-
DTS-HD Master Audio English 1681 kbps 2.0 / 48 kHz / 1681 kbps / 24-bit (DTS Core: 2.0 / 48 kHz / 768 kbps / 24-bit)

FILES:

Name Time In Length Size Total Bitrate
–– –––- ––– –– ––––––-
00000.M2TS 0:00:00.000 0:05:38.438 1 084 483 584 25 635
00005.M2TS 0:05:38.438 0:00:01.000 159 744 1 277

CHAPTERS:

Number Time In Length Avg Video Rate Max 1-Sec Rate Max 1-Sec Time Max 5-Sec Rate Max 5-Sec Time Max 10Sec Rate Max 10Sec Time Avg Frame Size Max Frame Size Max Frame Time
––– –––- ––– ––––––– ––––––– ––––––– ––––––– ––––––– ––––––– ––––––– ––––––– ––––––– –––––––
1 0:00:00.000 0:05:38.438 22 644 kbps 37 797 kbps 00:03:11.157 36 405 kbps 00:03:09.556 34 970 kbps 00:03:39.652 94 436 bytes 340 596 bytes 00:01:14.040
2 0:05:38.438 0:00:01.000 111 kbps 0 kbps 00:00:00.000 0 kbps 00:00:00.000 0 kbps 00:00:00.000 477 bytes 2 456 bytes 00:05:39.238

STREAM DIAGNOSTICS:

File PID Type Codec Language Seconds Bitrate Bytes Packets
–– –- –– ––- –––– ––––––– ––––––– ––––––- ––-
00000.M2TS 4113 (0x1011) 0x1B AVC 338,371 22 649 957 959 445 5 217 327
00000.M2TS 4352 (0x1100) 0x86 DTS-HD MA eng (English) 338,371 1 684 71 219 484 419 649
00005.M2TS 4113 (0x1011) 0x1B AVC 0,901 145 16 293 112
00005.M2TS 4352 (0x1100) 0x86 DTS-HD MA eng (English) 0,901 908 102 272 658

QUICK SUMMARY:

Disc Title: LYNYRD_SKYNYRD_ONE_MORE_FOR_THE_FANS
Disc Size: 32 712 225 384 bytes
Protection: AACS
BD-Java: No
Playlist: 00001.MPLS
Size: 1 084 643 328 bytes
Length: 0:05:39.439
Total Bitrate: 25,56 Mbps
Video: MPEG-4 AVC Video / 22578 kbps / 1080i / 29,970 fps / 16:9 / High Profile 4.1
Audio: English / DTS-HD Master Audio / 2.0 / 48 kHz / 1681 kbps / 24-bit (DTS Core: 2.0 / 48 kHz / 768 kbps / 24-bit)


********************
PLAYLIST: 00002.MPLS
********************
Total Video
Title Codec Length Movie Size Disc Size Bitrate Bitrate Main Audio Track Secondary Audio Track
––- ––– –––- ––––––– ––––––– –––- –––- ––––––––– ––––––––––-
00002.MPLS AVC 0:03:55 814 940 160 32 712 225 384 27,69 24,89 DTS-HD Master 2.0 1407Kbps (48kHz/24-bit)

DISC INFO:

Disc Title: LYNYRD_SKYNYRD_ONE_MORE_FOR_THE_FANS
Disc Size: 32 712 225 384 bytes
Protection: AACS
BD-Java: No
BDInfo: 0.5.8

PLAYLIST REPORT:

Name: 00002.MPLS
Length: 0:03:55.468 (h:m:s.ms)
Size: 814 940 160 bytes
Total Bitrate: 27,69 Mbps

VIDEO:

Codec Bitrate Description
––- –––- –––––-
MPEG-4 AVC Video 24887 kbps 1080i / 29,970 fps / 16:9 / High Profile 4.1

AUDIO:

Codec Language Bitrate Description
––- –––– –––- –––––-
DTS-HD Master Audio English 1407 kbps 2.0 / 48 kHz / 1407 kbps / 24-bit (DTS Core: 2.0 / 48 kHz / 768 kbps / 24-bit)

FILES:

Name Time In Length Size Total Bitrate
–– –––- ––– –– ––––––-
00001.M2TS 0:00:00.000 0:03:54.467 814 780 416 27 800
00005.M2TS 0:03:54.467 0:00:01.000 159 744 1 277

CHAPTERS:

Number Time In Length Avg Video Rate Max 1-Sec Rate Max 1-Sec Time Max 5-Sec Rate Max 5-Sec Time Max 10Sec Rate Max 10Sec Time Avg Frame Size Max Frame Size Max Frame Time
––– –––- ––– ––––––– ––––––– ––––––– ––––––– ––––––– ––––––– ––––––– ––––––– ––––––– –––––––
1 0:00:00.000 0:03:54.467 24 993 kbps 35 792 kbps 00:02:36.789 34 006 kbps 00:02:43.196 33 623 kbps 00:02:37.390 104 227 bytes 392 617 bytes 00:02:14.601
2 0:03:54.467 0:00:01.000 111 kbps 0 kbps 00:00:00.000 0 kbps 00:00:00.000 0 kbps 00:00:00.000 477 bytes 2 456 bytes 00:03:55.268

STREAM DIAGNOSTICS:

File PID Type Codec Language Seconds Bitrate Bytes Packets
–– –- –– ––- –––– ––––––– ––––––– ––––––- ––-
00001.M2TS 4113 (0x1011) 0x1B AVC 234,367 25 004 732 505 580 3 988 568
00001.M2TS 4352 (0x1100) 0x86 DTS-HD MA eng (English) 234,367 1 410 41 298 544 247 201
00005.M2TS 4113 (0x1011) 0x1B AVC 0,901 145 16 293 112
00005.M2TS 4352 (0x1100) 0x86 DTS-HD MA eng (English) 0,901 908 102 272 658

QUICK SUMMARY:

Disc Title: LYNYRD_SKYNYRD_ONE_MORE_FOR_THE_FANS
Disc Size: 32 712 225 384 bytes
Protection: AACS
BD-Java: No
Playlist: 00002.MPLS
Size: 814 940 160 bytes
Length: 0:03:55.468
Total Bitrate: 27,69 Mbps
Video: MPEG-4 AVC Video / 24887 kbps / 1080i / 29,970 fps / 16:9 / High Profile 4.1
Audio: English / DTS-HD Master Audio / 2.0 / 48 kHz / 1407 kbps / 24-bit (DTS Core: 2.0 / 48 kHz / 768 kbps / 24-bit)

Lynyrd Skynyrd - One More For The Fans (2015) Blu-ray

Lynyrd Skynyrd - One More For The Fans (2015) Blu-ray

Lynyrd Skynyrd - One More For The Fans (2015) Blu-ray

Lynyrd Skynyrd - One More For The Fans (2015) Blu-ray

Lynyrd Skynyrd - One More For The Fans (2015) Blu-ray

Lynyrd Skynyrd - One More For The Fans (2015) Blu-ray

Lynyrd Skynyrd - One More For The Fans (2015) Blu-ray

Lynyrd Skynyrd - One More For The Fans (2015) Blu-ray

Lynyrd Skynyrd - One More For The Fans (2015) Blu-ray

Lynyrd Skynyrd - One More For The Fans (2015) Blu-ray

Lynyrd Skynyrd - One More For The Fans (2015) Blu-ray

Lynyrd Skynyrd - One More For The Fans (2015) Blu-ray

All thanks go to Camerado

Visit my blog!

Download: