Subcategories

Lynyrd Skynyrd - One More For The Fans (2015)

Posted By: v3122
Lynyrd Skynyrd - One More For The Fans (2015)

Lynyrd Skynyrd - One More For The Fans (2015)
EAC | Flac(Image) + Cue + Log & MP3 CBR 320Kbps
2CD | Edel, 0210367EMU | ~ 742 or 256 Mb | Scans Included
Southern Rock

Capturing a tribute concert held on November 12, 2014 at the Fox Theatre in Atlanta, Georgia, the double-disc One More for the Fans is studded with Southern rock stars, along with a bunch of country acts, bluesmen, Cheap Trick, and John Hiatt. The whole thing culminated with Skynyrd coming out for the close – the headlines came from Johnny Van Zant duetting with footage of a departed Ronnie on the big screen but the closing "Free Bird" and "Sweet Home Alabama" worked better – but this is best heard as a ragged tribute by acts that either play it straight or enjoy getting a little rowdy with the legacy. Jamey Johnson picks an obscurity in "Four Walls of Raiford" but this pretty much consists of the basic canon, which is by no means a complaint, particularly when Randy Houser tears into "Whiskey Rock-A-Roller," Blackberry Smoke beefs up "Workin' for MCA," and Jason Isbell swings on "I Know a Little." Maybe this isn't a flat-out classic but anybody who's enjoyed Skynyrd over the years will find something to enjoy here.

by Stephen Thomas Erlewine, AMG
Lynyrd Skynyrd - One More For The Fans (2015)


Lynyrd Skynyrd - One More For The Fans (2015):

Lynyrd Skynyrd - One More For The Fans (2015)

Tracklist CD1:

01. Whiskey Rock A Roller (performed by Randy Houser)
02. You Got That Right (performed by Robert Randolph & Jimmy Hall)
03. Saturday Night Special (performed by Aaron Lewis)
04. Working For MCA (performed by Blackberry Smoke)
05. Don't Ask Me No Questions (performed by O.A.R.)
06. Gimme Back My Bullets (performed by Cheap Trick)
07. The Ballad of Curtis Loew (performed by moe & John Hiatt)
08. Simple Man (performed by Gov't Mule)
09. That Smell (performed by Warren Haynes)
10. Four Walls of Raiford (performed by Jamey Johnson)

Exact Audio Copy V1.0 beta 3 from 29. August 2011

EAC extraction logfile from 22. August 2015, 6:41

Lynyrd Skynyrd / One More For The Fans CD1 (0210367EMU)

Used drive : PLEXTOR BD-R PX-B940SA Adapter: 5 ID: 0

Read mode : Secure
Utilize accurate stream : Yes
Defeat audio cache : Yes
Make use of C2 pointers : No

Read offset correction : 667
Overread into Lead-In and Lead-Out : No
Fill up missing offset samples with silence : Yes
Delete leading and trailing silent blocks : No
Null samples used in CRC calculations : Yes
Used interface : Installed external ASPI interface

Used output format : User Defined Encoder
Selected bitrate : 128 kBit/s
Quality : High
Add ID3 tag : Yes
Command line compressor : G:\Program Files (x86)\Exact Audio Copy\Flac\flac.exe
Additional command line options : -V -8 -T "Date=%year%" -T "Genre=%genre%" %source%


TOC of the extracted CD

Track | Start | Length | Start sector | End sector
––––––––––––––––––––––––––––-
1 | 0:00.00 | 4:27.40 | 0 | 20064
2 | 4:27.40 | 4:27.13 | 20065 | 40102
3 | 8:54.53 | 4:35.32 | 40103 | 60759
4 | 13:30.10 | 5:04.40 | 60760 | 83599
5 | 18:34.50 | 3:52.43 | 83600 | 101042
6 | 22:27.18 | 3:21.53 | 101043 | 116170
7 | 25:48.71 | 4:52.60 | 116171 | 138130
8 | 30:41.56 | 8:47.59 | 138131 | 177714
9 | 39:29.40 | 6:32.27 | 177715 | 207141
10 | 46:01.67 | 4:49.42 | 207142 | 228858


Range status and errors

Selected range

Filename D:\MUSIC\Lynyrd Skynyrd - One More For The Fans CD1 (0210367EMU).wav

Suspicious position 0:00:00

Peak level 97.7 %
Extraction speed 1.7 X
Range quality 99.9 %
Test CRC 07CB697E
Copy CRC 0C6103B1
Copy finished

There were errors


AccurateRip summary

Track 1 not present in database
Track 2 not present in database
Track 3 not present in database
Track 4 not present in database
Track 5 not present in database
Track 6 not present in database
Track 7 not present in database
Track 8 not present in database
Track 9 not present in database
Track 10 not present in database

None of the tracks are present in the AccurateRip database

End of status report

==== Log checksum 9332E7EF16DCCCDED7D3A0BEB647E0E1264E6A543E1A88A42E485363F5A69ECD ====

foobar2000 1.2.9 / Dynamic Range Meter 1.1.1
log date: 2015-08-25 21:15:06

––––––––––––––––––––––––––––––––––––––––
Analyzed: Lynyrd Skynyrd / One More For The Fans CD1 (0210367EMU)
––––––––––––––––––––––––––––––––––––––––

DR Peak RMS Duration Track
––––––––––––––––––––––––––––––––––––––––
DR6 -0.20 dB -7.22 dB 4:28 01- Whiskey Rock A Roller (performed by Randy Houser)
DR6 -0.20 dB -6.54 dB 4:27 02- You Got That Right (performed by Robert Randolph & Jimmy Hall)
DR7 -0.20 dB -7.91 dB 4:35 03- Saturday Night Special (performed by Aaron Lewis)
DR6 -0.20 dB -6.55 dB 5:05 04- Working For MCA (performed by Blackberry Smoke)
DR6 -0.20 dB -7.27 dB 3:53 05- Don't Ask Me No Questions (performed by O.A.R.)
DR6 -0.20 dB -6.81 dB 3:22 06- Gimme Back My Bullets (performed by Cheap Trick)
DR7 -0.20 dB -8.52 dB 4:53 07- The Ballad of Curtis Loew (performed by moe & John Hiatt)
DR6 -0.20 dB -7.35 dB 8:48 08- Simple Man (performed by Gov't Mule)
DR7 -0.20 dB -8.28 dB 6:32 09- That Smell (performed by Warren Haynes)
DR10 -0.20 dB -12.95 dB 4:50 10- Four Walls of Raiford (performed by Jamey Johnson)
––––––––––––––––––––––––––––––––––––––––

Number of tracks: 10
Official DR value: DR6

Samplerate: 44100 Hz
Channels: 2
Bits per sample: 16
Bitrate: 968 kbps
Codec: FLAC

[CUETools log; Date: 25.08.2015 21:08:06; Version: 2.1.4]
HDCD: peak extend: none, transient filter: none, gain: none
[CTDB TOCID: Ms7JDUXFoYVwXTnVNJ9EPDAVKms-] found.
Track | CTDB Status
1 | (6/6) Accurately ripped
2 | (6/6) Accurately ripped
3 | (6/6) Accurately ripped
4 | (6/6) Accurately ripped
5 | (6/6) Accurately ripped
6 | (6/6) Accurately ripped
7 | (6/6) Accurately ripped
8 | (6/6) Accurately ripped
9 | (6/6) Accurately ripped
10 | (6/6) Accurately ripped
[AccurateRip ID: 0011e855-00917b4f-800beb0a] disk not present in database.

Track Peak [ CRC32 ] [W/O NULL] [ LOG ]
– 97,7 [0C6103B1] [D4F3BFC7] CRC32
01 97,7 [EA6E7B9A] [16156838]
02 97,7 [0156DE35] [3CB42A7A]
03 97,7 [B0EAD450] [C7F82C8D]
04 97,7 [A43E6B43] [30464525]
05 97,7 [559C2D1A] [BF236536]
06 97,7 [8D5D9650] [CB364CD4]
07 97,7 [C734AACE] [2308B2A6]
08 97,7 [2D1A32D9] [22F7E7FD]
09 97,7 [432B7632] [9A65A27B]
10 97,7 [D6B9B724] [023488ED]

Lynyrd Skynyrd - One More For The Fans (2015)

Tracklist CD2:

01. I Know A Little (performed by Jason Isbell)
02. Call Me The Breeze (performed by Peter Frampton)
03. What's Your Name (performed by Trace Adkins)
04. Down South Jukin' (performed by Charlie Daniels & Donnie Van Zant)
05. Gimme Three Steps (performed by Alabama)
06. Tuesday's Gone (performed by Gregg Allman)
07. Travelin' Man (performed by Lynyrd Skynyrd With Jonny and Ronnie - Ronnie on big screen)
08. Free Bird (performed by Lynyrd Skynyrd)
09. Sweet Home Alabama (performed by Lynyrd Skynyrd and the entire cast)

Exact Audio Copy V1.0 beta 3 from 29. August 2011

EAC extraction logfile from 21. August 2015, 22:08

Lynyrd Skynyrd / One More For The Fans CD2 (0210367EMU)

Used drive : PLEXTOR BD-R PX-B940SA Adapter: 5 ID: 0

Read mode : Secure
Utilize accurate stream : Yes
Defeat audio cache : Yes
Make use of C2 pointers : No

Read offset correction : 667
Overread into Lead-In and Lead-Out : No
Fill up missing offset samples with silence : Yes
Delete leading and trailing silent blocks : No
Null samples used in CRC calculations : Yes
Used interface : Installed external ASPI interface

Used output format : User Defined Encoder
Selected bitrate : 128 kBit/s
Quality : High
Add ID3 tag : Yes
Command line compressor : G:\Program Files (x86)\Exact Audio Copy\Flac\flac.exe
Additional command line options : -V -8 -T "Date=%year%" -T "Genre=%genre%" %source%


TOC of the extracted CD

Track | Start | Length | Start sector | End sector
––––––––––––––––––––––––––––-
1 | 0:00.00 | 3:33.29 | 0 | 16003
2 | 3:33.29 | 5:21.22 | 16004 | 40100
3 | 8:54.51 | 3:44.19 | 40101 | 56919
4 | 12:38.70 | 3:53.60 | 56920 | 74454
5 | 16:32.55 | 4:29.66 | 74455 | 94695
6 | 21:02.46 | 6:39.33 | 94696 | 124653
7 | 27:42.04 | 4:50.67 | 124654 | 146470
8 | 32:32.71 | 12:14.01 | 146471 | 201521
9 | 44:46.72 | 6:23.38 | 201522 | 230284


Range status and errors

Selected range

Filename D:\MUSIC\Lynyrd Skynyrd - One More For The Fans CD2 (0210367EMU).wav

Peak level 97.7 %
Extraction speed 2.8 X
Range quality 100.0 %
Test CRC F617DC75
Copy CRC F617DC75
Copy OK

No errors occurred


AccurateRip summary

Track 1 not present in database
Track 2 not present in database
Track 3 not present in database
Track 4 not present in database
Track 5 not present in database
Track 6 not present in database
Track 7 not present in database
Track 8 not present in database
Track 9 not present in database

None of the tracks are present in the AccurateRip database

End of status report

==== Log checksum EA783C5C4D744BAF1031D05EE5339C032200F34B23E53799C13BC1605BE8EE97 ====

foobar2000 1.2.9 / Dynamic Range Meter 1.1.1
log date: 2015-08-25 21:14:50

––––––––––––––––––––––––––––––––––––––––
Analyzed: Lynyrd Skynyrd / One More For The Fans CD2 (0210367EMU)
––––––––––––––––––––––––––––––––––––––––

DR Peak RMS Duration Track
––––––––––––––––––––––––––––––––––––––––
DR7 -0.20 dB -8.76 dB 3:33 01- I Know A Little (performed by Jason Isbell)
DR7 -0.20 dB -7.97 dB 5:21 02- Call Me The Breeze (performed by Peter Frampton)
DR6 -0.20 dB -7.25 dB 3:44 03- What's Your Name (performed by Trace Adkins)
DR7 -0.20 dB -7.85 dB 3:54 04- Down South Jukin' (performed by Charlie Daniels & Donnie Van Zant)
DR7 -0.20 dB -7.95 dB 4:30 05- Gimme Three Steps (performed by Alabama)
DR6 -0.20 dB -7.98 dB 6:39 06- Tuesday's Gone (performed by Gregg Allman)
DR8 -0.20 dB -9.64 dB 4:51 07- Travelin' Man (performed by Lynyrd Skynyrd With Jonny and Ronnie - Ronnie …
DR6 -0.20 dB -8.21 dB 12:14 08- Free Bird (performed by Lynyrd Skynyrd)
DR6 -0.20 dB -8.08 dB 6:24 09- Sweet Home Alabama (performed by Lynyrd Skynyrd and the entire cast)
––––––––––––––––––––––––––––––––––––––––

Number of tracks: 9
Official DR value: DR7

Samplerate: 44100 Hz
Channels: 2
Bits per sample: 16
Bitrate: 965 kbps
Codec: FLAC

[CUETools log; Date: 25.08.2015 21:10:27; Version: 2.1.4]
HDCD: peak extend: none, transient filter: none, gain: none
[CTDB TOCID: 2QGWbUz0OJ4UathGIduBmTKGS88-] found.
Track | CTDB Status
1 | (6/6) Accurately ripped
2 | (6/6) Accurately ripped
3 | (6/6) Accurately ripped
4 | (6/6) Accurately ripped
5 | (6/6) Accurately ripped
6 | (6/6) Accurately ripped
7 | (6/6) Accurately ripped
8 | (6/6) Accurately ripped
9 | (6/6) Accurately ripped
[AccurateRip ID: 000f0814-007227f9-840bfe09] disk not present in database.

Track Peak [ CRC32 ] [W/O NULL] [ LOG ]
– 97,7 [F617DC75] [66BFD56A] CRC32
01 97,7 [3E4C141B] [532B8D3C]
02 97,7 [8DBB2663] [F5146E35]
03 97,7 [BE46D61C] [EB3C1A81]
04 97,7 [878C0177] [917EFFDE]
05 97,7 [108A0697] [9E7D8A64]
06 97,7 [F8DC4F98] [B4B392CA]
07 97,7 [43618B3F] [D749F751]
08 97,7 [C081B10B] [CD704E78]
09 97,7 [6F91A4B2] [627AE544]

Lynyrd Skynyrd - One More For The Fans (2015)

All thanks go to rd

Download Lynyrd Skynyrd - One More For The Fans (2015):