Subcategories

Lynyrd Skynyrd - Last Of A Dyin' Breed (2012) Special Edition [Re-Up]

Posted By: Designol
Lynyrd Skynyrd - Last Of A Dyin' Breed (2012) Special Edition [Re-Up]

Lynyrd Skynyrd - Last Of A Dyin' Breed (2012) Special Edition
EAC | FLAC | Tracks (Cue&Log) ~ 420 Mb (incl 5%) | Mp3 (CBR320) ~ 147 Mb (incl 5%) | Scans ~ 278 Mb
Genre: Southern Rock, Blues Rock, Hard Rock | Label: Roadrunner Records | # 1686-176445 | Time: 01:00:29

Legendary rock band Lynyrd Skynyrd releases a fiery slice of Southern style guitar rock heaven in Last of a Dyin' Breed. This is the kind of record guaranteed to feed the needs of the multi-generational Skynyrd Nation, and continue the renewed vigor the band exhibited with their previous album, 2009's God & Guns. For the passionate, longtime fans of the band, this is Skynyrd at the top of their game, complete with instantly memorable songs, more hooks than a tackle box, and a blistering three-guitar attack at full power. The Last Of A Dyin' Breed special edition comes in a digi-pak with a 16-page booklet & 4 bonus tracks.

Defiance runs deep in Lynyrd Skynyrd's DNA but 2012's Last of a Dyin' Breed finds the veteran Southern rockers hunkering down, emphasizing their old-fashioned outlaw ways. All the recognizable redneck rebel sentiments are here – it's all god, guns, Southern girls, and sweet tea – but Skynyrd's signature sound is absent. In this, their third act, the kings of Southern rock have cut out the country and boogie, leaving behind a heavy-booted blues grind and churning hard rock – sounds that signify the modern South even if they're not classically Southern rock. And that fits for this incarnation of Lynyrd Skynyrd. They may flirt with fleeting references to their past – the first verse of "Good Teacher" recalling "The Ballad of Curtis Loew," the soaring soul-speckled ballad "Ready to Fly" a distant cousin of "Freebird" – but Johnny Van Zant, Gary Rossington, and Rickey Medlocke aren't in this game just to revive past glories; they're engaging with the modern world, co-opting the leaden stripper rock of Nickelback for "Homegrown," once again bringing back former Marilyn Manson guitarist John 5 for a cameo, and writing a Tea Party anthem in "Nothing Comes Easy." Certainly, Skynyrd are making sturdy, old-time rock & roll for an audience that's likely peppered with Tea Partiers, the kind of Middle American worried that the world they knew is slipping away, and Last of a Dyin' Breed provides a bit of a rallying point for them: it's true to their roots but living in the moment. If Skynyrd sound a little less nimble than they used to, chalk it up not to age but to the conscious decision to play everything heavier than before; without elements of the backwoods, they're dogged rockers, happy to carry the torch they lit nearly four decades ago even if it doesn't burn as bright as it once did.

Review by Stephen Thomas Erlewine, Allmusic.com

Lynyrd Skynyrd - Last Of A Dyin' Breed (2012) Special Edition [Re-Up]



Tracklist:

01. Last Of A Dyin' Breed (03:52)
02. One Day At A Time (03:46)
03. Homegrown (03:41)
04. Ready To Fly (05:26)
05. Mississippi Blood (02:58)
06. Good Teacher (03:07)
07. Something To Live For (04:29)
08. Life's Twisted (04:34)
09. Nothing Comes Easy (04:13)
10. Honey Hole (04:35)
11. Start Livin' Life Again (04:27)

Special Edition Bonus Tracks:
12. Poor Man's Dream (04:08)
13. Do It Up Right (03:57)
14. Sad Song (04:01)
15. Low Down Dirty (03:14)


Exact Audio Copy V1.0 beta 3 from 29. August 2011

EAC extraction logfile from 18. September 2012, 4:43

Lynyrd Skynyrd / Last Of A Dyin' Breed {Special Edition}

Used drive : PIONEER DVD-RW DVR-115D Adapter: 1 ID: 0

Read mode : Secure
Utilize accurate stream : Yes
Defeat audio cache : Yes
Make use of C2 pointers : No

Read offset correction : 48
Overread into Lead-In and Lead-Out : No
Fill up missing offset samples with silence : Yes
Delete leading and trailing silent blocks : No
Null samples used in CRC calculations : Yes
Used interface : Installed external ASPI interface
Gap handling : Appended to previous track

Used output format : User Defined Encoder
Selected bitrate : 320 kBit/s
Quality : High
Add ID3 tag : No
Command line compressor : C:\Program Files\Exact Audio Copy 1.0\Flac\flac.exe
Additional command line options : -V -8 -T "Genre=%genre%" -T "Artist=%artist%" -T "Title=%title%" -T "Album=%albumtitle%" -T "Date=%year%" -T "Tracknumber=%tracknr%" -T "Comment=%comment%" %source%


TOC of the extracted CD

Track | Start | Length | Start sector | End sector
––––––––––––––––––––––––––––-
1 | 0:00.00 | 3:51.39 | 0 | 17363
2 | 3:51.39 | 3:46.16 | 17364 | 34329
3 | 7:37.55 | 3:41.08 | 34330 | 50912
4 | 11:18.63 | 5:26.31 | 50913 | 75393
5 | 16:45.19 | 2:57.40 | 75394 | 88708
6 | 19:42.59 | 3:07.18 | 88709 | 102751
7 | 22:50.02 | 4:29.13 | 102752 | 122939
8 | 27:19.15 | 4:33.72 | 122940 | 143486
9 | 31:53.12 | 4:13.35 | 143487 | 162496
10 | 36:06.47 | 4:35.01 | 162497 | 183122
11 | 40:41.48 | 4:26.50 | 183123 | 203122
12 | 45:08.23 | 4:07.62 | 203123 | 221709
13 | 49:16.10 | 3:56.46 | 221710 | 239455
14 | 53:12.56 | 4:01.08 | 239456 | 257538
15 | 57:13.64 | 3:14.37 | 257539 | 272125


Track 1

Filename K:\Lossless Temp\Lynyrd Skynyrd\Lynyrd Skynyrd - Last Of A Dyin' Breed - 2012 (Special Edition, Roadrunner, 1686-17645)\01 - Lynyrd Skynyrd - Last Of A Dyin' Breed.wav

Pre-gap length 0:00:02.00

Peak level 97.7 %
Extraction speed 4.6 X
Track quality 100.0 %
Test CRC D987E1F0
Copy CRC D987E1F0
Cannot be verified as accurate (confidence 1) [EB802582], AccurateRip returned [846D0F50] (AR v2)
Copy OK

Track 2

Filename K:\Lossless Temp\Lynyrd Skynyrd\Lynyrd Skynyrd - Last Of A Dyin' Breed - 2012 (Special Edition, Roadrunner, 1686-17645)\02 - Lynyrd Skynyrd - One Day At A Time.wav

Peak level 97.7 %
Extraction speed 5.1 X
Track quality 100.0 %
Test CRC ABA792D5
Copy CRC ABA792D5
Cannot be verified as accurate (confidence 1) [0C36C604], AccurateRip returned [01515796] (AR v2)
Copy OK

Track 3

Filename K:\Lossless Temp\Lynyrd Skynyrd\Lynyrd Skynyrd - Last Of A Dyin' Breed - 2012 (Special Edition, Roadrunner, 1686-17645)\03 - Lynyrd Skynyrd - Homegrown.wav

Peak level 97.7 %
Extraction speed 4.8 X
Track quality 99.9 %
Test CRC EE68B4F7
Copy CRC EE68B4F7
Cannot be verified as accurate (confidence 1) [07DB2EBE], AccurateRip returned [140E16ED] (AR v2)
Copy OK

Track 4

Filename K:\Lossless Temp\Lynyrd Skynyrd\Lynyrd Skynyrd - Last Of A Dyin' Breed - 2012 (Special Edition, Roadrunner, 1686-17645)\04 - Lynyrd Skynyrd - Ready To Fly.wav

Peak level 97.7 %
Extraction speed 6.1 X
Track quality 100.0 %
Test CRC 0617C1F4
Copy CRC 0617C1F4
Cannot be verified as accurate (confidence 1) [C736FA65], AccurateRip returned [5D8FCF8E] (AR v2)
Copy OK

Track 5

Filename K:\Lossless Temp\Lynyrd Skynyrd\Lynyrd Skynyrd - Last Of A Dyin' Breed - 2012 (Special Edition, Roadrunner, 1686-17645)\05 - Lynyrd Skynyrd - Mississippi Blood.wav

Peak level 97.7 %
Extraction speed 6.0 X
Track quality 100.0 %
Test CRC 227E108B
Copy CRC 227E108B
Cannot be verified as accurate (confidence 1) [8495472D], AccurateRip returned [BCAFBD1C] (AR v2)
Copy OK

Track 6

Filename K:\Lossless Temp\Lynyrd Skynyrd\Lynyrd Skynyrd - Last Of A Dyin' Breed - 2012 (Special Edition, Roadrunner, 1686-17645)\06 - Lynyrd Skynyrd - Good Teacher.wav

Peak level 97.7 %
Extraction speed 5.5 X
Track quality 99.9 %
Test CRC 9BBEAACD
Copy CRC 9BBEAACD
Cannot be verified as accurate (confidence 1) [F0E8D270], AccurateRip returned [986FD3D8] (AR v2)
Copy OK

Track 7

Filename K:\Lossless Temp\Lynyrd Skynyrd\Lynyrd Skynyrd - Last Of A Dyin' Breed - 2012 (Special Edition, Roadrunner, 1686-17645)\07 - Lynyrd Skynyrd - Something To Live For.wav

Peak level 97.7 %
Extraction speed 6.9 X
Track quality 100.0 %
Test CRC BD527679
Copy CRC BD527679
Cannot be verified as accurate (confidence 1) [FFC935D0], AccurateRip returned [CB483A11] (AR v2)
Copy OK

Track 8

Filename K:\Lossless Temp\Lynyrd Skynyrd\Lynyrd Skynyrd - Last Of A Dyin' Breed - 2012 (Special Edition, Roadrunner, 1686-17645)\08 - Lynyrd Skynyrd - Life's Twisted.wav

Peak level 97.7 %
Extraction speed 7.3 X
Track quality 100.0 %
Test CRC E376D1AC
Copy CRC E376D1AC
Cannot be verified as accurate (confidence 1) [C0FAA87E], AccurateRip returned [92A39070] (AR v2)
Copy OK

Track 9

Filename K:\Lossless Temp\Lynyrd Skynyrd\Lynyrd Skynyrd - Last Of A Dyin' Breed - 2012 (Special Edition, Roadrunner, 1686-17645)\09 - Lynyrd Skynyrd - Nothing Comes Easy.wav

Peak level 97.7 %
Extraction speed 7.4 X
Track quality 100.0 %
Test CRC 1F349A4D
Copy CRC 1F349A4D
Cannot be verified as accurate (confidence 1) [2CA8E49B], AccurateRip returned [3C1417B0] (AR v2)
Copy OK

Track 10

Filename K:\Lossless Temp\Lynyrd Skynyrd\Lynyrd Skynyrd - Last Of A Dyin' Breed - 2012 (Special Edition, Roadrunner, 1686-17645)\10 - Lynyrd Skynyrd - Honey Hole.wav

Peak level 97.7 %
Extraction speed 7.9 X
Track quality 100.0 %
Test CRC F3568CCB
Copy CRC F3568CCB
Cannot be verified as accurate (confidence 1) [665F377A], AccurateRip returned [5074965D] (AR v2)
Copy OK

Track 11

Filename K:\Lossless Temp\Lynyrd Skynyrd\Lynyrd Skynyrd - Last Of A Dyin' Breed - 2012 (Special Edition, Roadrunner, 1686-17645)\11 - Lynyrd Skynyrd - Start Livin' Life Again.wav

Peak level 97.7 %
Extraction speed 8.0 X
Track quality 100.0 %
Test CRC 1E7847E8
Copy CRC 1E7847E8
Cannot be verified as accurate (confidence 1) [718AFFC2], AccurateRip returned [11E1BFAB] (AR v2)
Copy OK

Track 12

Filename K:\Lossless Temp\Lynyrd Skynyrd\Lynyrd Skynyrd - Last Of A Dyin' Breed - 2012 (Special Edition, Roadrunner, 1686-17645)\12 - Lynyrd Skynyrd - Poor Man's Dream (Bonus Track).wav

Pre-gap length 0:00:03.35

Peak level 97.7 %
Extraction speed 8.3 X
Track quality 100.0 %
Test CRC FBB1FC58
Copy CRC FBB1FC58
Cannot be verified as accurate (confidence 1) [D389B06B], AccurateRip returned [2D16BE4A] (AR v2)
Copy OK

Track 13

Filename K:\Lossless Temp\Lynyrd Skynyrd\Lynyrd Skynyrd - Last Of A Dyin' Breed - 2012 (Special Edition, Roadrunner, 1686-17645)\13 - Lynyrd Skynyrd - Do It Up Right (Bonus Track).wav

Peak level 97.7 %
Extraction speed 8.4 X
Track quality 100.0 %
Test CRC EF149E4B
Copy CRC EF149E4B
Cannot be verified as accurate (confidence 1) [B510375B], AccurateRip returned [A15E1539] (AR v2)
Copy OK

Track 14

Filename K:\Lossless Temp\Lynyrd Skynyrd\Lynyrd Skynyrd - Last Of A Dyin' Breed - 2012 (Special Edition, Roadrunner, 1686-17645)\14 - Lynyrd Skynyrd - Sad Song (Bonus Track).wav

Peak level 97.7 %
Extraction speed 8.7 X
Track quality 100.0 %
Test CRC B5F27839
Copy CRC B5F27839
Cannot be verified as accurate (confidence 1) [97351F01], AccurateRip returned [C452A44F] (AR v2)
Copy OK

Track 15

Filename K:\Lossless Temp\Lynyrd Skynyrd\Lynyrd Skynyrd - Last Of A Dyin' Breed - 2012 (Special Edition, Roadrunner, 1686-17645)\15 - Lynyrd Skynyrd - Low Down Dirty (Bonus Track).wav

Peak level 97.7 %
Extraction speed 8.5 X
Track quality 100.0 %
Test CRC 1AD7537B
Copy CRC 1AD7537B
Cannot be verified as accurate (confidence 1) [83EAE910], AccurateRip returned [7A0B76C2] (AR v2)
Copy OK


No tracks could be verified as accurate
You may have a different pressing from the one(s) in the database

No errors occurred

End of status report

==== Log checksum E11828B0C870FC6FE494D6B0DC7D0B4C1A67C1F9A53C85F4B19219F6795CB169 ====

foobar2000 1.2 / Dynamic Range Meter 1.1.1
log date: 2016-05-12 17:42:12

––––––––––––––––––––––––––––––––––––––––
Analyzed: Lynyrd Skynyrd / Last Of A Dyin' Breed {Special Edition}
––––––––––––––––––––––––––––––––––––––––

DR Peak RMS Duration Track
––––––––––––––––––––––––––––––––––––––––
DR7 -0.20 dB -7.82 dB 3:52 01-Last Of A Dyin' Breed
DR7 -0.20 dB -7.92 dB 3:46 02-One Day At A Time
DR6 -0.20 dB -7.63 dB 3:41 03-Homegrown
DR7 -0.20 dB -8.72 dB 5:26 04-Ready To Fly
DR6 -0.20 dB -8.10 dB 2:58 05-Mississippi Blood
DR6 -0.20 dB -6.67 dB 3:07 06-Good Teacher
DR7 -0.20 dB -8.62 dB 4:29 07-Something To Live For
DR6 -0.20 dB -7.66 dB 4:34 08-Life's Twisted
DR7 -0.20 dB -7.58 dB 4:13 09-Nothing Comes Easy
DR6 -0.20 dB -8.22 dB 4:35 10-Honey Hole
DR8 -0.20 dB -10.05 dB 4:27 11-Start Livin' Life Again
DR8 -0.20 dB -8.85 dB 4:08 12-Poor Man's Dream (Bonus Track)
DR6 -0.20 dB -7.39 dB 3:57 13-Do It Up Right (Bonus Track)
DR7 -0.20 dB -8.13 dB 4:01 14-Sad Song (Bonus Track)
DR7 -0.20 dB -7.88 dB 3:14 15-Low Down Dirty (Bonus Track)
––––––––––––––––––––––––––––––––––––––––

Number of tracks: 15
Official DR value: DR7

Samplerate: 44100 Hz
Channels: 2
Bits per sample: 16
Bitrate: 1006 kbps
Codec: FLAC
================================================================================

Lynyrd Skynyrd - Last Of A Dyin' Breed (2012) Special Edition [Re-Up]

Lynyrd Skynyrd - Last Of A Dyin' Breed (2012) Special Edition [Re-Up]