Subcategories

Lethe - Lethe (1981)

Posted By: v3122
Lethe - Lethe (1981)

Lethe - Lethe (1981)
EAC | Flac(Image) + Cue + Log & MP3 CBR 320Kbps
2016 | Paisley Press, PP 116 | ~ 205 or 83 Mb | Scans(jpg) -> 105 Mb
Progressive Rock / Symphonic Prog

After the break up of the band Mirror after only one album (1976's Daybreak) and intensive touring of Holland, three of the core members of that band - Philip de Goey, Kees Walravens and Johan Saanen - formed Lethe in 1978. In addition to de Goey on piano, oboe and flute, Walravens on guitar, and Saanen on bass guitar, Lethe also featured Hans Lambers on drums, percussion, xylophone, vibraphone and strings, and Thuur Feyen on organ, piano and strings. Like Mirror, Lethe too was to be short lived. The band recorded only one self-titled album that was released in 1981. The album consists of four lengthy instrumental tracks whose sound has been compared to that of Camel.

Saanen, Walravens, and Fransen has since played together in a cover band called Looking For Clues. De Goey is active in a large number of musical projects.

~ Progarchives
Lethe - Lethe (1981):

Lethe - Lethe (1981)

Tracklist:

01. Lethe [06:04.013]
02. Avebury Circle [09:46.613]
03. Cold In Fingers [09:42.360]
04. Le Tombeau II [09:27.693]

Musicians:

Kees Walravens — guitar
Johan Saanen — bass
Thuur Feyen — organ, piano, strings
Philip De Goey — piano, oboe, flute
Hans Lambers — drums, percussion, xylophone, vibraphone, strings


Exact Audio Copy V1.1 from 23. June 2015

Отчёт EAC об извлечении, выполненном 10. апреля 2016, 9:34

LETHE / Lethe

Дисковод: TSSTcorpCDDVDW SH-224DB Adapter: 1 ID: 1

Режим чтения : Достоверность
Использование точного потока : Да
Отключение кэша аудио : Да
Использование указателей C2 : Нет

Коррекция смещения при чтении : 6
Способность читать области Lead-in и Lead-out : Нет
Заполнение пропущенных сэмплов тишиной : Да
Удаление блоков с тишиной в начале и конце : Нет
При вычислениях CRC использовались нулевые сэмплы : Да
Интерфейс : Встроенный Win32-интерфейс для Win NT/2000

Выходной формат : Внутренние WAV-операции
Формат сэмплов : 44.100 Гц; 16 бит; стерео


TOC извлечённого CD

Трек | Старт | Длительность | Начальный сектор | Конечный сектор
––––––––––––––––––––––––––––––––––-
1 | 0:00.00 | 6:10.01 | 0 | 27750
2 | 6:10.01 | 9:52.47 | 27751 | 72197
3 | 16:02.48 | 9:48.28 | 72198 | 116325
4 | 25:51.01 | 9:27.52 | 116326 | 158902


Характеристики диапазона извлечения и сообщения об ошибках

Выбранный диапазон

Имя файла D:\TEMP\LETHE - 1981 - Lethe [2016 Paisley Press rem. edition, PP 116].wav

Пиковый уровень 96.6 %
Скорость извлечения 2.7 X
Качество диапазона 100.0 %
CRC теста 21001DF0
CRC копии 21001DF0
Копирование… OK

Ошибок не произошло


AccurateRip: сводка

Трек 1 отсутствует в базе данных
Трек 2 отсутствует в базе данных
Трек 3 отсутствует в базе данных
Трек 4 отсутствует в базе данных

Ни одного трека нет в базе AccurateRip

Конец отчёта

==== Контрольная сумма отчёта F0193F90170051B72AD5BC9B8FD588D58D4A0CFECE7CA4EFDC68A2B6FB97E301 ====

foobar2000 1.2.9 / Dynamic Range Meter 1.1.1
log date: 2016-04-10 18:20:37

––––––––––––––––––––––––––––––––––––––––
Analyzed: LETHE / Lethe
––––––––––––––––––––––––––––––––––––––––

DR Peak RMS Duration Track
––––––––––––––––––––––––––––––––––––––––
DR11 -8.28 dB -23.35 dB 6:10 01-Lethe
DR12 -0.30 dB -15.61 dB 9:53 02-Avebury Circle
DR14 -0.30 dB -17.57 dB 9:48 03-Cold In Fingers
DR12 -0.30 dB -15.14 dB 9:28 04-Le Tombeau II
––––––––––––––––––––––––––––––––––––––––

Number of tracks: 4
Official DR value: DR13

Samplerate: 44100 Hz
Channels: 2
Bits per sample: 16
Bitrate: 788 kbps
Codec: FLAC

[CUETools log; Date: 10.04.2016 18:17:58; Version: 2.1.4]
[CTDB TOCID: LtMDFUdqvootNVTfXUyJ2r_eaU0-] disk not present in database.
[AccurateRip ID: 0005b98a-0017600c-2f084604] disk not present in database.

Track Peak [ CRC32 ] [W/O NULL] [ LOG ]
– 96,6 [21001DF0] [339DE13E] CRC32
01 38,5 [189018D5] [57B5EED8]
02 96,6 [03EF75B0] [4BEA411A]
03 96,5 [B307FD55] [42BB1708]
04 96,6 [1B7BF75F] [3825D508]

Lethe - Lethe (1981)

All thanks go to spAceLover

Download Lethe - Lethe (1981):