Subcategories

Les Rita Mitsouko - Re (1990)

Posted By: penseur
Les Rita Mitsouko - Re (1990)

Les Rita Mitsouko - Re (1990)
EAC Rip | APE (tracks), CUE, LOG - 414 Mb | MP3 320 Kbps VBR - 127 Mb | artworks - 45,5 Mb
Genres: Electronic - Styles: Leftfield, House, Synth-pop, Club/Dance, French Rock, Traditional | Released: October 10, 1990 | RAR 10% Rec. | mirrors: FP.com/ RS.com

"Re is a remix album by French pop rock group Les Rita Mitsouko. It was released in 1990 and includes the singles "Hip Kit" and "Don't Forget the Nite". The album is compilation of new remixes, 12" single remixes and a new re-recording.
Receiving mixed reviews the album was originally released as an Double-LP, 5x12" single, Cassette and CD in October 1990. The artwork was designed by Judith E. Christ with photography by Stephane Sednaoui. Catherine Ringer and Fred Chichin pose in clothing designed by Jean-Paul Gaultier…" (wikipedia)

Label: Virgin
Catalog #: UK: CDV 2637 - F: 30328 - D: 353 834
(see the file: 01122012_LRMre_others for many more informations)

Official website
Official myspace website

samples:
amazon.fr

Les Rita Mitsouko - Re (1990)

Tracklisting:

1 Hip Kit 07:12
2 Nuit D'Ivresse 06:35
3 Le Petit Train 04:57
4 Tongue Dance 05:05
5 Andy Bassapella 06:08
6 Don't Forget The Nite 04:45
7 C'est Comme Ca 07:25
8 Andy Live 06:52
9 Marcia Baila 05:56
10 Jalousie 06:00
11 Singing In The Shower 05:46
With The Sparks

Lenght: 66:49 mn

Les Rita Mitsouko - Re (1990)


Exact Audio Copy V1.0 beta 3 from 29. August 2011

EAC extraction logfile from 1. December 2012, 16:41

Les Rita Mitsouko / RE

Used drive : HL-DT-STBDDVDRW CH08LS10 Adapter: 3 ID: 1

Read mode : Secure
Utilize accurate stream : Yes
Defeat audio cache : Yes
Make use of C2 pointers : No

Read offset correction : 667
Overread into Lead-In and Lead-Out : No
Fill up missing offset samples with silence : Yes
Delete leading and trailing silent blocks : No
Null samples used in CRC calculations : Yes
Used interface : Native Win32 interface for Win NT & 2000
Gap handling : Appended to previous track

Used output format : Internal WAV Routines
Sample format : 44.100 Hz; 16 Bit; Stereo


TOC of the extracted CD

Track | Start | Length | Start sector | End sector
––––––––––––––––––––––––––––-
1 | 0:00.32 | 7:12.68 | 32 | 32499
2 | 7:13.25 | 6:36.25 | 32500 | 62224
3 | 13:49.50 | 4:57.35 | 62225 | 84534
4 | 18:47.10 | 5:07.25 | 84535 | 107584
5 | 23:54.35 | 6:08.20 | 107585 | 135204
6 | 30:02.55 | 4:46.25 | 135205 | 156679
7 | 34:49.05 | 7:26.55 | 156680 | 190184
8 | 42:15.60 | 6:53.65 | 190185 | 221224
9 | 49:09.50 | 5:56.57 | 221225 | 247981
10 | 55:06.32 | 6:01.55 | 247982 | 275111
11 | 61:08.12 | 5:47.25 | 275112 | 301161


Track 1

Filename G:\LES RITA MITSOUKO Re\lossless\01 Hip Kit (remix by William Orbit).wav

Pre-gap length 0:00:02.42

Peak level 89.4 %
Extraction speed 1.2 X
Track quality 99.9 %
Test CRC 6A242D16
Copy CRC 6A242D16
Accurately ripped (confidence 4) [FB580600] (AR v2)
Copy OK

Track 2

Filename G:\LES RITA MITSOUKO Re\lossless\02 Nuit D'ivresse (remix by Fat Freddy).wav

Peak level 93.7 %
Extraction speed 1.5 X
Track quality 100.0 %
Test CRC 0C369536
Copy CRC 0C369536
Accurately ripped (confidence 4) [034B0786] (AR v2)
Copy OK

Track 3

Filename G:\LES RITA MITSOUKO Re\lossless\03 Le Petit Train (remix by Fat Freddy).wav

Pre-gap length 0:00:01.10

Peak level 100.0 %
Extraction speed 1.4 X
Track quality 99.9 %
Test CRC 315B8ADC
Copy CRC 315B8ADC
Accurately ripped (confidence 4) [547AC4D8] (AR v2)
Copy OK

Track 4

Filename G:\LES RITA MITSOUKO Re\lossless\04 Tongue Dance (remix by William Orbit and Mark Moore).wav

Peak level 96.5 %
Extraction speed 1.7 X
Track quality 100.0 %
Test CRC 279F4DDE
Copy CRC 279F4DDE
Accurately ripped (confidence 4) [AD494FE0] (AR v2)
Copy OK

Track 5

Filename G:\LES RITA MITSOUKO Re\lossless\05 Andy Bassapella (remix by Jesse Johnson).wav

Pre-gap length 0:00:01.26

Peak level 79.8 %
Extraction speed 1.9 X
Track quality 100.0 %
Test CRC 8353C34D
Copy CRC 8353C34D
Accurately ripped (confidence 4) [A8B7BC2F] (AR v2)
Copy OK

Track 6

Filename G:\LES RITA MITSOUKO Re\lossless\06 Don't Forget The Nite (remix by Tony Visconti and Les Rita Mitsouko).wav

Peak level 75.9 %
Extraction speed 1.9 X
Track quality 100.0 %
Test CRC 6A670F6D
Copy CRC 6A670F6D
Accurately ripped (confidence 4) [19F2B3EB] (AR v2)
Copy OK

Track 7

Filename G:\LES RITA MITSOUKO Re\lossless\07 C'est Comme ca (remix by Tony Visconti and Les Rita Mitsouko).wav

Peak level 100.0 %
Extraction speed 2.1 X
Track quality 100.0 %
Test CRC A5AAC496
Copy CRC A5AAC496
Accurately ripped (confidence 4) [9FDA8EA0] (AR v2)
Copy OK

Track 8

Filename G:\LES RITA MITSOUKO Re\lossless\08 Andy Live (remix by Fat Freddy).wav

Pre-gap length 0:00:01.06

Peak level 86.2 %
Extraction speed 2.3 X
Track quality 100.0 %
Test CRC 07DB75F5
Copy CRC 07DB75F5
Accurately ripped (confidence 4) [2F1F79DC] (AR v2)
Copy OK

Track 9

Filename G:\LES RITA MITSOUKO Re\lossless\09 Marcia Baila (remix by Tony Visconti and Les Rita Mitsouko).wav

Pre-gap length 0:00:00.97

Peak level 92.5 %
Extraction speed 2.4 X
Track quality 100.0 %
Test CRC 659A62A5
Copy CRC 659A62A5
Accurately ripped (confidence 4) [A1D80F56] (AR v2)
Copy OK

Track 10

Filename G:\LES RITA MITSOUKO Re\lossless\10 Jalousie (remix by Dee Nasty and Fat Freddy).wav

Pre-gap length 0:00:00.96

Peak level 100.0 %
Extraction speed 2.5 X
Track quality 100.0 %
Test CRC 904CECAB
Copy CRC 904CECAB
Accurately ripped (confidence 4) [DAFE37A0] (AR v2)
Copy OK

Track 11

Filename G:\LES RITA MITSOUKO Re\lossless\11 Singing in the Shower (remix by William Orbit).wav

Pre-gap length 0:00:00.42

Peak level 81.4 %
Extraction speed 2.5 X
Track quality 100.0 %
Test CRC 44C54C13
Copy CRC 44C54C13
Accurately ripped (confidence 4) [B41CDEFF] (AR v2)
Copy OK


All tracks accurately ripped

No errors occurred

End of status report

==== Log checksum F1F305D0FF6D11C0C5D5B8F9D8EDF451FF4324E2D360D7516A468A3258B4BD04 ====


Notes from this work:
- HQ quality of compressed files
(Best compression, authenticity verification, restored registering and tests of files)
RAR Recovery Record: 10% recovery
- HQ artworks files
- MP3 fully tagged

Plz: All requested deleted files by PM. For all the rest here.
NO MIRRORS PLEASE. Thank you very much.