Laura Nyro - Stoned Soul Picnic: The Best Of Laura Nyro [2CD] (1997)

Posted By: JET 1
Laura Nyro - Stoned Soul Picnic: The Best Of Laura Nyro [2CD] (1997)

Laura Nyro - Stoned Soul Picnic: The Best Of Laura Nyro [2CD] (1997)
X Lossless Decoder | FLAC (Tracks) +CUE, LOG | 758 MB | Covers Included
Genre: Vocal, Pop Jazz | Label: Columbia | Catalog Number: CK 64703

Double-CD, career-spanning retrospective that offers little in the way of surprises: it's a tastefully selected overview of her career highlights, heaviest (and justifiably so) on her late '60s albums. There's the inevitable feeling of letdown as disc two progresses; her post-early '70s material is far less interesting than her earliest work, even if it's inoffensive. All of the first five albums (through 1971's Gonna Take a Miracle) are now on CD, so this is most suitable for the fan who isn't passionate enough to be a completist. Includes a couple of previously unreleased live tracks from the 1990s; the version of "Sweet Blindness," unfortunately, is not the original late-'60s recording, but from a late-'70s live album.

X Lossless Decoder version 20141129a (148.2)

XLD extraction logfile from 2016-01-04 10:17:12 -0800

Laura Nyro / Stoned Soul Picnic - The Best of Laura Nyro (Disc 1)

Used drive : HL-DT-ST DVDRW GA32N (revision KE06)
Media type : Pressed CD

Ripper mode : XLD Secure Ripper
Disable audio cache : OK for the drive with a cache less than 1375KiB
Make use of C2 pointers : NO
Read offset correction : 103
Max retry count : 100
Gap status : Analyzed, Appended (except HTOA)

TOC of the extracted CD
Track | Start | Length | Start sector | End sector
––––––––––––––––––––––––––––-
1 | 00:00:00 | 02:55:07 | 0 | 13131
2 | 02:55:07 | 02:21:43 | 13132 | 23749
3 | 05:16:50 | 03:20:15 | 23750 | 38764
4 | 08:36:65 | 02:46:52 | 38765 | 51266
5 | 11:23:42 | 02:40:38 | 51267 | 63304
6 | 14:04:05 | 02:47:35 | 63305 | 75864
7 | 16:51:40 | 03:57:57 | 75865 | 93696
8 | 20:49:22 | 03:50:28 | 93697 | 110974
9 | 24:39:50 | 03:25:42 | 110975 | 126391
10 | 28:05:17 | 04:21:38 | 126392 | 146004
11 | 32:26:55 | 02:51:10 | 146005 | 158839
12 | 35:17:65 | 03:15:67 | 158840 | 173531
13 | 38:33:57 | 04:44:73 | 173532 | 194904
14 | 43:18:55 | 05:38:42 | 194905 | 220296
15 | 48:57:22 | 02:27:45 | 220297 | 231366
16 | 51:24:67 | 03:37:10 | 231367 | 247651
17 | 55:02:02 | 05:37:43 | 247652 | 272969
18 | 60:39:45 | 04:50:00 | 272970 | 294719
19 | 65:29:45 | 02:41:60 | 294720 | 306854

List of alternate offset correction values
# | Absolute | Relative | Confidence
–––––––––––––––––––––
1 | -896 | -999 | 13
2 | -1318 | -1421 | 13
3 | -955 | -1058 | 11
4 | -76 | -179 | 5
5 | -236 | -339 | 2
6 | 8 | -95 | 2

AccurateRip Summary (DiscID: 002b6683-026e7d2e-090ffb13)
Track 01 : OK (v1+v2, confidence 7/51)
Track 02 : OK (v1+v2, confidence 7/51)
Track 03 : OK (v1+v2, confidence 7/52)
Track 04 : OK (v1+v2, confidence 7/52)
Track 05 : OK (v1+v2, confidence 7/52)
Track 06 : OK (v1+v2, confidence 7/52)
Track 07 : OK (v1+v2, confidence 7/51)
Track 08 : OK (v1+v2, confidence 7/52)
Track 09 : OK (v1+v2, confidence 6/51)
Track 10 : OK (v1+v2, confidence 7/52)
Track 11 : OK (v1+v2, confidence 6/51)
Track 12 : OK (v1+v2, confidence 7/52)
Track 13 : OK (v1+v2, confidence 6/50)
Track 14 : OK (v1+v2, confidence 6/51)
Track 15 : OK (v1+v2, confidence 6/51)
Track 16 : OK (v1+v2, confidence 7/51)
Track 17 : OK (v1+v2, confidence 7/51)
Track 18 : OK (v1+v2, confidence 6/49)
Track 19 : OK (v1+v2, confidence 6/49)
->All tracks accurately ripped.

All Tracks
Album gain : -5.50 dB
Peak : 0.999969
Statistics
Read error : 0
Jitter error (maybe fixed) : 0
Retry sector count : 0
Damaged sector count : 0

Track 01
Filename : /Volumes/HD5/ Prepping to upload/ Music/Laura Nyro - Stoned Soul Picnic - The Best of Laura Nyro (1997) [FLAC] {2disc set}/CD1/01 - Wedding Bell Blues.flac
Pre-gap length : 00:02:00

Track gain : -6.52 dB
Peak : 0.999969
CRC32 hash (test run) : 187533ED
CRC32 hash : 187533ED
CRC32 hash (skip zero) : 59E028CF
AccurateRip v1 signature : D61242EB
AccurateRip v2 signature : 82315727
->Accurately ripped (v1+v2, confidence 3+4/51)
Statistics
Read error : 0
Jitter error (maybe fixed) : 0
Retry sector count : 0
Damaged sector count : 0

Track 02
Filename : /Volumes/HD5/ Prepping to upload/ Music/Laura Nyro - Stoned Soul Picnic - The Best of Laura Nyro (1997) [FLAC] {2disc set}/CD1/02 - Blowin' Away.flac
Pre-gap length : 00:01:30

Track gain : -5.81 dB
Peak : 0.999969
CRC32 hash (test run) : AA43A5AA
CRC32 hash : AA43A5AA
CRC32 hash (skip zero) : 808FD998
AccurateRip v1 signature : 47FBE812
AccurateRip v2 signature : 7DE4F938
->Accurately ripped (v1+v2, confidence 3+4/51)
Statistics
Read error : 0
Jitter error (maybe fixed) : 0
Retry sector count : 0
Damaged sector count : 0

Track 03
Filename : /Volumes/HD5/ Prepping to upload/ Music/Laura Nyro - Stoned Soul Picnic - The Best of Laura Nyro (1997) [FLAC] {2disc set}/CD1/03 - Billiy's Blues.flac
Pre-gap length : 00:02:23

Track gain : -6.05 dB
Peak : 0.999969
CRC32 hash (test run) : 24C1AB09
CRC32 hash : 24C1AB09
CRC32 hash (skip zero) : 8350C425
AccurateRip v1 signature : D5C28F3B
AccurateRip v2 signature : D63D5C86
->Accurately ripped (v1+v2, confidence 3+4/52)
Statistics
Read error : 0
Jitter error (maybe fixed) : 0
Retry sector count : 0
Damaged sector count : 0

Track 04
Filename : /Volumes/HD5/ Prepping to upload/ Music/Laura Nyro - Stoned Soul Picnic - The Best of Laura Nyro (1997) [FLAC] {2disc set}/CD1/04 - Stoney End.flac
Pre-gap length : 00:03:25

Track gain : -5.87 dB
Peak : 0.946167
CRC32 hash (test run) : CF7602D5
CRC32 hash : CF7602D5
CRC32 hash (skip zero) : E45AC132
AccurateRip v1 signature : 623CCFEA
AccurateRip v2 signature : 65317989
->Accurately ripped (v1+v2, confidence 3+4/52)
Statistics
Read error : 0
Jitter error (maybe fixed) : 0
Retry sector count : 0
Damaged sector count : 0

Track 05
Filename : /Volumes/HD5/ Prepping to upload/ Music/Laura Nyro - Stoned Soul Picnic - The Best of Laura Nyro (1997) [FLAC] {2disc set}/CD1/05 - And When I Die.flac
Pre-gap length : 00:01:65

Track gain : -6.24 dB
Peak : 0.942749
CRC32 hash (test run) : F5A64715
CRC32 hash : F5A64715
CRC32 hash (skip zero) : 9C5EAFBC
AccurateRip v1 signature : C559FD40
AccurateRip v2 signature : A2883B1A
->Accurately ripped (v1+v2, confidence 3+4/52)
Statistics
Read error : 0
Jitter error (maybe fixed) : 0
Retry sector count : 0
Damaged sector count : 0

Track 06
Filename : /Volumes/HD5/ Prepping to upload/ Music/Laura Nyro - Stoned Soul Picnic - The Best of Laura Nyro (1997) [FLAC] {2disc set}/CD1/06 - Lu.flac
Pre-gap length : 00:01:65

Track gain : -4.94 dB
Peak : 0.955688
CRC32 hash (test run) : 49069967
CRC32 hash : 49069967
CRC32 hash (skip zero) : FF9D88EE
AccurateRip v1 signature : 9ECDEC43
AccurateRip v2 signature : CF891848
->Accurately ripped (v1+v2, confidence 3+4/52)
Statistics
Read error : 0
Jitter error (maybe fixed) : 0
Retry sector count : 0
Damaged sector count : 0

Track 07
Filename : /Volumes/HD5/ Prepping to upload/ Music/Laura Nyro - Stoned Soul Picnic - The Best of Laura Nyro (1997) [FLAC] {2disc set}/CD1/07 - Eli's Comin'.flac
Pre-gap length : 00:02:50

Track gain : -5.45 dB
Peak : 0.881714
CRC32 hash (test run) : C4B51738
CRC32 hash : C4B51738
CRC32 hash (skip zero) : C050FD01
AccurateRip v1 signature : DDC295A7
AccurateRip v2 signature : C63F590E
->Accurately ripped (v1+v2, confidence 3+4/51)
Statistics
Read error : 0
Jitter error (maybe fixed) : 0
Retry sector count : 0
Damaged sector count : 0

Track 08
Filename : /Volumes/HD5/ Prepping to upload/ Music/Laura Nyro - Stoned Soul Picnic - The Best of Laura Nyro (1997) [FLAC] {2disc set}/CD1/08 - Stoned Soul Picnic.flac
Pre-gap length : 00:00:62

Track gain : -4.61 dB
Peak : 0.835266
CRC32 hash (test run) : 1198ABF1
CRC32 hash : 1198ABF1
CRC32 hash (skip zero) : FD9765B5
AccurateRip v1 signature : A3BDA757
AccurateRip v2 signature : 05443F7C
->Accurately ripped (v1+v2, confidence 3+4/52)
Statistics
Read error : 0
Jitter error (maybe fixed) : 0
Retry sector count : 0
Damaged sector count : 0

Track 09
Filename : /Volumes/HD5/ Prepping to upload/ Music/Laura Nyro - Stoned Soul Picnic - The Best of Laura Nyro (1997) [FLAC] {2disc set}/CD1/09 - Timer.flac
Pre-gap length : 00:02:50

Track gain : -3.98 dB
Peak : 0.819275
CRC32 hash (test run) : 6F5272C6
CRC32 hash : 6F5272C6
CRC32 hash (skip zero) : 614EE728
AccurateRip v1 signature : 831C776B
AccurateRip v2 signature : 42952BAF
->Accurately ripped (v1+v2, confidence 2+4/51)
Statistics
Read error : 0
Jitter error (maybe fixed) : 0
Retry sector count : 0
Damaged sector count : 0

Track 10
Filename : /Volumes/HD5/ Prepping to upload/ Music/Laura Nyro - Stoned Soul Picnic - The Best of Laura Nyro (1997) [FLAC] {2disc set}/CD1/10 - Emmie.flac
Pre-gap length : 00:02:12

Track gain : -3.89 dB
Peak : 0.770355
CRC32 hash (test run) : 96F50AB1
CRC32 hash : 96F50AB1
CRC32 hash (skip zero) : 7F1B8D63
AccurateRip v1 signature : B8A47469
AccurateRip v2 signature : 5A74080B
->Accurately ripped (v1+v2, confidence 3+4/52)
Statistics
Read error : 0
Jitter error (maybe fixed) : 0
Retry sector count : 0
Damaged sector count : 0

Track 11
Filename : /Volumes/HD5/ Prepping to upload/ Music/Laura Nyro - Stoned Soul Picnic - The Best of Laura Nyro (1997) [FLAC] {2disc set}/CD1/11 - The Confession.flac
Pre-gap length : 00:02:10

Track gain : -4.72 dB
Peak : 0.999969
CRC32 hash (test run) : 031ADA84
CRC32 hash : 031ADA84
CRC32 hash (skip zero) : 82D262F0
AccurateRip v1 signature : B9444D99
AccurateRip v2 signature : D02C4372
->Accurately ripped (v1+v2, confidence 2+4/51)
Statistics
Read error : 0
Jitter error (maybe fixed) : 0
Retry sector count : 0
Damaged sector count : 0

Track 12
Filename : /Volumes/HD5/ Prepping to upload/ Music/Laura Nyro - Stoned Soul Picnic - The Best of Laura Nyro (1997) [FLAC] {2disc set}/CD1/12 - Capt. St. Lucifer.flac
Pre-gap length : 00:02:38

Track gain : -4.51 dB
Peak : 0.793427
CRC32 hash (test run) : FA6A12DB
CRC32 hash : FA6A12DB
CRC32 hash (skip zero) : 9E828212
AccurateRip v1 signature : BB998270
AccurateRip v2 signature : AFE01BCA
->Accurately ripped (v1+v2, confidence 3+4/52)
Statistics
Read error : 0
Jitter error (maybe fixed) : 0
Retry sector count : 0
Damaged sector count : 0

Track 13
Filename : /Volumes/HD5/ Prepping to upload/ Music/Laura Nyro - Stoned Soul Picnic - The Best of Laura Nyro (1997) [FLAC] {2disc set}/CD1/13 - Gibson Street.flac
Pre-gap length : 00:03:10

Track gain : -5.46 dB
Peak : 0.999969
CRC32 hash (test run) : 03D52AB9
CRC32 hash : 03D52AB9
CRC32 hash (skip zero) : A1E472E6
AccurateRip v1 signature : 89CFF766
AccurateRip v2 signature : A77AABBA
->Accurately ripped (v1+v2, confidence 2+4/50)
Statistics
Read error : 0
Jitter error (maybe fixed) : 0
Retry sector count : 0
Damaged sector count : 0

Track 14
Filename : /Volumes/HD5/ Prepping to upload/ Music/Laura Nyro - Stoned Soul Picnic - The Best of Laura Nyro (1997) [FLAC] {2disc set}/CD1/14 - New York Tendaberry.flac
Pre-gap length : 00:03:30

Track gain : -4.09 dB
Peak : 0.835541
CRC32 hash (test run) : 4F3D4972
CRC32 hash : 4F3D4972
CRC32 hash (skip zero) : EB943474
AccurateRip v1 signature : 0AA6F444
AccurateRip v2 signature : AD575925
->Accurately ripped (v1+v2, confidence 2+4/51)
Statistics
Read error : 0
Jitter error (maybe fixed) : 0
Retry sector count : 0
Damaged sector count : 0

Track 15
Filename : /Volumes/HD5/ Prepping to upload/ Music/Laura Nyro - Stoned Soul Picnic - The Best of Laura Nyro (1997) [FLAC] {2disc set}/CD1/15 - Save The Country.flac
Pre-gap length : 00:05:17

Track gain : -5.34 dB
Peak : 0.974182
CRC32 hash (test run) : EE310EC9
CRC32 hash : EE310EC9
CRC32 hash (skip zero) : 4B6E23AF
AccurateRip v1 signature : 6A302F7E
AccurateRip v2 signature : 572B74A4
->Accurately ripped (v1+v2, confidence 2+4/51)
Statistics
Read error : 0
Jitter error (maybe fixed) : 0
Retry sector count : 0
Damaged sector count : 0

Track 16
Filename : /Volumes/HD5/ Prepping to upload/ Music/Laura Nyro - Stoned Soul Picnic - The Best of Laura Nyro (1997) [FLAC] {2disc set}/CD1/16 - Blackpatch.flac
Pre-gap length : 00:02:45

Track gain : -5.05 dB
Peak : 0.999939
CRC32 hash (test run) : F31B1433
CRC32 hash : F31B1433
CRC32 hash (skip zero) : 07787277
AccurateRip v1 signature : 2A5CE27B
AccurateRip v2 signature : B66D899E
->Accurately ripped (v1+v2, confidence 3+4/51)
Statistics
Read error : 0
Jitter error (maybe fixed) : 0
Retry sector count : 0
Damaged sector count : 0

Track 17
Filename : /Volumes/HD5/ Prepping to upload/ Music/Laura Nyro - Stoned Soul Picnic - The Best of Laura Nyro (1997) [FLAC] {2disc set}/CD1/17 - Upstairs By A Chinese Lamp.flac
Pre-gap length : 00:03:30

Track gain : -3.02 dB
Peak : 0.999939
CRC32 hash (test run) : BDA1B2B5
CRC32 hash : BDA1B2B5
CRC32 hash (skip zero) : 825D8E6F
AccurateRip v1 signature : 37C54992
AccurateRip v2 signature : 09A84DEF
->Accurately ripped (v1+v2, confidence 3+4/51)
Statistics
Read error : 0
Jitter error (maybe fixed) : 0
Retry sector count : 0
Damaged sector count : 0

Track 18
Filename : /Volumes/HD5/ Prepping to upload/ Music/Laura Nyro - Stoned Soul Picnic - The Best of Laura Nyro (1997) [FLAC] {2disc set}/CD1/18 - Beads Of Sweat.flac
Pre-gap length : 00:03:68

Track gain : -5.33 dB
Peak : 0.891357
CRC32 hash (test run) : 3A82C44E
CRC32 hash : 3A82C44E
CRC32 hash (skip zero) : 86886BAF
AccurateRip v1 signature : E575A1E2
AccurateRip v2 signature : 968EE8AC
->Accurately ripped (v1+v2, confidence 3+3/49)
Statistics
Read error : 0
Jitter error (maybe fixed) : 0
Retry sector count : 0
Damaged sector count : 0

Track 19
Filename : /Volumes/HD5/ Prepping to upload/ Music/Laura Nyro - Stoned Soul Picnic - The Best of Laura Nyro (1997) [FLAC] {2disc set}/CD1/19 - When I Was A Freeport And You Were The Main Drag.flac
Pre-gap length : 00:02:35

Track gain : -6.83 dB
Peak : 0.999969
CRC32 hash (test run) : E18D55BF
CRC32 hash : E18D55BF
CRC32 hash (skip zero) : DFB403B5
AccurateRip v1 signature : 1BB30CEB
AccurateRip v2 signature : 2C0F5A25
->Accurately ripped (v1+v2, confidence 2+4/49)
Statistics
Read error : 0
Jitter error (maybe fixed) : 0
Retry sector count : 0
Damaged sector count : 0

No errors occurred

End of status report

––-BEGIN XLD SIGNATURE––-
P3aEF9Ue18wHuhjmTTVHeoWBsHB3L2WYsdzmCojASBVTcIXy3PnPOHEUbLpJGPHp6tt3Tl_AULMvMh03dMlSSyV3VMte.4K2SecTF5C
––-END XLD SIGNATURE––-


X Lossless Decoder version 20141129a (148.2)

XLD extraction logfile from 2016-01-04 10:38:34 -0800

Laura Nyro / Stoned Soul Picnic - The Best of Laura Nyro (disc 2)

Used drive : HL-DT-ST DVDRW GA32N (revision KE06)
Media type : Pressed CD

Ripper mode : XLD Secure Ripper
Disable audio cache : OK for the drive with a cache less than 1375KiB
Make use of C2 pointers : NO
Read offset correction : 103
Max retry count : 100
Gap status : Analyzed, Appended (except HTOA)

TOC of the extracted CD
Track | Start | Length | Start sector | End sector
––––––––––––––––––––––––––––-
1 | 00:00:00 | 01:50:40 | 0 | 8289
2 | 01:50:40 | 03:01:00 | 8290 | 21864
3 | 04:51:40 | 05:37:65 | 21865 | 47204
4 | 10:29:30 | 03:53:15 | 47205 | 64694
5 | 14:22:45 | 05:54:37 | 64695 | 91281
6 | 20:17:07 | 05:03:40 | 91282 | 114046
7 | 25:20:47 | 03:00:68 | 114047 | 127614
8 | 28:21:40 | 03:19:50 | 127615 | 142589
9 | 31:41:15 | 04:12:55 | 142590 | 161544
10 | 35:53:70 | 03:36:25 | 161545 | 177769
11 | 39:30:20 | 03:54:32 | 177770 | 195351
12 | 43:24:52 | 03:35:68 | 195352 | 211544
13 | 47:00:45 | 03:21:07 | 211545 | 226626
14 | 50:21:52 | 02:50:65 | 226627 | 239441
15 | 53:12:42 | 02:42:30 | 239442 | 251621

List of alternate offset correction values
# | Absolute | Relative | Confidence
–––––––––––––––––––––
1 | -942 | -1045 | 21
2 | -302 | -405 | 9
3 | -605 | -708 | 7
4 | -1745 | -1848 | 6
5 | 203 | 100 | 3
6 | -1039 | -1142 | 2

AccurateRip Summary (DiscID: 001fc2d4-0169a357-af0d1a0f)
Track 01 : OK (v1+v2, confidence 9/57)
Track 02 : OK (v1+v2, confidence 9/55)
Track 03 : OK (v1+v2, confidence 9/55)
Track 04 : OK (v1+v2, confidence 9/56)
Track 05 : OK (v1+v2, confidence 9/57)
Track 06 : OK (v1+v2, confidence 9/55)
Track 07 : OK (v1+v2, confidence 9/57)
Track 08 : OK (v1+v2, confidence 9/57)
Track 09 : OK (v1+v2, confidence 9/57)
Track 10 : OK (v1+v2, confidence 9/56)
Track 11 : OK (v1+v2, confidence 9/57)
Track 12 : OK (v1+v2, confidence 9/55)
Track 13 : OK (v1+v2, confidence 9/56)
Track 14 : OK (v1+v2, confidence 9/56)
Track 15 : OK (v1+v2, confidence 9/55)
->All tracks accurately ripped.

All Tracks
Album gain : -3.60 dB
Peak : 0.999939
Statistics
Read error : 0
Jitter error (maybe fixed) : 0
Retry sector count : 0
Damaged sector count : 0

Track 01
Filename : /Volumes/HD5/ Prepping to upload/ Music/Laura Nyro - Stoned Soul Picnic - The Best of Laura Nyro (1997) [FLAC] {2disc set}/CD2/01 - I Met Him On A Sunday.flac
Pre-gap length : 00:02:00

Track gain : -6.51 dB
Peak : 0.959686
CRC32 hash (test run) : 02889098
CRC32 hash : 02889098
CRC32 hash (skip zero) : 57F384FE
AccurateRip v1 signature : 8A246B20
AccurateRip v2 signature : EF205F09
->Accurately ripped (v1+v2, confidence 3+6/57)
Statistics
Read error : 0
Jitter error (maybe fixed) : 0
Retry sector count : 0
Damaged sector count : 0

Track 02
Filename : /Volumes/HD5/ Prepping to upload/ Music/Laura Nyro - Stoned Soul Picnic - The Best of Laura Nyro (1997) [FLAC] {2disc set}/CD2/02 - The Bells.flac
Pre-gap length : 00:00:03

Track gain : -6.22 dB
Peak : 0.999939
CRC32 hash (test run) : 001A737B
CRC32 hash : 001A737B
CRC32 hash (skip zero) : 959851B7
AccurateRip v1 signature : B96F4493
AccurateRip v2 signature : F358F3FA
->Accurately ripped (v1+v2, confidence 3+6/55)
Statistics
Read error : 0
Jitter error (maybe fixed) : 0
Retry sector count : 0
Damaged sector count : 0

Track 03
Filename : /Volumes/HD5/ Prepping to upload/ Music/Laura Nyro - Stoned Soul Picnic - The Best of Laura Nyro (1997) [FLAC] {2disc set}/CD2/03 - Smile.flac
Pre-gap length : 00:02:68

Track gain : -2.75 dB
Peak : 0.794312
CRC32 hash (test run) : C986FFB0
CRC32 hash : C986FFB0
CRC32 hash (skip zero) : DE0FD328
AccurateRip v1 signature : C1C1FD16
AccurateRip v2 signature : 1270E97E
->Accurately ripped (v1+v2, confidence 3+6/55)
Statistics
Read error : 0
Jitter error (maybe fixed) : 0
Retry sector count : 0
Damaged sector count : 0

Track 04
Filename : /Volumes/HD5/ Prepping to upload/ Music/Laura Nyro - Stoned Soul Picnic - The Best of Laura Nyro (1997) [FLAC] {2disc set}/CD2/04 - Sweet Blindness.flac
Pre-gap length : 00:02:73

Track gain : -3.53 dB
Peak : 0.673462
CRC32 hash (test run) : CE0AB724
CRC32 hash : CE0AB724
CRC32 hash (skip zero) : 1645E7AB
AccurateRip v1 signature : 8FCFFF68
AccurateRip v2 signature : C66D72D0
->Accurately ripped (v1+v2, confidence 3+6/56)
Statistics
Read error : 0
Jitter error (maybe fixed) : 0
Retry sector count : 0
Damaged sector count : 0

Track 05
Filename : /Volumes/HD5/ Prepping to upload/ Music/Laura Nyro - Stoned Soul Picnic - The Best of Laura Nyro (1997) [FLAC] {2disc set}/CD2/05 - Money.flac
Pre-gap length : 00:02:03

Track gain : -3.40 dB
Peak : 0.890869
CRC32 hash (test run) : F5A0DB25
CRC32 hash : F5A0DB25
CRC32 hash (skip zero) : C2B4E2FF
AccurateRip v1 signature : 24E1E909
AccurateRip v2 signature : AB46C5EB
->Accurately ripped (v1+v2, confidence 3+6/57)
Statistics
Read error : 0
Jitter error (maybe fixed) : 0
Retry sector count : 0
Damaged sector count : 0

Track 06
Filename : /Volumes/HD5/ Prepping to upload/ Music/Laura Nyro - Stoned Soul Picnic - The Best of Laura Nyro (1997) [FLAC] {2disc set}/CD2/06 - Mr. Blue.flac
Pre-gap length : 00:01:60

Track gain : -2.62 dB
Peak : 0.814911
CRC32 hash (test run) : 853BEF22
CRC32 hash : 853BEF22
CRC32 hash (skip zero) : 848FB067
AccurateRip v1 signature : 7B162AA8
AccurateRip v2 signature : 8A5EC327
->Accurately ripped (v1+v2, confidence 3+6/55)
Statistics
Read error : 0
Jitter error (maybe fixed) : 0
Retry sector count : 0
Damaged sector count : 0

Track 07
Filename : /Volumes/HD5/ Prepping to upload/ Music/Laura Nyro - Stoned Soul Picnic - The Best of Laura Nyro (1997) [FLAC] {2disc set}/CD2/07 - A Wilderness.flac
Pre-gap length : 00:03:05

Track gain : -3.35 dB
Peak : 0.975922
CRC32 hash (test run) : 97F8FD20
CRC32 hash : 97F8FD20
CRC32 hash (skip zero) : 2E059D9C
AccurateRip v1 signature : 6A0A371D
AccurateRip v2 signature : 1B4597EA
->Accurately ripped (v1+v2, confidence 3+6/57)
Statistics
Read error : 0
Jitter error (maybe fixed) : 0
Retry sector count : 0
Damaged sector count : 0

Track 08
Filename : /Volumes/HD5/ Prepping to upload/ Music/Laura Nyro - Stoned Soul Picnic - The Best of Laura Nyro (1997) [FLAC] {2disc set}/CD2/08 - Mother's Spiritual.flac
Pre-gap length : 00:03:20

Track gain : -2.37 dB
Peak : 0.770264
CRC32 hash (test run) : 48B91FF0
CRC32 hash : 48B91FF0
CRC32 hash (skip zero) : 03742886
AccurateRip v1 signature : BF32E206
AccurateRip v2 signature : B4522855
->Accurately ripped (v1+v2, confidence 3+6/57)
Statistics
Read error : 0
Jitter error (maybe fixed) : 0
Retry sector count : 0
Damaged sector count : 0

Track 09
Filename : /Volumes/HD5/ Prepping to upload/ Music/Laura Nyro - Stoned Soul Picnic - The Best of Laura Nyro (1997) [FLAC] {2disc set}/CD2/09 - A Woman Of The World.flac
Pre-gap length : 00:02:55

Track gain : -3.01 dB
Peak : 0.999908
CRC32 hash (test run) : 1495E26E
CRC32 hash : 1495E26E
CRC32 hash (skip zero) : 00935691
AccurateRip v1 signature : C4B2EB43
AccurateRip v2 signature : B9A80BCF
->Accurately ripped (v1+v2, confidence 3+6/57)
Statistics
Read error : 0
Jitter error (maybe fixed) : 0
Retry sector count : 0
Damaged sector count : 0

Track 10
Filename : /Volumes/HD5/ Prepping to upload/ Music/Laura Nyro - Stoned Soul Picnic - The Best of Laura Nyro (1997) [FLAC] {2disc set}/CD2/10 - Louise's Church.flac
Pre-gap length : 00:02:10

Track gain : -0.55 dB
Peak : 0.944153
CRC32 hash (test run) : 22A3E7B9
CRC32 hash : 22A3E7B9
CRC32 hash (skip zero) : BB2397DF
AccurateRip v1 signature : F32FACBC
AccurateRip v2 signature : FC48A6F6
->Accurately ripped (v1+v2, confidence 3+6/56)
Statistics
Read error : 0
Jitter error (maybe fixed) : 0
Retry sector count : 0
Damaged sector count : 0

Track 11
Filename : /Volumes/HD5/ Prepping to upload/ Music/Laura Nyro - Stoned Soul Picnic - The Best of Laura Nyro (1997) [FLAC] {2disc set}/CD2/11 - Broken Rainbow.flac
Pre-gap length : 00:03:33

Track gain : -1.67 dB
Peak : 0.916260
CRC32 hash (test run) : 95C47F28
CRC32 hash : 95C47F28
CRC32 hash (skip zero) : A328D9F1
AccurateRip v1 signature : 1252992D
AccurateRip v2 signature : D70C88E8
->Accurately ripped (v1+v2, confidence 3+6/57)
Statistics
Read error : 0
Jitter error (maybe fixed) : 0
Retry sector count : 0
Damaged sector count : 0

Track 12
Filename : /Volumes/HD5/ Prepping to upload/ Music/Laura Nyro - Stoned Soul Picnic - The Best of Laura Nyro (1997) [FLAC] {2disc set}/CD2/12 - To A Child.flac
Pre-gap length : 00:03:07

Track gain : -2.17 dB
Peak : 0.735687
CRC32 hash (test run) : 0FC2E5BF
CRC32 hash : 0FC2E5BF
CRC32 hash (skip zero) : 6B99FA78
AccurateRip v1 signature : 613754FF
AccurateRip v2 signature : 013E6FED
->Accurately ripped (v1+v2, confidence 3+6/55)
Statistics
Read error : 0
Jitter error (maybe fixed) : 0
Retry sector count : 0
Damaged sector count : 0

Track 13
Filename : /Volumes/HD5/ Prepping to upload/ Music/Laura Nyro - Stoned Soul Picnic - The Best of Laura Nyro (1997) [FLAC] {2disc set}/CD2/13 - Lite A Flame.flac
Pre-gap length : 00:03:68

Track gain : -0.87 dB
Peak : 0.780365
CRC32 hash (test run) : F9AF39C2
CRC32 hash : F9AF39C2
CRC32 hash (skip zero) : 858D4A6C
AccurateRip v1 signature : 1E497BE1
AccurateRip v2 signature : 0F82FEE4
->Accurately ripped (v1+v2, confidence 3+6/56)
Statistics
Read error : 0
Jitter error (maybe fixed) : 0
Retry sector count : 0
Damaged sector count : 0

Track 14
Filename : /Volumes/HD5/ Prepping to upload/ Music/Laura Nyro - Stoned Soul Picnic - The Best of Laura Nyro (1997) [FLAC] {2disc set}/CD2/14 - And When I Die.flac
Pre-gap length : 00:03:25

Track gain : -2.63 dB
Peak : 0.834930
CRC32 hash (test run) : 802D6FC3
CRC32 hash : 802D6FC3
CRC32 hash (skip zero) : 68DC817A
AccurateRip v1 signature : FA366435
AccurateRip v2 signature : D2164143
->Accurately ripped (v1+v2, confidence 3+6/56)
Statistics
Read error : 0
Jitter error (maybe fixed) : 0
Retry sector count : 0
Damaged sector count : 0

Track 15
Filename : /Volumes/HD5/ Prepping to upload/ Music/Laura Nyro - Stoned Soul Picnic - The Best of Laura Nyro (1997) [FLAC] {2disc set}/CD2/15 - Save the Country.flac
Pre-gap length : 00:02:52

Track gain : -3.68 dB
Peak : 0.984375
CRC32 hash (test run) : 58ABD8FF
CRC32 hash : 58ABD8FF
CRC32 hash (skip zero) : BBD7C918
AccurateRip v1 signature : 6E1A83C4
AccurateRip v2 signature : AD54FC64
->Accurately ripped (v1+v2, confidence 3+6/55)
Statistics
Read error : 0
Jitter error (maybe fixed) : 0
Retry sector count : 0
Damaged sector count : 0

No errors occurred

End of status report

––-BEGIN XLD SIGNATURE––-
HTtnp1FJSOTZS.5RtFGnjhGBq5C3TDl7SXv2EGn9yiO6CBxa7_cJaDlKHn473.qlgk.xPeYnH3pnd6I68lwjCJ9gxrlgTwO84yu2FEO
––-END XLD SIGNATURE––-


Tracklist:
CD1:
01 - Wedding Bell Blues
02 - Blowin' Away
03 - Billiy's Blues
04 - Stoney End
05 - And When I Die
06 - Lu
07 - Eli's Comin'
08 - Stoned Soul Picnic
09 - Timer
10 - Emmie
11 - The Confession
12 - Capt. St. Lucifer
13 - Gibson Street
14 - New York Tendaberry
15 - Save The Country
16 - Blackpatch
17 - Upstairs By A Chinese Lamp
18 - Beads Of Sweat
19 - When I Was A Freeport And You Were The Main Drag

CD2:
01 - I Met Him On A Sunday
02 - The Bells
03 - Smile
04 - Sweet Blindness
05 - Money
06 - Mr. Blue
07 - A Wilderness
08 - Mother's Spiritual
09 - A Woman Of The World
10 - Louise's Church
11 - Broken Rainbow
12 - To A Child
13 - Lite A Flame
14 - And When I Die
15 - Save the Country