Subcategories

Dinu Lipatti – The Master Pianist - 7 CD

Posted By: btz39
Dinu Lipatti – The Master Pianist - 7 CD

Dinu Lipatti – The Master Pianist
Stereo | EAC Rip | APE, IMG+CUE, LOG | Covers | RAR 3% Rec. | 7 CD | 1.2 GB
ASIN: B00166QKJW| September 2, 2008 | SPARS Code: ADD | Label: EMI Classics
Classical / Early 20th century (1900 - 1950)


Exact Audio Copy V0.99 prebeta 4 from 23. January 2008

Отчёт EAC об извлечении, выполненном 29. января 2009, 22:52

Lipatti-1 / Unknown Title

Дисковод: Optiarc DVD RW AD-7540A Adapter: 0 ID: 0

Режим чтения : Достоверность
Использование точного потока : Да
Отключение кэша аудио : Да
Использование указателей C2 : Нет

Коррекция смещения при чтении : 48
Способность читать области Lead-in и Lead-out : Нет
Заполнение пропущенных сэмплов тишиной : Да
Удаление блоков с тишиной в начале и конце : Нет
При вычислениях CRC использовались нулевые сэмплы : Да
Интерфейс : Установленный внешний ASPI-интерфейс

Выходной формат : Внутренние WAV-операции
Формат сэмплов : 44.100 Гц; 16 бит; стерео


TOC извлечённого CD

Трек | Старт | Длительность | Начальный сектор | Конечный сектор
––––––––––––––––––––––––––––––––––-
1 | 0:00.00 | 1:41.49 | 0 | 7623
2 | 1:41.49 | 2:37.74 | 7624 | 19472
3 | 4:19.48 | 2:48.18 | 19473 | 32090
4 | 7:07.66 | 5:06.66 | 32091 | 55106
5 | 12:14.57 | 2:27.72 | 55107 | 66203
6 | 14:42.54 | 2:22.06 | 66204 | 76859
7 | 17:04.60 | 4:05.05 | 76860 | 95239
8 | 21:09.65 | 2:57.53 | 95240 | 108567
9 | 24:07.43 | 3:25.41 | 108568 | 123983
10 | 27:33.09 | 3:08.23 | 123984 | 138106
11 | 30:41.32 | 4:08.25 | 138107 | 156731
12 | 34:49.57 | 6:24.28 | 156732 | 185559
13 | 41:14.10 | 2:57.47 | 185560 | 198881
14 | 44:11.57 | 2:40.07 | 198882 | 210888
15 | 46:51.64 | 3:16.35 | 210889 | 225623
16 | 50:08.24 | 5:44.62 | 225624 | 251485


Характеристики диапазона извлечения и сообщения об ошибках

Выбранный диапазон

Имя файла C:\Users\User\Desktop\Lipatti\CD 1\Lipatti - cd1.wav

Пиковый уровень 98.8 %
Качество диапазона 99.9 %
CRC копии 0C4FD198
Копирование… OK

Ошибок не произошло


AccurateRip: сводка

Трек 1 нет в базе данных
Трек 2 нет в базе данных
Трек 3 нет в базе данных
Трек 4 нет в базе данных
Трек 5 нет в базе данных
Трек 6 нет в базе данных
Трек 7 нет в базе данных
Трек 8 нет в базе данных
Трек 9 нет в базе данных
Трек 10 нет в базе данных
Трек 11 нет в базе данных
Трек 12 нет в базе данных
Трек 13 нет в базе данных
Трек 14 нет в базе данных
Трек 15 нет в базе данных
Трек 16 нет в базе данных

Ни одного трека нет в базе AccurateRip

Конец отчёта

Exact Audio Copy V0.99 prebeta 4 from 23. January 2008

Отчёт EAC об извлечении, выполненном 29. января 2009, 23:12

Lipatti 2 / Unknown Title

Дисковод: Optiarc DVD RW AD-7540A Adapter: 0 ID: 0

Режим чтения : Достоверность
Использование точного потока : Да
Отключение кэша аудио : Да
Использование указателей C2 : Нет

Коррекция смещения при чтении : 48
Способность читать области Lead-in и Lead-out : Нет
Заполнение пропущенных сэмплов тишиной : Да
Удаление блоков с тишиной в начале и конце : Нет
При вычислениях CRC использовались нулевые сэмплы : Да
Интерфейс : Установленный внешний ASPI-интерфейс

Выходной формат : Внутренние WAV-операции
Формат сэмплов : 44.100 Гц; 16 бит; стерео


TOC извлечённого CD

Трек | Старт | Длительность | Начальный сектор | Конечный сектор
––––––––––––––––––––––––––––––––––-
1 | 0:00.00 | 2:12.67 | 0 | 9966
2 | 2:12.67 | 3:42.11 | 9967 | 26627
3 | 5:55.03 | 1:46.13 | 26628 | 34590
4 | 7:41.16 | 4:26.51 | 34591 | 54591
5 | 12:07.67 | 3:08.00 | 54592 | 68691
6 | 15:15.67 | 1:57.12 | 68692 | 77478
7 | 17:13.04 | 3:34.22 | 77479 | 93550
8 | 20:47.26 | 2:45.31 | 93551 | 105956
9 | 23:32.57 | 4:50.63 | 105957 | 127769
10 | 28:23.45 | 2:55.07 | 127770 | 140901
11 | 31:18.52 | 2:45.22 | 140902 | 153298
12 | 34:03.74 | 2:33.62 | 153299 | 164835
13 | 36:37.61 | 4:38.09 | 164836 | 185694
14 | 41:15.70 | 4:32.29 | 185695 | 206123
15 | 45:48.24 | 4:24.22 | 206124 | 225945
16 | 50:12.46 | 8:27.61 | 225946 | 264031


Характеристики диапазона извлечения и сообщения об ошибках

Выбранный диапазон

Имя файла C:\Users\User\Desktop\Lipatti\CD2\Lipatti - cd2.wav

Пиковый уровень 100.0 %
Качество диапазона 99.9 %
CRC копии 10981DDB
Копирование… OK

Ошибок не произошло


AccurateRip: сводка

Трек 1 нет в базе данных
Трек 2 нет в базе данных
Трек 3 нет в базе данных
Трек 4 нет в базе данных
Трек 5 нет в базе данных
Трек 6 нет в базе данных
Трек 7 нет в базе данных
Трек 8 нет в базе данных
Трек 9 нет в базе данных
Трек 10 нет в базе данных
Трек 11 нет в базе данных
Трек 12 нет в базе данных
Трек 13 нет в базе данных
Трек 14 нет в базе данных
Трек 15 нет в базе данных
Трек 16 нет в базе данных

Ни одного трека нет в базе AccurateRip

Конец отчёта

Exact Audio Copy V0.99 prebeta 4 from 23. January 2008

Отчёт EAC об извлечении, выполненном 29. января 2009, 23:35

Lipatti -cd3 / Unknown Title

Дисковод: Optiarc DVD RW AD-7540A Adapter: 0 ID: 0

Режим чтения : Достоверность
Использование точного потока : Да
Отключение кэша аудио : Да
Использование указателей C2 : Нет

Коррекция смещения при чтении : 48
Способность читать области Lead-in и Lead-out : Нет
Заполнение пропущенных сэмплов тишиной : Да
Удаление блоков с тишиной в начале и конце : Нет
При вычислениях CRC использовались нулевые сэмплы : Да
Интерфейс : Установленный внешний ASPI-интерфейс

Выходной формат : Внутренние WAV-операции
Формат сэмплов : 44.100 Гц; 16 бит; стерео


TOC извлечённого CD

Трек | Старт | Длительность | Начальный сектор | Конечный сектор
––––––––––––––––––––––––––––––––––-
1 | 0:00.00 | 8:50.08 | 0 | 39757
2 | 8:50.08 | 2:32.08 | 39758 | 51165
3 | 11:22.16 | 8:57.04 | 51166 | 91444
4 | 20:19.20 | 4:56.36 | 91445 | 113680
5 | 25:15.56 | 6:13.63 | 113681 | 141718
6 | 31:29.44 | 5:42.30 | 141719 | 167398
7 | 37:11.74 | 8:16.32 | 167399 | 204630
8 | 45:28.31 | 5:04.13 | 204631 | 227443
9 | 50:32.44 | 7:44.18 | 227444 | 262261
10 | 58:16.62 | 7:18.32 | 262262 | 295143


Характеристики диапазона извлечения и сообщения об ошибках

Выбранный диапазон

Имя файла C:\Users\User\Desktop\Lipatti\CD3\Lipatti - cd3.wav

Пиковый уровень 100.0 %
Качество диапазона 99.9 %
CRC копии 19DCA76B
Копирование… OK

Ошибок не произошло


AccurateRip: сводка

Трек 1 нет в базе данных
Трек 2 нет в базе данных
Трек 3 нет в базе данных
Трек 4 нет в базе данных
Трек 5 нет в базе данных
Трек 6 нет в базе данных
Трек 7 нет в базе данных
Трек 8 нет в базе данных
Трек 9 нет в базе данных
Трек 10 нет в базе данных

Ни одного трека нет в базе AccurateRip

Конец отчёта

Exact Audio Copy V0.99 prebeta 4 from 23. January 2008

Отчёт EAC об извлечении, выполненном 29. января 2009, 23:59

Lipatti -cd4/ Unknown Title

Дисковод: Optiarc DVD RW AD-7540A Adapter: 0 ID: 0

Режим чтения : Достоверность
Использование точного потока : Да
Отключение кэша аудио : Да
Использование указателей C2 : Нет

Коррекция смещения при чтении : 48
Способность читать области Lead-in и Lead-out : Нет
Заполнение пропущенных сэмплов тишиной : Да
Удаление блоков с тишиной в начале и конце : Нет
При вычислениях CRC использовались нулевые сэмплы : Да
Интерфейс : Установленный внешний ASPI-интерфейс

Выходной формат : Внутренние WAV-операции
Формат сэмплов : 44.100 Гц; 16 бит; стерео


TOC извлечённого CD

Трек | Старт | Длительность | Начальный сектор | Конечный сектор
––––––––––––––––––––––––––––––––––-
1 | 0:00.00 | 14:24.23 | 0 | 64822
2 | 14:24.23 | 5:05.59 | 64823 | 87756
3 | 19:30.07 | 10:16.65 | 87757 | 134021
4 | 29:46.72 | 15:14.43 | 134022 | 202614
5 | 45:01.40 | 7:15.20 | 202615 | 235259
6 | 52:16.60 | 6:26.18 | 235260 | 264227


Характеристики диапазона извлечения и сообщения об ошибках

Выбранный диапазон

Имя файла C:\Users\User\Desktop\Lipatti\CD 4\Lipatti - cd4.wav

Пиковый уровень 98.8 %
Качество диапазона 99.9 %
CRC копии 1120CBD4
Копирование… OK

Ошибок не произошло


AccurateRip: сводка

Трек 1 нет в базе данных
Трек 2 нет в базе данных
Трек 3 нет в базе данных
Трек 4 нет в базе данных
Трек 5 нет в базе данных
Трек 6 нет в базе данных

Ни одного трека нет в базе AccurateRip

Конец отчёта

Exact Audio Copy V0.99 prebeta 4 from 23. January 2008

Отчёт EAC об извлечении, выполненном 30. января 2009, 0:31

Lipatti -cd5 / Unknown Title

Дисковод: Optiarc DVD RW AD-7540A Adapter: 0 ID: 0

Режим чтения : Достоверность
Использование точного потока : Да
Отключение кэша аудио : Да
Использование указателей C2 : Нет

Коррекция смещения при чтении : 48
Способность читать области Lead-in и Lead-out : Нет
Заполнение пропущенных сэмплов тишиной : Да
Удаление блоков с тишиной в начале и конце : Нет
При вычислениях CRC использовались нулевые сэмплы : Да
Интерфейс : Установленный внешний ASPI-интерфейс

Выходной формат : Внутренние WAV-операции
Формат сэмплов : 44.100 Гц; 16 бит; стерео


TOC извлечённого CD

Трек | Старт | Длительность | Начальный сектор | Конечный сектор
––––––––––––––––––––––––––––––––––-
1 | 0:00.00 | 12:31.48 | 0 | 56372
2 | 12:31.48 | 6:26.01 | 56373 | 85323
3 | 18:57.49 | 10:03.15 | 85324 | 130563
4 | 29:00.64 | 17:28.53 | 130564 | 209216
5 | 46:29.42 | 9:59.69 | 209217 | 254210
6 | 56:29.36 | 9:35.52 | 254211 | 297387
7 | 66:05.13 | 3:39.60 | 297388 | 313872
8 | 69:44.73 | 1:42.71 | 313873 | 321593


Характеристики диапазона извлечения и сообщения об ошибках

Выбранный диапазон

Имя файла C:\Users\User\Desktop\Lipatti\CD 5\Lipatti - cd5.wav

Пиковый уровень 98.8 %
Качество диапазона 99.9 %
CRC копии 4B599E82
Копирование… OK

Ошибок не произошло


AccurateRip: сводка

Трек 1 нет в базе данных
Трек 2 нет в базе данных
Трек 3 нет в базе данных
Трек 4 нет в базе данных
Трек 5 нет в базе данных
Трек 6 нет в базе данных
Трек 7 нет в базе данных
Трек 8 нет в базе данных

Ни одного трека нет в базе AccurateRip

Конец отчёта

Exact Audio Copy V0.99 prebeta 4 from 23. January 2008

Отчёт EAC об извлечении, выполненном 30. января 2009, 1:08

Lipatti -cd6 / Unknown Title

Дисковод: Optiarc DVD RW AD-7540A Adapter: 0 ID: 0

Режим чтения : Достоверность
Использование точного потока : Да
Отключение кэша аудио : Да
Использование указателей C2 : Нет

Коррекция смещения при чтении : 48
Способность читать области Lead-in и Lead-out : Нет
Заполнение пропущенных сэмплов тишиной : Да
Удаление блоков с тишиной в начале и конце : Нет
При вычислениях CRC использовались нулевые сэмплы : Да
Интерфейс : Установленный внешний ASPI-интерфейс

Выходной формат : Внутренние WAV-операции
Формат сэмплов : 44.100 Гц; 16 бит; стерео


TOC извлечённого CD

Трек | Старт | Длительность | Начальный сектор | Конечный сектор
––––––––––––––––––––––––––––––––––-
1 | 0:00.00 | 8:19.17 | 0 | 37441
2 | 8:19.17 | 7:59.55 | 37442 | 73421
3 | 16:18.72 | 7:46.71 | 73422 | 108442
4 | 24:05.68 | 5:59.68 | 108443 | 135435
5 | 30:05.61 | 5:07.71 | 135436 | 158531
6 | 35:13.57 | 4:18.46 | 158532 | 177927
7 | 39:32.28 | 4:17.27 | 177928 | 197229
8 | 43:49.55 | 7:48.05 | 197230 | 232334
9 | 51:37.60 | 10:27.09 | 232335 | 279368
10 | 62:04.69 | 7:20.19 | 279369 | 312387


Характеристики диапазона извлечения и сообщения об ошибках

Выбранный диапазон

Имя файла C:\Users\User\Desktop\Lipatti\CD 6\Lipatti - cd6.wav

Пиковый уровень 78.4 %
Качество диапазона 99.9 %
CRC копии 73CEBB52
Копирование… OK

Ошибок не произошло


AccurateRip: сводка

Трек 1 нет в базе данных
Трек 2 нет в базе данных
Трек 3 нет в базе данных
Трек 4 нет в базе данных
Трек 5 нет в базе данных
Трек 6 нет в базе данных
Трек 7 нет в базе данных
Трек 8 нет в базе данных
Трек 9 нет в базе данных
Трек 10 нет в базе данных

Ни одного трека нет в базе AccurateRip

Конец отчёта

Exact Audio Copy V0.99 prebeta 4 from 23. January 2008

Отчёт EAC об извлечении, выполненном 1. февраля 2009, 23:13

Lipatti -cd7t / Unknown Title

Дисковод: Optiarc DVD RW AD-7540A Adapter: 0 ID: 0

Режим чтения : Достоверность
Использование точного потока : Да
Отключение кэша аудио : Да
Использование указателей C2 : Нет

Коррекция смещения при чтении : 48
Способность читать области Lead-in и Lead-out : Нет
Заполнение пропущенных сэмплов тишиной : Да
Удаление блоков с тишиной в начале и конце : Нет
При вычислениях CRC использовались нулевые сэмплы : Да
Интерфейс : Установленный внешний ASPI-интерфейс

Выходной формат : Внутренние WAV-операции
Формат сэмплов : 44.100 Гц; 16 бит; стерео


TOC извлечённого CD

Трек | Старт | Длительность | Начальный сектор | Конечный сектор
––––––––––––––––––––––––––––––––––-
1 | 0:00.00 | 2:19.67 | 0 | 10491
2 | 2:19.67 | 2:32.05 | 10492 | 21896
3 | 4:51.72 | 2:52.45 | 21897 | 34841
4 | 7:44.42 | 4:38.30 | 34842 | 55721
5 | 12:22.72 | 2:51.10 | 55722 | 68556
6 | 15:14.07 | 2:38.10 | 68557 | 80416
7 | 17:52.17 | 5:42.53 | 80417 | 106119
8 | 23:34.70 | 5:59.65 | 106120 | 133109
9 | 29:34.60 | 2:58.67 | 133110 | 146526
10 | 32:33.52 | 5:00.65 | 146527 | 169091
11 | 37:34.42 | 4:12.65 | 169092 | 188056
12 | 41:47.32 | 3:27.60 | 188057 | 203641
13 | 45:15.17 | 1:35.05 | 203642 | 210771
14 | 46:50.22 | 3:11.45 | 210772 | 225141
15 | 50:01.67 | 1:52.15 | 225142 | 233556
16 | 51:54.07 | 1:23.25 | 233557 | 239806
17 | 53:17.32 | 2:58.45 | 239807 | 253201
18 | 56:16.02 | 2:10.05 | 253202 | 262956
19 | 58:26.07 | 3:25.70 | 262957 | 278401
20 | 61:52.02 | 1:56.48 | 278402 | 287149
21 | 63:48.50 | 1:19.20 | 287150 | 293094
22 | 65:07.70 | 1:49.70 | 293095 | 301339
23 | 66:57.65 | 2:37.62 | 301340 | 313176
24 | 69:35.52 | 4:09.08 | 313177 | 331859


Характеристики диапазона извлечения и сообщения об ошибках

Выбранный диапазон

Имя файла C:\Users\User\Desktop\Lipatti\CD 7\Lipatti - cd7.wav

Пиковый уровень 98.6 %
Качество диапазона 99.9 %
CRC копии 48769139
Копирование… OK

Ошибок не произошло


AccurateRip: сводка

Трек 1 нет в базе данных
Трек 2 нет в базе данных
Трек 3 нет в базе данных
Трек 4 нет в базе данных
Трек 5 нет в базе данных
Трек 6 нет в базе данных
Трек 7 нет в базе данных
Трек 8 нет в базе данных
Трек 9 нет в базе данных
Трек 10 нет в базе данных
Трек 11 нет в базе данных
Трек 12 нет в базе данных
Трек 13 нет в базе данных
Трек 14 нет в базе данных
Трек 15 нет в базе данных
Трек 16 нет в базе данных
Трек 17 нет в базе данных
Трек 18 нет в базе данных
Трек 19 нет в базе данных
Трек 20 нет в базе данных
Трек 21 нет в базе данных
Трек 22 нет в базе данных
Трек 23 нет в базе данных
Трек 24 нет в базе данных

Ни одного трека нет в базе AccurateRip

Конец отчёта



CD 1

J.S. BACH
1–6 Partita No.1 BWV825 16.59
7–9 3 Chorale Preludes 10.21
10 Siciliana BWV1031 3.06
MOZART
11–13 Piano Sonata No.8 K310 13.07
D. SCARLATTI
14–15 2 Sonatas 5.52
CHOPIN
16 Nocturne Op.27 No.2 5.44

CD 2

CHOPIN
1–14 14 Waltzes 45.40
15 Mazurka Op.50 No.3 4.22
16 Barcarolle Op.60 8.27

CD 3

CHOPIN
1–4 Piano Sonata No.3 25.13
LISZT
5 Sonetto 104 del Petrarca 6.11
RAVEL
6 Alborada del gracioso 5.40
BRAHMS
7 Waltzes for piano 4 hands 8.14

CD 4

SCHUMANN
1–3 Piano Concerto 29.41
MOZART
4–6 Piano Concerto No.21 K467* 28.55

CD 5

GRIEG
1–3 Piano Concerto 28.56
CHOPIN
4–6 Piano Concerto No.1* 36.58
7–8 2 Études* 5.19

CD 6*

J.S. BACH
1–3 Piano Concerto No.1 24.00
LISZT
4–7 Piano Concerto No.1 19.37
BARTÓK
8–10 Piano Concerto No.3 25.35

CD 7*

THE LAST RECITAL

J.S. BACH
1–6 Partita No.1 BWV825 17.49
MOZART
7–9 Piano Sonata No.8 K310 13.51
SCHUBERT
10–11 2 Impromptus 9.13
CHOPIN
12–24 13 Waltzes 32.49