Subcategories

Kaleidoscope (UK band) - White-Faced Lady (1971)

Posted By: uff
Kaleidoscope (UK band) - White-Faced Lady (1971)

Kaleidoscope (UK band) - White-Faced Lady (1971)
Rock | 2cd | EAC Rip | Flac + Cue + Log | covers
Air Mail Archive AIRAC-1093-4 24bit remaster | first rel: 1990 | rem: 2004 | 420Mb

White Faced Lady is an album by UK band Kaleidoscope (who by this time were calling themselves Fairfield Parlour). It is a concept album that tells the story of a pale-skinned girl named Angel, from her troubled youth to her sudden rise to fame as a movie star to her tragic decline and untimely death. Reportedly, it was inspired by the life of Marilyn Monroe, and indeed the final track name-checks Marilyn and Arthur Miller. As a rock opera, it follows the example of The Pretty Things' S. F. Sorrow rather than The Who's Tommy, with the liner notes telling the complete story and the songs expounding on key events. Many of the songs are tied together by brief musical segues.
The band worked on the album privately from 1970 to 1971. They had a deal in place to deliver the finished album to a record label for distribution, but the deal suddenly dissolved. The album went unreleased until 1990.

Track listing
cd1:
1. "Overture" - 2:48
2. "Broken Mirrors" - 2:49
3. "Angel's Song: Dear Elvis Presley…" - 2:39
4. "Nursey, Nursey" - 3:47
5. "Small Song: Heaven in the Back Row" - 3:21
6. "Burning Bright" - 2:03
7. "The Matchseller" - 3:50
8. "The Coronation of the Fledgling" - 0:20
9. "All Hail to the Hero" - 5:03
10. "White Faced Lady" - 4:41

cd2:
1. "Freefall" - 5:13
2. "Standing" - 6:12
3. "Diary Song: the Indian Head" - 0:54
4. "Song from Jon" - 6:56
5. "Long Way Down" - 4:05
6. "The Locket" - 2:58
7. "Picture with Conversation" - 3:38
8. "Epitaph: Angel" - 7:48

Personnel
- Peter Daltrey: vocals and organ
- Eddy Pumer: guitar
- Steve Clark: bass
- Don Bridgman: drums


Exact Audio Copy V0.99 prebeta 5 from 4. May 2009

EAC extraction logfile from 19. September 2009, 13:22

Kaleidoscope / White-Faced Lady (Disc 1)

Used drive : LITE-ON DVDRW LH-20A1H Adapter: 0 ID: 0

Read mode : Secure
Utilize accurate stream : Yes
Defeat audio cache : Yes
Make use of C2 pointers : No

Read offset correction : 6
Overread into Lead-In and Lead-Out : No
Fill up missing offset samples with silence : Yes
Delete leading and trailing silent blocks : No
Null samples used in CRC calculations : Yes
Used interface : Native Win32 interface for Win NT & 2000
Gap handling : Not detected, thus appended to previous track

Used output format : Internal WAV Routines
Sample format : 44.100 Hz; 16 Bit; Stereo


TOC of the extracted CD

Track | Start | Length | Start sector | End sector
––––––––––––––––––––––––––––-
1 | 0:00.00 | 2:47.61 | 0 | 12585
2 | 2:47.61 | 2:49.65 | 12586 | 25325
3 | 5:37.51 | 2:38.62 | 25326 | 37237
4 | 8:16.38 | 3:47.58 | 37238 | 54320
5 | 12:04.21 | 3:21.62 | 54321 | 69457
6 | 15:26.08 | 2:03.30 | 69458 | 78712
7 | 17:29.38 | 3:50.32 | 78713 | 95994
8 | 21:19.70 | 2:14.27 | 95995 | 106071
9 | 23:34.22 | 3:09.50 | 106072 | 120296
10 | 26:43.72 | 4:46.23 | 120297 | 141769


Track 1

Filename C:\psych\Kaleidoscope - White-Faced Lady (Japan) (1990)\Disc 1\01 - Overture.wav

Peak level 88.1 %
Track quality 100.0 %
Copy CRC 19ED0DC3
Track not present in AccurateRip database
Copy OK

Track 2

Filename C:\psych\Kaleidoscope - White-Faced Lady (Japan) (1990)\Disc 1\02 - Broken Mirrors.wav

Peak level 91.9 %
Track quality 100.0 %
Copy CRC C6386E37
Track not present in AccurateRip database
Copy OK

Track 3

Filename C:\psych\Kaleidoscope - White-Faced Lady (Japan) (1990)\Disc 1\03 - Angel's Song- 'Dear Elvis Presley…'.wav

Peak level 83.1 %
Track quality 100.0 %
Copy CRC E7CF8B04
Track not present in AccurateRip database
Copy OK

Track 4

Filename C:\psych\Kaleidoscope - White-Faced Lady (Japan) (1990)\Disc 1\04 - Nursey, Nursey.wav

Peak level 89.1 %
Track quality 100.0 %
Copy CRC 8BEDC9DE
Track not present in AccurateRip database
Copy OK

Track 5

Filename C:\psych\Kaleidoscope - White-Faced Lady (Japan) (1990)\Disc 1\05 - Small Song - Heaven In The Back Row.wav

Peak level 94.0 %
Track quality 100.0 %
Copy CRC AF05AE75
Track not present in AccurateRip database
Copy OK

Track 6

Filename C:\psych\Kaleidoscope - White-Faced Lady (Japan) (1990)\Disc 1\06 - Burning Bright.wav

Peak level 90.9 %
Track quality 100.0 %
Copy CRC F36FA262
Track not present in AccurateRip database
Copy OK

Track 7

Filename C:\psych\Kaleidoscope - White-Faced Lady (Japan) (1990)\Disc 1\07 - The Matchseller.wav

Peak level 91.5 %
Track quality 100.0 %
Copy CRC A2A97050
Track not present in AccurateRip database
Copy OK

Track 8

Filename C:\psych\Kaleidoscope - White-Faced Lady (Japan) (1990)\Disc 1\08 - The Coronation Of The Fledgling.wav

Peak level 89.7 %
Track quality 100.0 %
Copy CRC 36E8503A
Track not present in AccurateRip database
Copy OK

Track 9

Filename C:\psych\Kaleidoscope - White-Faced Lady (Japan) (1990)\Disc 1\09 - All Hail To The Hero.wav

Peak level 93.4 %
Track quality 100.0 %
Copy CRC EF488850
Track not present in AccurateRip database
Copy OK

Track 10

Filename C:\psych\Kaleidoscope - White-Faced Lady (Japan) (1990)\Disc 1\10 - White-Faced Lady.wav

Peak level 91.6 %
Track quality 100.0 %
Copy CRC 26BA545E
Track not present in AccurateRip database
Copy OK


None of the tracks are present in the AccurateRip database

No errors occurred

End of status report

–––––
Exact Audio Copy V0.99 prebeta 5 from 4. May 2009

EAC extraction logfile from 19. September 2009, 13:58

Kaleidoscope / White-Faced Lady (Disc 2)

Used drive : LITE-ON DVDRW LH-20A1H Adapter: 0 ID: 0

Read mode : Secure
Utilize accurate stream : Yes
Defeat audio cache : Yes
Make use of C2 pointers : No

Read offset correction : 6
Overread into Lead-In and Lead-Out : No
Fill up missing offset samples with silence : Yes
Delete leading and trailing silent blocks : No
Null samples used in CRC calculations : Yes
Used interface : Native Win32 interface for Win NT & 2000
Gap handling : Not detected, thus appended to previous track

Used output format : Internal WAV Routines
Sample format : 44.100 Hz; 16 Bit; Stereo


TOC of the extracted CD

Track | Start | Length | Start sector | End sector
––––––––––––––––––––––––––––-
1 | 0:00.00 | 5:13.44 | 0 | 23518
2 | 5:13.44 | 1:47.53 | 23519 | 31596
3 | 7:01.22 | 4:24.30 | 31597 | 51426
4 | 11:25.52 | 7:51.04 | 51427 | 86755
5 | 19:16.56 | 4:05.74 | 86756 | 105204
6 | 23:22.55 | 2:58.50 | 105205 | 118604
7 | 26:21.30 | 3:38.19 | 118605 | 134973
8 | 29:59.49 | 7:54.18 | 134974 | 170541


Track 1

Filename C:\psych\Kaleidoscope - White-Faced Lady (Japan) (1990)\Disc 2\01 - Freefall.wav

Peak level 89.5 %
Track quality 100.0 %
Copy CRC B72B78BD
Track not present in AccurateRip database
Copy OK

Track 2

Filename C:\psych\Kaleidoscope - White-Faced Lady (Japan) (1990)\Disc 2\02 - Standing.wav

Peak level 92.0 %
Track quality 100.0 %
Copy CRC 7F0243F1
Track not present in AccurateRip database
Copy OK

Track 3

Filename C:\psych\Kaleidoscope - White-Faced Lady (Japan) (1990)\Disc 2\03 - Diary Song- The Indian Head.wav

Peak level 95.2 %
Track quality 100.0 %
Copy CRC 82510D21
Track not present in AccurateRip database
Copy OK

Track 4

Filename C:\psych\Kaleidoscope - White-Faced Lady (Japan) (1990)\Disc 2\04 - Song From Jon.wav

Peak level 96.6 %
Track quality 100.0 %
Copy CRC DA4CB2E4
Track not present in AccurateRip database
Copy OK

Track 5

Filename C:\psych\Kaleidoscope - White-Faced Lady (Japan) (1990)\Disc 2\05 - Long Way Down.wav

Peak level 96.6 %
Track quality 100.0 %
Copy CRC 070CDAD5
Track not present in AccurateRip database
Copy OK

Track 6

Filename C:\psych\Kaleidoscope - White-Faced Lady (Japan) (1990)\Disc 2\06 - The Locket.wav

Peak level 88.4 %
Track quality 99.9 %
Copy CRC F745F2EB
Track not present in AccurateRip database
Copy OK

Track 7

Filename C:\psych\Kaleidoscope - White-Faced Lady (Japan) (1990)\Disc 2\07 - Picture With Conversation.wav

Peak level 96.6 %
Track quality 100.0 %
Copy CRC C5885988
Track not present in AccurateRip database
Copy OK

Track 8

Filename C:\psych\Kaleidoscope - White-Faced Lady (Japan) (1990)\Disc 2\08 - Epitaph- Angel.wav

Peak level 96.6 %
Track quality 100.0 %
Copy CRC D9C0B447
Track not present in AccurateRip database
Copy OK


None of the tracks are present in the AccurateRip database

No errors occurred

End of status report



[CUETools log; Date: 2013.11.12. 11:39:06; Version: 2.1.4]
[CTDB TOCID: boCc1QRJX.sk8EXP5AWPONCo.5g-] found.
Track | CTDB Status
1 | (1/1) Accurately ripped
2 | (1/1) Accurately ripped
3 | (1/1) Accurately ripped
4 | (1/1) Accurately ripped
5 | (1/1) Accurately ripped
6 | (1/1) Accurately ripped
7 | (1/1) Accurately ripped
8 | (1/1) Accurately ripped
9 | (1/1) Accurately ripped
10 | (1/1) Accurately ripped
[AccurateRip ID: 000b5190-005b29df-8307620a] found.
Track [ CRC | V2 ] Status
01 [4ade8904|59b29459] (2+2/4) Accurately ripped
02 [207bec88|df723290] (2+2/4) Accurately ripped
03 [134ca683|9b75af95] (2+2/4) Accurately ripped
04 [553f5ec5|85c537ac] (2+2/4) Accurately ripped
05 [508695be|770453e1] (2+2/4) Accurately ripped
06 [cda09fb0|9002238c] (2+2/4) Accurately ripped
07 [d762fe81|a14ec50f] (2+2/4) Accurately ripped
08 [e839c0ee|a0c2f178] (2+2/4) Accurately ripped
09 [b7822781|6406d199] (2+2/4) Accurately ripped
10 [4146e689|f6d918e0] (2+2/4) Accurately ripped

Track Peak [ CRC32 ] [W/O NULL] [ LOG ]
– 94,0 [2A87A7AC] [B8C5391F]
01 88,1 [19ED0DC3] [9148E577] CRC32
02 91,9 [C6386E37] [9833556E] CRC32
03 83,1 [E7CF8B04] [DEEAD342] CRC32
04 89,1 [8BEDC9DE] [52BEC443] CRC32
05 94,0 [AF05AE75] [E38D4120] CRC32
06 90,9 [F36FA262] [00FC0948] CRC32
07 91,5 [A2A97050] [E7DBFDCD] CRC32
08 89,7 [36E8503A] [BF3DA788] CRC32
09 93,4 [EF488850] [87A75421] CRC32
10 91,6 [26BA545E] [9251C276] CRC32

––––
[CUETools log; Date: 2013.11.12. 11:39:40; Version: 2.1.4]
[CTDB TOCID: 2luXXh020MaJoy2QbJelswu_PyE-] found.
Track | CTDB Status
1 | (1/1) Accurately ripped
2 | (1/1) Accurately ripped
3 | (1/1) Accurately ripped
4 | (1/1) Accurately ripped
5 | (1/1) Accurately ripped
6 | (1/1) Accurately ripped
7 | (1/1) Accurately ripped
8 | (1/1) Accurately ripped
[AccurateRip ID: 000b06c1-004a1e6d-5c08e108] found.
Track [ CRC | V2 ] Status
01 [0cbd8ed9|f8e69802] (2+2/4) Accurately ripped
02 [8905f423|6ebd4ad1] (2+2/4) Accurately ripped
03 [1dcbaf6b|ae7c2b11] (2+2/4) Accurately ripped
04 [66881735|f766a616] (2+2/4) Accurately ripped
05 [fec5752a|0ab2ed63] (2+2/4) Accurately ripped
06 [9a23be7f|a17f1afb] (2+2/4) Accurately ripped
07 [3c5d67bf|85d616aa] (2+2/4) Accurately ripped
08 [f5751c06|65742acf] (2+2/4) Accurately ripped

Track Peak [ CRC32 ] [W/O NULL] [ LOG ]
– 96,6 [BE8F7A7E] [CF6F7D2C]
01 89,5 [B72B78BD] [4CEE1A2C] CRC32
02 92,0 [7F0243F1] [83F7B2E1] CRC32
03 95,2 [82510D21] [77467A31] CRC32
04 96,6 [DA4CB2E4] [0E7CE89A] CRC32
05 96,6 [070CDAD5] [C2E2FA55] CRC32
06 88,4 [F745F2EB] [CC294FBC] CRC32
07 96,6 [C5885988] [BD015F84] CRC32
08 96,6 [D9C0B447] [E48AE681] CRC32


Thx to syren_aureola