Junkie XL - Radio JXL: A Broadcast From The Computer Hell Cabin (2003)

Posted By: JET 1
Junkie XL - Radio JXL: A Broadcast From The Computer Hell Cabin (2003)

Junkie XL - Radio JXL: A Broadcast From The Computer Hell Cabin (2003)
EAC Rip | FLAC (Tracks) +CUE, LOG | 1.02 GB | Covers Included
Genre: Electronic, Progressive House | Label: Roadrunner Records | Catalog Number: RRCY-29046/7

Flush from remixing Elvis to his 30th number one with A Little Less Conversation as JXL, Dutch DJ Tom Holkenborg turned down a request from the Beatles to remix something of theirs and instead reverted to his full moniker for this fantasy league of his favourite vocalists. Along similar lines to Oakenfold's similarly star-studded 2001 Bunkka, the album is based on an imaginary pirate broadcast and mixes Holkenborg's dance/trance sculptures with trademark vocals from the likes of Dave Gahan, Peter Tosh, Solomon Burke and Chuck D, with a real Cure-y jewel in the one sung by Robert Smith, Perfect Blue Sky. Holkenborg reinvents Gary Numan as a trance star and, in a real coup, coaxes Terry Hall into at last revisiting his fabulous early-Specials ska sound for Never Alone. Less successfully, there are a mystifying three awkward contributions from Republica's Saffron, and an accompanying chillout disc is mostly dull. But for all its wobbles and indulgence, this is infinitely superior to a JXL mix of, say, Maxwell's Silver Hammer.

Exact Audio Copy V1.1 from 23. June 2015

EAC extraction logfile from 4. September 2016, 11:25

Junkie XL / Radio JXL: A Broadcast From The Computer Hell Cabin 3PM

Used drive : PLEXTOR DVDR PX-891SAW Adapter: 1 ID: 0

Read mode : Secure
Utilize accurate stream : Yes
Defeat audio cache : Yes
Make use of C2 pointers : No

Read offset correction : 48
Overread into Lead-In and Lead-Out : No
Fill up missing offset samples with silence : Yes
Delete leading and trailing silent blocks : No
Null samples used in CRC calculations : Yes
Used interface : Native Win32 interface for Win NT & 2000
Gap handling : Appended to previous track

Used output format : User Defined Encoder
Selected bitrate : 1024 kBit/s
Quality : High
Add ID3 tag : No
Command line compressor : C:\Program Files (x86)\Exact Audio Copy\Flac\flac.exe
Additional command line options : -8 -V -T "ARTIST=%artist%" -T "TITLE=%title%" -T "ALBUM=%albumtitle%" -T "DATE=%year%" -T "TRACKNUMBER=%tracknr%" -T "GENRE=%genre%" -T "PERFORMER=%albuminterpret%" -T "COMPOSER=%composer%" %haslyrics%–tag-from-file=LYRICS="%lyricsfile%"%haslyrics% -T "ALBUMARTIST=%albumartist%" -T "DISCNUMBER=%cdnumber%" -T "TOTALDISCS=%totalcds%" -T "TOTALTRACKS=%numtracks%" -T "COMMENT=%comment%" %source% -o %dest%


TOC of the extracted CD

Track | Start | Length | Start sector | End sector
––––––––––––––––––––––––––––-
1 | 0:00.00 | 0:51.55 | 0 | 3879
2 | 0:51.55 | 6:20.70 | 3880 | 32449
3 | 7:12.50 | 5:29.74 | 32450 | 57198
4 | 12:42.49 | 4:53.19 | 57199 | 79192
5 | 17:35.68 | 4:54.09 | 79193 | 101251
6 | 22:30.02 | 4:23.18 | 101252 | 120994
7 | 26:53.20 | 4:19.31 | 120995 | 140450
8 | 31:12.51 | 4:11.33 | 140451 | 159308
9 | 35:24.09 | 4:12.03 | 159309 | 178211
10 | 39:36.12 | 3:28.00 | 178212 | 193811
11 | 43:04.12 | 4:13.27 | 193812 | 212813
12 | 47:17.39 | 3:47.06 | 212814 | 229844
13 | 51:04.45 | 4:29.06 | 229845 | 250025
14 | 55:33.51 | 0:26.43 | 250026 | 252018
15 | 56:00.19 | 3:28.39 | 252019 | 267657
16 | 59:28.58 | 3:48.12 | 267658 | 284769
17 | 63:16.70 | 3:40.10 | 284770 | 301279
18 | 66:57.05 | 2:59.74 | 301280 | 314778
19 | 69:57.04 | 3:41.58 | 314779 | 331411
20 | 73:38.62 | 1:19.59 | 331412 | 337395


Track 1

Filename C:\Rips\01 - Intro 3PM.wav

Pre-gap length 0:00:02.00

Peak level 98.8 %
Extraction speed 3.3 X
Track quality 100.0 %
Test CRC D3401B5B
Copy CRC D3401B5B
Accurately ripped (confidence 2) [4C26C2FE] (AR v2)
Copy OK

Track 2

Filename C:\Rips\02 - Tennis.wav

Peak level 97.7 %
Extraction speed 5.6 X
Track quality 100.0 %
Test CRC 6747B6FB
Copy CRC 6747B6FB
Accurately ripped (confidence 2) [A64A9D88] (AR v2)
Copy OK

Track 3

Filename C:\Rips\03 - Crusher.wav

Peak level 98.8 %
Extraction speed 4.7 X
Track quality 99.9 %
Test CRC 0F82CA87
Copy CRC 0F82CA87
Accurately ripped (confidence 2) [55C5CDDD] (AR v2)
Copy OK

Track 4

Filename C:\Rips\04 - Don't Wake Up Policeman.wav

Peak level 98.8 %
Extraction speed 6.6 X
Track quality 100.0 %
Test CRC ED88132C
Copy CRC ED88132C
Accurately ripped (confidence 2) [718212E4] (AR v2)
Copy OK

Track 5

Filename C:\Rips\05 - Reload.wav

Peak level 98.8 %
Extraction speed 5.2 X
Track quality 99.9 %
Test CRC 8D3E844A
Copy CRC 8D3E844A
Accurately ripped (confidence 2) [9F089428] (AR v2)
Copy OK

Track 6

Filename C:\Rips\06 - Spirits.wav

Peak level 98.8 %
Extraction speed 5.2 X
Track quality 99.9 %
Test CRC FD3CB2AC
Copy CRC FD3CB2AC
Accurately ripped (confidence 2) [87440F0B] (AR v2)
Copy OK

Track 7

Filename C:\Rips\07 - Angels.wav

Peak level 98.8 %
Extraction speed 7.7 X
Track quality 100.0 %
Test CRC E7109380
Copy CRC E7109380
Accurately ripped (confidence 2) [32234DFE] (AR v2)
Copy OK

Track 8

Filename C:\Rips\08 - Perfect Blue Sky.wav

Peak level 98.8 %
Extraction speed 8.1 X
Track quality 100.0 %
Test CRC 78CD8BD9
Copy CRC 78CD8BD9
Accurately ripped (confidence 2) [1482F4AB] (AR v2)
Copy OK

Track 9

Filename C:\Rips\09 - Between These Walls.wav

Peak level 98.8 %
Extraction speed 8.4 X
Track quality 100.0 %
Test CRC 5FA091DC
Copy CRC 5FA091DC
Accurately ripped (confidence 2) [1C6D8F8C] (AR v2)
Copy OK

Track 10

Filename C:\Rips\10 - Access To The Excess.wav

Peak level 98.8 %
Extraction speed 8.3 X
Track quality 100.0 %
Test CRC A58C7CFB
Copy CRC A58C7CFB
Accurately ripped (confidence 2) [9AC62A19] (AR v2)
Copy OK

Track 11

Filename C:\Rips\11 - Catch Up To My Step.wav

Peak level 98.8 %
Extraction speed 8.8 X
Track quality 100.0 %
Test CRC 3E018742
Copy CRC 3E018742
Accurately ripped (confidence 2) [C52376ED] (AR v2)
Copy OK

Track 12

Filename C:\Rips\12 - Never Alone.wav

Peak level 98.8 %
Extraction speed 5.9 X
Track quality 99.9 %
Test CRC 4E748F82
Copy CRC 4E748F82
Accurately ripped (confidence 2) [8847D5F4] (AR v2)
Copy OK

Track 13

Filename C:\Rips\13 - Logos.wav

Peak level 98.8 %
Extraction speed 9.5 X
Track quality 100.0 %
Test CRC A748C335
Copy CRC A748C335
Accurately ripped (confidence 2) [7881A0C3] (AR v2)
Copy OK

Track 14

Filename C:\Rips\14 - Configuring Audio System.wav

Peak level 98.8 %
Extraction speed 1.4 X
Track quality 99.5 %
Test CRC 7BC8F1CF
Copy CRC 7BC8F1CF
Accurately ripped (confidence 2) [D1CE5523] (AR v2)
Copy OK

Track 15

Filename C:\Rips\15 - Nightmares.wav

Peak level 98.8 %
Extraction speed 9.3 X
Track quality 100.0 %
Test CRC C83DDE1A
Copy CRC C83DDE1A
Accurately ripped (confidence 2) [F479439C] (AR v2)
Copy OK

Track 16

Filename C:\Rips\16 - Beauty Never Fades.wav

Peak level 98.8 %
Extraction speed 9.7 X
Track quality 100.0 %
Test CRC 61E9661E
Copy CRC 61E9661E
Accurately ripped (confidence 2) [117337CD] (AR v2)
Copy OK

Track 17

Filename C:\Rips\17 - Rivers.wav

Peak level 82.2 %
Extraction speed 9.7 X
Track quality 100.0 %
Test CRC 44317130
Copy CRC 44317130
Accurately ripped (confidence 2) [4EC6B196] (AR v2)
Copy OK

Track 18

Filename C:\Rips\18 - Aqua Man.wav

Peak level 98.7 %
Extraction speed 9.7 X
Track quality 100.0 %
Test CRC 768A1AD5
Copy CRC 768A1AD5
Accurately ripped (confidence 2) [6E459A58] (AR v2)
Copy OK

Track 19

Filename C:\Rips\19 - Broken.wav

Peak level 98.8 %
Extraction speed 6.7 X
Track quality 99.9 %
Test CRC 618BC043
Copy CRC 618BC043
Accurately ripped (confidence 2) [58E15239] (AR v2)
Copy OK

Track 20

Filename C:\Rips\20 - JXL Radio Technical Support.wav

Peak level 69.6 %
Extraction speed 8.2 X
Track quality 100.0 %
Test CRC 129B6565
Copy CRC 129B6565
Accurately ripped (confidence 2) [AD802D76] (AR v2)
Copy OK


All tracks accurately ripped

No errors occurred

End of status report

–– CUETools DB Plugin V2.1.6

[CTDB TOCID: GOt479FtxeLtfWY78S2EFJX8kt8-] found
Submit result: GOt479FtxeLtfWY78S2EFJX8kt8- has been confirmed
Track | CTDB Status
1 | (3/3) Accurately ripped
2 | (3/3) Accurately ripped
3 | (3/3) Accurately ripped
4 | (3/3) Accurately ripped
5 | (3/3) Accurately ripped
6 | (3/3) Accurately ripped
7 | (2/3) Accurately ripped, or (1/3) differs in 20 samples @00:50:35-00:50:36
8 | (3/3) Accurately ripped
9 | (3/3) Accurately ripped
10 | (3/3) Accurately ripped
11 | (3/3) Accurately ripped
12 | (3/3) Accurately ripped
13 | (3/3) Accurately ripped
14 | (3/3) Accurately ripped
15 | (3/3) Accurately ripped
16 | (3/3) Accurately ripped
17 | (3/3) Accurately ripped
18 | (3/3) Accurately ripped
19 | (3/3) Accurately ripped
20 | (3/3) Accurately ripped


==== Log checksum 3217D963D81748657E90224E5AEB14B177705AA4F1A91B7C9FB4B29A4CF007A6 ====


Exact Audio Copy V1.1 from 23. June 2015

EAC extraction logfile from 4. September 2016, 12:09

Junkie XL / Radio JXL: A Broadcast From The Computer Hell Cabin 3AM

Used drive : PLEXTOR DVDR PX-891SAW Adapter: 1 ID: 0

Read mode : Secure
Utilize accurate stream : Yes
Defeat audio cache : Yes
Make use of C2 pointers : No

Read offset correction : 48
Overread into Lead-In and Lead-Out : No
Fill up missing offset samples with silence : Yes
Delete leading and trailing silent blocks : No
Null samples used in CRC calculations : Yes
Used interface : Native Win32 interface for Win NT & 2000
Gap handling : Appended to previous track

Used output format : User Defined Encoder
Selected bitrate : 1024 kBit/s
Quality : High
Add ID3 tag : No
Command line compressor : C:\Program Files (x86)\Exact Audio Copy\Flac\flac.exe
Additional command line options : -8 -V -T "ARTIST=%artist%" -T "TITLE=%title%" -T "ALBUM=%albumtitle%" -T "DATE=%year%" -T "TRACKNUMBER=%tracknr%" -T "GENRE=%genre%" -T "PERFORMER=%albuminterpret%" -T "COMPOSER=%composer%" %haslyrics%–tag-from-file=LYRICS="%lyricsfile%"%haslyrics% -T "ALBUMARTIST=%albumartist%" -T "DISCNUMBER=%cdnumber%" -T "TOTALDISCS=%totalcds%" -T "TOTALTRACKS=%numtracks%" -T "COMMENT=%comment%" %source% -o %dest%


TOC of the extracted CD

Track | Start | Length | Start sector | End sector
––––––––––––––––––––––––––––-
1 | 0:00.00 | 0:55.72 | 0 | 4196
2 | 0:55.72 | 2:27.18 | 4197 | 15239
3 | 3:23.15 | 5:04.10 | 15240 | 38049
4 | 8:27.25 | 5:20.00 | 38050 | 62049
5 | 13:47.25 | 8:16.66 | 62050 | 99315
6 | 22:04.16 | 7:26.39 | 99316 | 132804
7 | 29:30.55 | 7:05.34 | 132805 | 164713
8 | 36:36.14 | 11:00.12 | 164714 | 214225
9 | 47:36.26 | 12:34.58 | 214226 | 270833
10 | 60:11.09 | 8:32.15 | 270834 | 309248
11 | 68:43.24 | 4:36.42 | 309249 | 329990


Track 1

Filename C:\Rips\01 - Intro 3AM.wav

Pre-gap length 0:00:02.00

Peak level 83.5 %
Extraction speed 3.2 X
Track quality 100.0 %
Test CRC 4CE443E0
Copy CRC 4CE443E0
Accurately ripped (confidence 1) [E41592EE] (AR v2)
Copy OK

Track 2

Filename C:\Rips\02 - Chilled.wav

Peak level 97.7 %
Extraction speed 4.7 X
Track quality 100.0 %
Test CRC 8798038D
Copy CRC 8798038D
Accurately ripped (confidence 1) [88BC727A] (AR v2)
Copy OK

Track 3

Filename C:\Rips\03 - Dubzilla.wav

Peak level 98.1 %
Extraction speed 4.2 X
Track quality 99.9 %
Test CRC 1819102D
Copy CRC 1819102D
Accurately ripped (confidence 1) [F71F1BEE] (AR v2)
Copy OK

Track 4

Filename C:\Rips\04 - Casio.wav

Peak level 97.7 %
Extraction speed 4.7 X
Track quality 99.9 %
Test CRC 01DB65E4
Copy CRC 01DB65E4
Accurately ripped (confidence 1) [342DF13B] (AR v2)
Copy OK

Track 5

Filename C:\Rips\05 - Angels (12 Inch Cut).wav

Peak level 98.8 %
Extraction speed 7.3 X
Track quality 100.0 %
Test CRC 0A0BAAD3
Copy CRC 0A0BAAD3
Accurately ripped (confidence 1) [880F7B35] (AR v2)
Copy OK

Track 6

Filename C:\Rips\06 - Breezer.wav

Peak level 98.8 %
Extraction speed 6.3 X
Track quality 99.9 %
Test CRC CE1918B1
Copy CRC CE1918B1
Accurately ripped (confidence 1) [5235D7D1] (AR v2)
Copy OK

Track 7

Filename C:\Rips\07 - Nudge.wav

Peak level 98.8 %
Extraction speed 8.5 X
Track quality 100.0 %
Test CRC D57D5ADB
Copy CRC D57D5ADB
Accurately ripped (confidence 1) [B0FE5073] (AR v2)
Copy OK

Track 8

Filename C:\Rips\08 - Red.wav

Peak level 98.8 %
Extraction speed 9.5 X
Track quality 100.0 %
Test CRC 5D626C8B
Copy CRC 5D626C8B
Accurately ripped (confidence 1) [4338F964] (AR v2)
Copy OK

Track 9

Filename C:\Rips\09 - Beauty Never Fades (12 Inch Cut).wav

Peak level 98.8 %
Extraction speed 10.4 X
Track quality 100.0 %
Test CRC 634A84C2
Copy CRC 634A84C2
Accurately ripped (confidence 1) [94B95B69] (AR v2)
Copy OK

Track 10

Filename C:\Rips\10 - Cosmic Cure.wav

Peak level 98.8 %
Extraction speed 10.8 X
Track quality 100.0 %
Test CRC C5175C39
Copy CRC C5175C39
Accurately ripped (confidence 1) [D5D9AA2F] (AR v2)
Copy OK

Track 11

Filename C:\Rips\11 - Reshurc.wav

Peak level 97.7 %
Extraction speed 7.3 X
Track quality 99.9 %
Test CRC 733339B7
Copy CRC 733339B7
Accurately ripped (confidence 1) [5A48DCAA] (AR v2)
Copy OK


All tracks accurately ripped

No errors occurred

End of status report

–– CUETools DB Plugin V2.1.6

[CTDB TOCID: nCW_qSzr9.2PjIkUy4aQK8ql3wY-] disk not present in database
Submit result: nCW_qSzr9.2PjIkUy4aQK8ql3wY- has been uploaded


==== Log checksum 42652E7CBBC761356CCE184962F8CA458A96CF5E986DBE29E274332F83752452 ====


Tracklist:
CD1 3PM
01. Junkie XL - Intro 3PM (0:52)
02. Junkie XL - Tennis (6:21) (Bonus Track)
03. Junkie XL - Crusher (5:30)
04. Junkie XL - Don't Wake Up The Policeman (4:53)
05. Junkie XL - Reload (4:54)
06. Junkie XL - Spirits (4:23)
07. Junkie XL - Angels (4:19)
08. Junkie XL - Perfect Blue Sky (4:11)
09. Junkie XL - Between These Walls (4:12)
10. Junkie XL - Access To The Excess (3:28)
11. Junkie XL - Catch Up To My Step Up (4:13)
12. Junkie XL - Never Alone (3:47)
13. Junkie XL - Logos (4:29)
14. Junkie XL - Configuring Audio System (0:27)
15. Junkie XL - Nightmares (3:29)
16. Junkie XL - Beauty Never Fades (3:48)
17. Junkie XL - Rivers (3:40)
18. Junkie XL - Aqua Man (3:00)
19. Junkie XL - Broken (3:42)
20. Junkie XL - JXL Radio Technical Support (1:20)

CD2 3AM
01. Junkie XL - Intro 3AM (0:56)
02. Junkie XL - Chilled (2:27)
03. Junkie XL - Dubzilla (5:04)
04. Junkie XL - Casio (5:20)
05. Junkie XL - Angels (12 Inch Cut) (8:17)
06. Junkie XL - Breezer (7:27)
07. Junkie XL - Nudge (7:05)
08. Junkie XL - Red (11:00)
09. Junkie XL - Beauty Never Fades (12 Inch Cut) (12:35)
10. Junkie XL - Cosmic Cure (8:32)
11. Junkie XL - Reshurc (4:37)