Subcategories

Jon Lord - Beyond The Notes (2004)

Posted By: v3122
Jon Lord - Beyond The Notes (2004)

Jon Lord - Beyond The Notes (2004)
EAC | Flac(Image) + Cue + Log & MP3 CBR 320Kbps
EMI, 7243 8 74181 2 8 | ~ 382 or 163 Mb | Scans(jpg) -> 54 Mb
Prog Rock / Classical

Organist Jon Lord supposedly left Deep Purple to retire and take it easy, after he'd spent much of his life recording and touring the world with Purple and other artists. But upon his exit from the band, Lord played gigs and issued albums on his own, such as 2004's Beyond the Notes. The split provided Lord with the opportunity to pursue some unexpected musical avenues, as the album sees a detour into soothing classical music. Gone is the blaring guitar through Marshall stacks and Lord's overdriven organ rocking back and forth – in its place is the jazzy sound of "Cologne Again" a lovely piano ballad, and the string-heavy album closer, "Music for Miriam." While it's not unheard of for a rock musician to take the orchestral plunge, Beyond the Notes is one of the few instances where it works surprisingly well and doesn't come off as a mere detour.

by Greg Prato, AMG
Jon Lord - Beyond The Notes (2004)


Jon Lord - Beyond The Notes (2004):

Jon Lord - Beyond The Notes (2004)

Tracklist:

1. Miles Away
2. De Profundis
3. One From The Meadow (Vocals by Sam Brown)
4. Cologne Again
5. I'll Send You A Postcard
6. The Sun Will Shine Again (Vocals By Frida)
7. A Smile When I Shook His Hand
8. November Calls (Vocals By Miller Anderson)
9. The Telemann Experement (Lord)
10. Music For Miriam (Lord)

Exact Audio Copy V0.99 prebeta 5 from 4. May 2009

EAC extraction logfile from 2. January 2011, 14:29

Jon Lord / Beyond The Notes

Used drive : Optiarc DVD RW AD-7700H Adapter: 0 ID: 1

Read mode : Secure
Utilize accurate stream : Yes
Defeat audio cache : Yes
Make use of C2 pointers : No

Read offset correction : 48
Overread into Lead-In and Lead-Out : No
Fill up missing offset samples with silence : Yes
Delete leading and trailing silent blocks : No
Null samples used in CRC calculations : Yes
Used interface : Native Win32 interface for Win NT & 2000

Used output format : Internal WAV Routines
Sample format : 44.100 Hz; 16 Bit; Stereo


TOC of the extracted CD

Track | Start | Length | Start sector | End sector
––––––––––––––––––––––––––––-
1 | 0:00.00 | 7:42.07 | 0 | 34656
2 | 7:42.07 | 7:22.25 | 34657 | 67831
3 | 15:04.32 | 8:16.05 | 67832 | 105036
4 | 23:20.37 | 6:46.48 | 105037 | 135534
5 | 30:07.10 | 6:56.40 | 135535 | 166774
6 | 37:03.50 | 4:24.20 | 166775 | 186594
7 | 41:27.70 | 7:31.32 | 186595 | 220451
8 | 48:59.27 | 5:03.20 | 220452 | 243196
9 | 54:02.47 | 7:07.40 | 243197 | 275261
10 | 61:10.12 | 8:02.50 | 275262 | 311461


Range status and errors

Selected range

Filename C:\Раздачи\Jon Lord - Beyond The Notes_SACD_CD_Layer\Jon Lord - Beyond The Notes.wav

Peak level 98.8 %
Range quality 100.0 %
Test CRC B43D28B6
Copy CRC B43D28B6
Copy OK

No errors occurred


AccurateRip summary

Track 1 accurately ripped (confidence 12) [31E990FE]
Track 2 accurately ripped (confidence 12) [B7332C83]
Track 3 accurately ripped (confidence 12) [E4178838]
Track 4 accurately ripped (confidence 12) [176F01E6]
Track 5 accurately ripped (confidence 12) [A58178D8]
Track 6 accurately ripped (confidence 12) [F0D0AEE4]
Track 7 accurately ripped (confidence 12) [87E842B8]
Track 8 accurately ripped (confidence 12) [49B774B5]
Track 9 accurately ripped (confidence 12) [1BBCF6D5]
Track 10 accurately ripped (confidence 12) [67583F53]

All tracks accurately ripped

End of status report

foobar2000 1.2.9 / Dynamic Range Meter 1.1.1
log date: 2015-05-14 18:46:31

––––––––––––––––––––––––––––––––––––––––
Analyzed: Jon Lord / Beyond The Notes
––––––––––––––––––––––––––––––––––––––––

DR Peak RMS Duration Track
––––––––––––––––––––––––––––––––––––––––
DR9 -1.42 dB -14.32 dB 7:42 01-Miles Away
DR9 -0.24 dB -13.79 dB 7:22 02-De Profundis
DR9 -0.19 dB -13.76 dB 8:16 03-One From The Meadow
DR10 -0.20 dB -13.20 dB 6:47 04-Cologne Again
DR13 -0.40 dB -18.26 dB 6:57 05-I'll Send You A Postcard
DR8 -1.19 dB -12.86 dB 4:24 06-The Sun Will Shine Again
DR11 -0.21 dB -15.22 dB 7:31 07-A Smile When I Shook His Hand
DR9 -0.86 dB -13.99 dB 5:03 08-November Calls
DR11 -0.10 dB -13.88 dB 7:08 09-The Telemann Experement
DR13 -1.45 dB -19.48 dB 8:03 10-Music For Miriam
––––––––––––––––––––––––––––––––––––––––

Number of tracks: 10
Official DR value: DR10

Samplerate: 44100 Hz
Channels: 2
Bits per sample: 16
Bitrate: 735 kbps
Codec: FLAC

[CUETools log; Date: 14.05.2015 18:46:52; Version: 2.1.4]
[CTDB TOCID: zwMRIn3QLcLkhDcyl2QFMPk3eTY-] found.
Track | CTDB Status
1 | ( 6/23) Accurately ripped, or (1/23) differs in 142 samples @00:22:30,00:22:42, or (1/23) differs in 4 samples @03:52:30
2 | ( 7/23) Accurately ripped, or (1/23) differs in 6 samples @06:35:35
3 | ( 7/23) Accurately ripped, or (1/23) differs in 11 samples @00:16:73,01:05:10,03:47:10
4 | ( 8/23) Accurately ripped
5 | ( 8/23) Accurately ripped
6 | ( 6/23) Accurately ripped, or (1/23) differs in 15 samples @02:19:27,02:25:71,02:53:74-02:54:00, or (1/23) differs in 3 samples @02:05:02
7 | ( 8/23) Accurately ripped
8 | ( 7/23) Accurately ripped, or (1/23) differs in 141 samples @00:29:03,02:35:03-02:35:04,02:47:15-02:47:16
9 | ( 8/23) Accurately ripped
10 | ( 7/23) Accurately ripped
[AccurateRip ID: 001aa774-00d2b39c-8910380a] found.
Track [ CRC | V2 ] Status
01 [31e990fe|72a131c4] (14+14/34) Accurately ripped
02 [b7332c83|905fe135] (14+15/35) Accurately ripped
03 [e4178838|36cf39df] (14+14/34) Accurately ripped
04 [176f01e6|bbedb524] (14+14/34) Accurately ripped
05 [a58178d8|35f1b082] (14+15/35) Accurately ripped
06 [f0d0aee4|ec76c777] (14+15/35) Accurately ripped
07 [87e842b8|e371f09e] (14+15/33) Accurately ripped
08 [49b774b5|c34b02d4] (14+14/35) Accurately ripped
09 [1bbcf6d5|0b2dea6e] (14+14/35) Accurately ripped
10 [67583f53|4d6bccdd] (14+15/36) Accurately ripped
Offsetted by -66:
01 [a1e013c3] (00/34) No match (V2 was not tested)
02 [cad20d54] (00/35) No match (V2 was not tested)
03 [e31df7c2] (00/34) No match (V2 was not tested)
04 [0e65b955] (00/34) No match (V2 was not tested)
05 [19e95eb2] (00/35) No match (V2 was not tested)
06 [6245894c] (00/35) No match (V2 was not tested)
07 [46f404d8] (00/33) No match (V2 was not tested)
08 [3c8a5620] (00/35) No match (V2 was not tested)
09 [b8a38e8f] (00/35) No match (V2 was not tested)
10 [d44f3747] (00/36) No match (V2 was not tested)

Track Peak [ CRC32 ] [W/O NULL] [ LOG ]
– 98,8 [B43D28B6] [C8B04964] CRC32
01 84,9 [27DA8575] [F705D674]
02 97,2 [CF425AFC] [65855AB8]
03 97,8 [0A9B8008] [D8AEBF61]
04 97,7 [5066E387] [215099A3]
05 95,4 [45F5DD14] [D2589FCE]
06 87,2 [D8DD7DDF] [0FD19E12]
07 97,5 [99889955] [FC72AE06]
08 90,5 [CC1089D8] [EE014CC0]
09 98,8 [645FEFF7] [D8A20517]
10 84,6 [1822367A] [E2CD9671]

Jon Lord - Beyond The Notes (2004)

All thanks go to borsland

Download Jon Lord - Beyond The Notes (2004):