Subcategories

Joe Satriani - Live in Paris: I Just Wanna Rock (2009)

Posted By: gribovar
Joe Satriani - Live in Paris: I Just Wanna Rock (2009)

Joe Satriani - Live in Paris: I Just Wanna Rock (2009)
EAC Rip | WavPack (image+.cue+log) CD1-447 mb, CD2-475 mb | MP3 CBR 320 kbps (LAME 3.93) CD1-137 mb, CD2-157 mb | Covers - 40 MB
Genre: Instrumental Rock | RAR 3% Rec. | Label: Sony Music (88697439412)

Live In Paris: I Just Wanna Rock is the 4th live album by guitarist Joe Satriani, released in February 2010. It is a 2CD Live set of his live concert in Paris, France on 27 May 2008. In many ways it acts as a best-of glimpse at Satriani’s career, and the audio mix is top-notch. Included in the over two-hours worth of material are the grooving “Diddle-Y-A-Doo-Dat,” the tap-happy “Satch Boogie,” the sleek “Flying In A Blue Dream,” and “Ghosts,” which is driven by a haunting Middle-Eastern flavor. There’s enough stylistic variety within the 22 songs that boredom is never an issue.
CD 1 Tracklist:
01. I Just Wanna Rock
02. Overdriver
03. Satch Boogie
04. Ice 9
05. Diddle-Y-A-Doo-Dat
06. Flying in a Blue Dream
07. Ghosts
08. Revelation
09. Super Colossal
10. One Big Rush
11. Musterion
12. 12.Out of the Sunrise

Total time: 59:07

CD 2 Tracklist:
01. Time Machine
02. Cool #9
03. Andalusia
04. Bass Solo
05. Cryin
06. The Mystical Potato Head Groove Thing
07. Always with Me, Always with You
08. Surfing with the Alien
09. Crowd Chant
10. Summer Song

Total time: 01:07:36


Exact Audio Copy V0.99 prebeta 5 from 4. May 2009

EAC extraction logfile from 19. February 2010, 17:11

Joe Satriani / Live in Paris: I Just Wanna Rock [CD1]

Used drive : HP DVD Writer 1060r Adapter: 1 ID: 0

Read mode : Secure
Utilize accurate stream : Yes
Defeat audio cache : Yes
Make use of C2 pointers : No

Read offset correction : 6
Overread into Lead-In and Lead-Out : No
Fill up missing offset samples with silence : Yes
Delete leading and trailing silent blocks : No
Null samples used in CRC calculations : Yes
Used interface : Installed external ASPI interface

Used output format : Internal WAV Routines
Sample format : 44.100 Hz; 16 Bit; Stereo


TOC of the extracted CD

Track | Start | Length | Start sector | End sector
––––––––––––––––––––––––––––-
1 | 0:00.00 | 3:53.25 | 0 | 17499
2 | 3:53.25 | 5:17.65 | 17500 | 41339
3 | 9:11.15 | 4:36.21 | 41340 | 62060
4 | 13:47.36 | 4:37.69 | 62061 | 82904
5 | 18:25.30 | 4:14.50 | 82905 | 102004
6 | 22:40.05 | 5:39.72 | 102005 | 127501
7 | 28:20.02 | 4:52.35 | 127502 | 149436
8 | 33:12.37 | 6:30.45 | 149437 | 178731
9 | 39:43.07 | 4:25.48 | 178732 | 198654
10 | 44:08.55 | 3:37.39 | 198655 | 214968
11 | 47:46.19 | 4:53.14 | 214969 | 236957
12 | 52:39.33 | 6:28.00 | 236958 | 266057


Range status and errors

Selected range

Filename C:\Incoming\Joe Satriani\CD1\Joe Satriani - Live in Paris I Just Wanna Rock [CD1].wav

Peak level 98.8 %
Range quality 99.9 %
Copy CRC D8A608DD
Copy OK

No errors occurred


AccurateRip summary

Track 1 not present in database
Track 2 not present in database
Track 3 not present in database
Track 4 not present in database
Track 5 not present in database
Track 6 not present in database
Track 7 not present in database
Track 8 not present in database
Track 9 not present in database
Track 10 not present in database
Track 11 not present in database
Track 12 not present in database

None of the tracks are present in the AccurateRip database

End of status report
__________________________

Checking AccurateRip database (12.05.2011)

Track Ripping Status [Disc ID: 00199b2a-a40ddb0c]

1 Accurately Ripped (confidence 25) [6bf33eea]
2 Accurately Ripped (confidence 25) [1d6a1917]
3 Accurately Ripped (confidence 25) [7a6f625a]
4 Accurately Ripped (confidence 25) [368e1c91]
5 Accurately Ripped (confidence 25) [ed57396f]
6 Accurately Ripped (confidence 25) [d5dfb9de]
7 Accurately Ripped (confidence 25) [fe8d2a96]
8 Accurately Ripped (confidence 25) [08c78aaa]
9 Accurately Ripped (confidence 25) [f47025dc]
10 Accurately Ripped (confidence 25) [7a9964cb]
11 Accurately Ripped (confidence 25) [2fe573f1]
12 Accurately Ripped (confidence 25) [c6db8f83]

_______________________

All Tracks Accurately Ripped.

Exact Audio Copy V0.99 prebeta 5 from 4. May 2009

EAC extraction logfile from 19. February 2010, 16:59

Joe Satriani / I Just Wanna Rock-Live In Paris [CD2]

Used drive : HP DVD Writer 1060r Adapter: 1 ID: 0

Read mode : Secure
Utilize accurate stream : Yes
Defeat audio cache : Yes
Make use of C2 pointers : No

Read offset correction : 6
Overread into Lead-In and Lead-Out : No
Fill up missing offset samples with silence : Yes
Delete leading and trailing silent blocks : No
Null samples used in CRC calculations : Yes
Used interface : Installed external ASPI interface

Used output format : Internal WAV Routines
Sample format : 44.100 Hz; 16 Bit; Stereo


TOC of the extracted CD

Track | Start | Length | Start sector | End sector
––––––––––––––––––––––––––––-
1 | 0:00.00 | 8:45.63 | 0 | 39437
2 | 8:45.63 | 6:06.27 | 39438 | 66914
3 | 14:52.15 | 6:49.14 | 66915 | 97603
4 | 21:41.29 | 6:31.12 | 97604 | 126940
5 | 28:12.41 | 6:42.34 | 126941 | 157124
6 | 34:55.00 | 5:52.42 | 157125 | 183566
7 | 40:47.42 | 9:01.20 | 183567 | 224161
8 | 49:48.62 | 6:15.69 | 224162 | 252355
9 | 56:04.56 | 3:26.64 | 252356 | 267869
10 | 59:31.45 | 8:04.62 | 267870 | 304231


Range status and errors

Selected range

Filename C:\Incoming\Joe Satriani\CD2\Joe Satriani - I Just Wanna Rock-Live In Paris [CD2].wav

Peak level 100.0 %
Range quality 100.0 %
Copy CRC 48A34A76
Copy OK

No errors occurred


AccurateRip summary

Track 1 not present in database
Track 2 not present in database
Track 3 not present in database
Track 4 not present in database
Track 5 not present in database
Track 6 not present in database
Track 7 not present in database
Track 8 not present in database
Track 9 not present in database
Track 10 not present in database

None of the tracks are present in the AccurateRip database

End of status report
________________________

Checking AccurateRip database (12.05.2011)

Track Ripping Status [Disc ID: 001a3f92-9d0fd80a]

1 Accurately Ripped (confidence 11) [0fefc9c9]
2 Accurately Ripped (confidence 11) [ad1fac0e]
3 Accurately Ripped (confidence 11) [7edbb2d4]
4 Accurately Ripped (confidence 11) [c0cfd0e6]
5 Accurately Ripped (confidence 11) [42745845]
6 Accurately Ripped (confidence 11) [db80b5ad]
7 Accurately Ripped (confidence 11) [0d6f6b06]
8 Accurately Ripped (confidence 11) [89f39c99]
9 Accurately Ripped (confidence 11) [5e88118e]
10 Accurately Ripped (confidence 11) [461865ee]

_______________________

All Tracks Accurately Ripped.

Thanks to taurus66