Subcategories

Joe Satriani, Eric Johnson, Steve Vai - G3: Live In Concert (1997) (Repost)

Posted By: gribovar
Joe Satriani, Eric Johnson, Steve Vai - G3: Live In Concert (1997) (Repost)

Joe Satriani, Eric Johnson, Steve Vai - G3: Live In Concert (1997)
EAC Rip | WavPack (image+.cue+log) - 560 MB | MP3 CBR 320 kbps (LAME 3.93) - 181 MB | Covers - 52 MB
Genre: Rock | RAR 3% Rec. | Label: Epic/Sony Music (487539 2)

G3: Live In Concert matches six-time Grammy Award nominee Joe Satriani with three-time Grammy nominee Steve Vai, and Grammy winner Eric Johnson. The group's 1996 North American tour, and features three tracks apiece by each of the guitarists as well as three no-holds-barred jams featuring all three axe-men. G3: Live In Concert is sure to please all lovers of guitar wizardry. This high-energy CD showcases the eclectic compositional skills of the three men, with tracks featuring everything from pumped-up fusion grooves to funk-infused rhythms and jazz-flavored numbers. Each tune, though, is really a vehicle for the soaring guitar pyrotechnics for which Vai, Satriani and Johnson are famous.
Tracklist:
01. Joe Satriani - Cool N9
02. Joe Satriani - Flying In A Blue Dream
03. Joe Satriani - Summer Song
04. Eric Johnson - Zap
05. Eric Johnson - Manhattan
06. Eric Johnson - Camel's Night Out
07. Steve Vai - Answers
08. Steve Vai - For The Love Of God
09. Steve Vai - The Attitude Song
10. Joe Satriani, Steve Vai, Eric Johnson - Going Down
11. Joe Satriani, Steve Vai, Eric Johnson - My Guitar Wants To Kill Your Mama
12. Joe Satriani, Steve Vai, Eric Johnson - Red House

Total time: 01:15:56

Exact Audio Copy V1.0 beta 2 from 29. April 2011

EAC extraction logfile from 29. May 2011, 16:28

Joe Satriani, Eric Johnson, Steve Vai / G3 - Live In Concert

Used drive : PLEXTOR CD-R PREMIUM Adapter: 1 ID: 0

Read mode : Secure
Utilize accurate stream : Yes
Defeat audio cache : Yes
Make use of C2 pointers : No

Read offset correction : 30
Overread into Lead-In and Lead-Out : No
Fill up missing offset samples with silence : Yes
Delete leading and trailing silent blocks : No
Null samples used in CRC calculations : Yes
Used interface : Installed external ASPI interface

Used output format : User Defined Encoder
Selected bitrate : 1024 kBit/s
Quality : High
Add ID3 tag : No
Command line compressor : C:\!tools\wavpack.exe
Additional command line options : -hlm %source%


TOC of the extracted CD

Track | Start | Length | Start sector | End sector
––––––––––––––––––––––––––––-
1 | 0:00.00 | 6:46.42 | 0 | 30491
2 | 6:46.42 | 5:59.05 | 30492 | 57421
3 | 12:45.47 | 6:29.65 | 57422 | 86661
4 | 19:15.37 | 6:06.35 | 86662 | 114146
5 | 25:21.72 | 5:16.15 | 114147 | 137861
6 | 30:38.12 | 5:57.15 | 137862 | 164651
7 | 36:35.27 | 6:57.70 | 164652 | 195996
8 | 43:33.22 | 7:46.70 | 195997 | 231016
9 | 51:20.17 | 5:15.48 | 231017 | 254689
10 | 56:35.65 | 5:46.70 | 254690 | 280709
11 | 62:22.60 | 5:21.05 | 280710 | 304789
12 | 67:43.65 | 9:11.57 | 304790 | 346171


Range status and errors

Selected range

Filename D:\CB_RAB\Joe Satriani, Eric Johnson, Steve Vai - 1997 - G3 Live In Concert\Joe Satriani, Eric Johnson, Steve Vai - 1997 - G3 Live In Concert.wav

Peak level 100.0 %
Extraction speed 11.5 X
Range quality 100.0 %
Test CRC 28F43F23
Copy CRC 28F43F23
Copy OK

No errors occurred


AccurateRip summary

Track 1 cannot be verified as accurate (confidence 70) [BC33CB82], AccurateRip returned [532F26E0] (AR v2)
Track 2 cannot be verified as accurate (confidence 70) [AF1B18CF], AccurateRip returned [50C627D3] (AR v2)
Track 3 cannot be verified as accurate (confidence 71) [9AB59509], AccurateRip returned [A6D0DA7F] (AR v2)
Track 4 cannot be verified as accurate (confidence 70) [355D5905], AccurateRip returned [8C8A5C42] (AR v2)
Track 5 cannot be verified as accurate (confidence 71) [6847C4D3], AccurateRip returned [A9C319F7] (AR v2)
Track 6 cannot be verified as accurate (confidence 70) [10E5DE66], AccurateRip returned [24B10A21] (AR v2)
Track 7 cannot be verified as accurate (confidence 70) [92A33269], AccurateRip returned [DA890F4D] (AR v2)
Track 8 cannot be verified as accurate (confidence 70) [F434255F], AccurateRip returned [F3157BB3] (AR v2)
Track 9 cannot be verified as accurate (confidence 68) [3ECA5688], AccurateRip returned [77AAAC0D] (AR v2)
Track 10 cannot be verified as accurate (confidence 68) [5431BF93], AccurateRip returned [367D0BA3] (AR v2)
Track 11 cannot be verified as accurate (confidence 68) [32AD3261], AccurateRip returned [AAB524C3] (AR v2)
Track 12 cannot be verified as accurate (confidence 69) [37B61818], AccurateRip returned [E5E5803B] (AR v2)

No tracks could be verified as accurate
You may have a different pressing from the one(s) in the database

End of status report

==== Log checksum B8AA20007F2631A86E045ADFB7EC03A7B8BD1EDE2F6CC6954E2BE1B8CBAA495B ====

[CUETools log; Date: 24.08.2011 11:38:32; Version: 2.0.9]
[AccurateRip ID: 0021a3c5-0139df45-ad12070c] found.
Track [ CRC ] Status
01 [0240eb02] (004/156) No match but offset
02 [75db6feb] (002/156) Accurately ripped
03 [32740875] (002/158) Accurately ripped
04 [489416e4] (002/160) Accurately ripped
05 [86ec57ae] (002/160) Accurately ripped
06 [a1dbb5cc] (002/159) Accurately ripped
07 [8440b893] (002/157) Accurately ripped
08 [e9758fb2] (002/157) Accurately ripped
09 [5ef46210] (002/155) Accurately ripped
10 [1adca19b] (002/157) Accurately ripped
11 [e8909192] (002/156) Accurately ripped
12 [d39dd1e8] (002/150) Accurately ripped
Offsetted by -695:
01 [45037e81] (004/156) Accurately ripped
02 [fa9ffbc9] (003/156) Accurately ripped
03 [7b0dae7a] (004/158) Accurately ripped
04 [051df713] (004/160) Accurately ripped
05 [481a53cb] (004/160) Accurately ripped
06 [821517f5] (004/159) Accurately ripped
07 [e1a0b113] (004/157) Accurately ripped
08 [39048872] (004/157) Accurately ripped
09 [a841d562] (004/155) Accurately ripped
10 [90a11f39] (004/157) Accurately ripped
11 [2f1b5ca2] (003/156) Accurately ripped
12 [23b269b1] (003/150) Accurately ripped
Offsetted by -31:
01 [faa04398] (059/156) Accurately ripped
02 [9a76348a] (058/156) Accurately ripped
03 [204089d2] (058/158) Accurately ripped
04 [7a45f660] (061/160) Accurately ripped
05 [9c7d0ac0] (060/160) Accurately ripped
06 [808305cb] (060/159) Accurately ripped
07 [5fd32473] (059/157) Accurately ripped
08 [651e588a] (058/157) Accurately ripped
09 [bd45456e] (059/155) Accurately ripped
10 [ccd47074] (060/157) Accurately ripped
11 [55b6fb0c] (060/156) Accurately ripped
12 [7bcf7db4] (055/150) Accurately ripped
Offsetted by 466:
01 [7a1fc13b] (002/156) Accurately ripped
02 [c95c414a] (002/156) Accurately ripped
03 [da10e191] (002/158) Accurately ripped
04 [cdd2064c] (002/160) Accurately ripped
05 [d77e5821] (002/160) Accurately ripped
06 [d82180c7] (002/159) Accurately ripped
07 [0ddc144a] (002/157) Accurately ripped
08 [53318d4f] (002/157) Accurately ripped
09 [173f4b7c] (002/155) Accurately ripped
10 [8861acb3] (002/157) Accurately ripped
11 [d358ee7c] (002/156) Accurately ripped
12 [98cd0604] (002/150) Accurately ripped
Offsetted by 628:
01 [532f26e0] (073/156) Accurately ripped
02 [50c627d3] (073/156) Accurately ripped
03 [a6d0da7f] (074/158) Accurately ripped
04 [8c8a5c42] (073/160) Accurately ripped
05 [a9c319f7] (074/160) Accurately ripped
06 [24b10a21] (073/159) Accurately ripped
07 [da890f4d] (073/157) Accurately ripped
08 [f3157bb3] (073/157) Accurately ripped
09 [77aaac0d] (071/155) Accurately ripped
10 [367d0ba3] (071/157) Accurately ripped
11 [aab524c3] (071/156) Accurately ripped
12 [e5e5803b] (072/150) Accurately ripped

Track Peak [ CRC32 ] [W/O NULL] [ LOG ]
– 99,9 [28F43F23] [5756650D] CRC32
01 99,9 [9177657D] [3B57391E]
02 99,9 [72F8A3B1] [34033A7C]
03 94,4 [853BA585] [0AE14231]
04 99,9 [435ADC3C] [79E27AB6]
05 99,9 [E41B7A04] [5F4B81F9]
06 99,9 [5D018DCA] [D63D5D11]
07 99,9 [64A6583C] [CB4C916E]
08 99,9 [EB974868] [B915B0E2]
09 99,9 [83426966] [93EA2D00]
10 99,9 [DF171196] [15136AB2]
11 99,9 [831D33D5] [0415DDA8]
12 99,9 [E2BF47A1] [A495BFED]

Thanks to triGada