Subcategories

Joe Satriani - Live In San Francisco (2001)

Posted By: uff
Joe Satriani - Live In San Francisco (2001)

Joe Satriani - Live In San Francisco (2001)
Rock | 2cd | EAC Rip | Flac + Cue + Log | covers
Epic, E2K 85737 | rel: 2001 | 1040Mb

Booked into San Francisco's Fillmore Auditorium and slated to film three songs for the venue's Live! at the Fillmore TV show, Joe Satriani decided to take the opportunity to record and film his show for a double CD and DVD. The audio version, clocking in at close to two-and-a-half hours, serves to create a thorough introduction to an artist who, up to this point, had not released a real compilation. The album presents concert recordings of material first heard on Satriani's previous studio releases: one from Not of This Earth (1986), four from Surfing With the Alien (1987), one from Dreaming #11 (1988), four from Flying in a Blue Dream (1989), two from The Extremist (1992), two from Time Machine (1993), one from Joe Satriani (1995), six from Crystal Planet (1998), and three from Engines of Creation (2000). The guitarist varies the pace, combining up-tempo hard rock tracks with more melodic medium-tempo numbers and even some lovely ballads. His vibrato-heavy, sustain-drenched playing remains consistent and identifiable no matter what the context, but despite his reputation as a high-speed riff technician his work can be surprisingly lyrical at times. His band – bass, drums, and a keyboard player who sometimes picks up a rhythm guitar – provides letter-perfect support, and Satriani draws considerable energy from an enraptured audience, making this an ideal sampler of the guitarist's work. Anyone who thinks of hard rock guitar playing as only one part of a complete musical palette, or who looks for more of a dynamic range in an instrumentalist, is likely to suffer from flagging attention before the two discs are over. But lovers of rock guitar in the Jimi Hendrix tradition will love this one as much as the fans in attendance did. ~Allmusic

Track listing
cd1:
01. Time (8:10)
02. Devil's Slide (4:44)
03. The Crush Of Love (5:04)
04. Satch Boogie (5:28)
05. Borg Sex (5:29)
06. Flying In A Blue Dream (6:41)
07. Ice 9 (4:54)
08. Cool #9 (6:16)
09. Circles (4:20)
10. Until We Say Goodbye (5:37)
11. Ceremony (5:57)
12. The Extremist (3:39)
13. Summer Song (8:46)
~ (75:07)

cd2:
01. House Full Of Bullets (6:56)
02. One Big Rush (4:06)
03. Raspberry Jam Delta-v (6:53)
04. Crystal Planet (6:02)
05. Love Thing (3:48)
06. Stu Hamm / Bass Solo (6:28)
07. The Mystical Potato Head Groove Thing (6:24)
08. Always With Me, Always With You (3:51)
09. Big Bad Moon (6:33)
10. Friends (4:08)
11. Surfing With The Alien (9:17)
12. Rubina (8:08)
~ (72:35)

Personnel
- Joe Satriani – Guitar, Harmonica, Vocals
- Jeff Campitelli – Percussion and Drums
- Stuart Hamm – Bass
- Eric Caudieux – Keyboards and rhythm guitar


Exact Audio Copy V0.99 prebeta 4 from 23. January 2008

EAC extraction logfile from 2. June 2009, 20:15

Joe Satriani / Live In San Francisco

Used drive : PLEXTOR DVDR PX-810SA Adapter: 5 ID: 1

Read mode : Secure
Utilize accurate stream : Yes
Defeat audio cache : Yes
Make use of C2 pointers : No

Read offset correction : 48
Overread into Lead-In and Lead-Out : No
Fill up missing offset samples with silence : Yes
Delete leading and trailing silent blocks : No
Null samples used in CRC calculations : Yes
Used interface : Installed external ASPI interface

Used output format : Internal WAV Routines
Sample format : 44.100 Hz; 16 Bit; Stereo


TOC of the extracted CD

Track | Start | Length | Start sector | End sector
––––––––––––––––––––––––––––-
1 | 0:00.00 | 8:10.17 | 0 | 36766
2 | 8:10.17 | 4:44.15 | 36767 | 58081
3 | 12:54.32 | 5:04.15 | 58082 | 80896
4 | 17:58.47 | 5:28.23 | 80897 | 105519
5 | 23:26.70 | 5:28.72 | 105520 | 130191
6 | 28:55.67 | 6:41.10 | 130192 | 160276
7 | 35:37.02 | 4:54.35 | 160277 | 182361
8 | 40:31.37 | 6:16.08 | 182362 | 210569
9 | 46:47.45 | 4:20.17 | 210570 | 230086
10 | 51:07.62 | 5:36.58 | 230087 | 255344
11 | 56:44.45 | 5:57.20 | 255345 | 282139
12 | 62:41.65 | 3:39.37 | 282140 | 298601
13 | 66:21.27 | 8:45.73 | 298602 | 338049


Range status and errors

Selected range

Filename I:\HQ_\Joe\Disc_1\Joe Satriani - Live In San Francisco.wav

Peak level 99.8 %
Range quality 100.0 %
Copy CRC 03E41272
Copy OK

No errors occurred

End of status report

–––––––––-
Exact Audio Copy V0.99 prebeta 4 from 23. January 2008

EAC extraction logfile from 2. June 2009, 20:25

Joe Satriani / Live In San Francisco

Used drive : PLEXTOR DVDR PX-810SA Adapter: 5 ID: 1

Read mode : Secure
Utilize accurate stream : Yes
Defeat audio cache : Yes
Make use of C2 pointers : No

Read offset correction : 48
Overread into Lead-In and Lead-Out : No
Fill up missing offset samples with silence : Yes
Delete leading and trailing silent blocks : No
Null samples used in CRC calculations : Yes
Used interface : Installed external ASPI interface

Used output format : Internal WAV Routines
Sample format : 44.100 Hz; 16 Bit; Stereo


TOC of the extracted CD

Track | Start | Length | Start sector | End sector
––––––––––––––––––––––––––––-
1 | 0:00.00 | 6:55.52 | 0 | 31176
2 | 6:55.52 | 4:06.10 | 31177 | 49636
3 | 11:01.62 | 6:53.30 | 49637 | 80641
4 | 17:55.17 | 6:02.35 | 80642 | 107826
5 | 23:57.52 | 3:48.00 | 107827 | 124926
6 | 27:45.52 | 6:28.00 | 124927 | 154026
7 | 34:13.52 | 6:24.23 | 154027 | 182849
8 | 40:38.00 | 3:50.60 | 182850 | 200159
9 | 44:28.60 | 6:32.62 | 200160 | 229621
10 | 51:01.47 | 4:07.55 | 229622 | 248201
11 | 55:09.27 | 9:17.08 | 248202 | 289984
12 | 64:26.35 | 8:08.17 | 289985 | 326601


Range status and errors

Selected range

Filename I:\HQ_\Joe\Disc_2\Joe Satriani - Live In San Francisco.wav

Peak level 95.9 %
Range quality 99.9 %
Copy CRC BA4E32C1
Copy OK

No errors occurred

End of status report



[CUETools log; Date: 2015.05.12. 14:29:44; Version: 2.1.4]
[CTDB TOCID: k__6aSZWJwm5Q08YHHEMdQNV2vM-] found.
Track | CTDB Status
1 | (48/48) Accurately ripped
2 | (48/48) Accurately ripped
3 | (48/48) Accurately ripped
4 | (48/48) Accurately ripped
5 | (48/48) Accurately ripped
6 | (48/48) Accurately ripped
7 | (48/48) Accurately ripped
8 | (48/48) Accurately ripped
9 | (48/48) Accurately ripped
10 | (46/48) Accurately ripped
11 | (48/48) Accurately ripped
12 | (48/48) Accurately ripped
13 | (47/48) Accurately ripped
[AccurateRip ID: 0024257b-01660fe5-c4119b0d] found.
Track [ CRC | V2 ] Status
01 [c14f3f87|41277ff7] (010+003/146) Accurately ripped
02 [2ea98604|0cd953d6] (010+003/146) Accurately ripped
03 [9717c9c5|0c4a8150] (010+003/146) Accurately ripped
04 [b7ec5bef|5c875dcb] (010+003/146) Accurately ripped
05 [0bc6fdc2|0885bb9d] (010+003/147) Accurately ripped
06 [a5adaf8a|b4e4612f] (010+003/147) Accurately ripped
07 [780fefcb|7ae57018] (010+003/147) Accurately ripped
08 [8ab8b902|442ed89b] (010+003/147) Accurately ripped
09 [cd8fee65|f5f488ce] (009+003/146) Accurately ripped
10 [8f34193b|e0e8ea79] (010+003/146) Accurately ripped
11 [fce23393|95fd6315] (010+003/143) Accurately ripped
12 [b7c22fc3|087f5528] (010+003/146) Accurately ripped
13 [4a2e8000|85e4ee4b] (009+003/140) Accurately ripped
Offsetted by -2822:
01 [47b618d9] (007/146) Accurately ripped
02 [9b7b9266] (007/146) Accurately ripped
03 [506c4a71] (007/146) Accurately ripped
04 [08297054] (007/146) Accurately ripped
05 [ac89ac45] (007/147) Accurately ripped
06 [77101c17] (007/147) Accurately ripped
07 [807d3a52] (007/147) Accurately ripped
08 [d5b3e645] (007/147) Accurately ripped
09 [e4332798] (007/146) Accurately ripped
10 [c168b1f2] (007/146) Accurately ripped
11 [14107a6b] (007/143) Accurately ripped
12 [d1b3d537] (007/146) Accurately ripped
13 [d234f163] (006/140) Accurately ripped
Offsetted by -2141:
01 [123f33b5] (038/146) Accurately ripped
02 [8298d643] (038/146) Accurately ripped
03 [f0d470cc] (038/146) Accurately ripped
04 [ec587210] (038/146) Accurately ripped
05 [9a04badf] (038/147) Accurately ripped
06 [183cd639] (038/147) Accurately ripped
07 [924f4018] (038/147) Accurately ripped
08 [8244a0b0] (038/147) Accurately ripped
09 [e8e0d618] (038/146) Accurately ripped
10 [0f08bcee] (038/146) Accurately ripped
11 [01517fd6] (036/143) Accurately ripped
12 [5c5c3f96] (038/146) Accurately ripped
13 [b3590b11] (037/140) Accurately ripped
Offsetted by -227:
01 [dfffff3e] (003/146) Accurately ripped
02 [6a9ec39f] (003/146) Accurately ripped
03 [8d086d23] (003/146) Accurately ripped
04 [30e66e9b] (003/146) Accurately ripped
05 [bbdb0202] (003/147) Accurately ripped
06 [18108485] (003/147) Accurately ripped
07 [2614f414] (003/147) Accurately ripped
08 [98bf8cfb] (003/147) Accurately ripped
09 [b9b03e6b] (003/146) Accurately ripped
10 [5300d20f] (003/146) Accurately ripped
11 [27736683] (003/143) Accurately ripped
12 [168d48d6] (003/146) Accurately ripped
13 [6f581d09] (003/140) Accurately ripped
Offsetted by -8:
01 [bc32385d] (011/146) Accurately ripped
02 [5ff8e091] (010/146) Accurately ripped
03 [3a5df84c] (011/146) Accurately ripped
04 [fa2ea7e3] (011/146) Accurately ripped
05 [dab2d9a3] (011/147) Accurately ripped
06 [54cfb139] (011/147) Accurately ripped
07 [56507b64] (011/147) Accurately ripped
08 [c11568d4] (011/147) Accurately ripped
09 [f7e05cd8] (011/146) Accurately ripped
10 [8e7ef06b] (011/146) Accurately ripped
11 [258c4ea9] (010/143) Accurately ripped
12 [ea25499f] (011/146) Accurately ripped
13 [c48a10aa] (011/140) Accurately ripped
Offsetted by 488:
01 [f73d9f17] (005/146) Accurately ripped
02 [d4e0f0b4] (005/146) Accurately ripped
03 [f311118b] (005/146) Accurately ripped
04 [b8c4ba53] (005/146) Accurately ripped
05 [fa289ff8] (005/147) Accurately ripped
06 [c6675a6b] (005/147) Accurately ripped
07 [12363d64] (005/147) Accurately ripped
08 [16eb9241] (005/147) Accurately ripped
09 [5bc0807b] (005/146) Accurately ripped
10 [c2b3ff15] (005/146) Accurately ripped
11 [0dae3192] (005/143) Accurately ripped
12 [dd5fb5bf] (005/146) Accurately ripped
13 [b3097ca8] (005/140) Accurately ripped
Offsetted by 489:
01 [f66ceb43] (020/146) Accurately ripped
02 [aa2dbfa0] (020/146) Accurately ripped
03 [9e58ef6c] (020/146) Accurately ripped
04 [030042ea] (020/146) Accurately ripped
05 [46d61468] (020/147) Accurately ripped
06 [cddd0811] (020/147) Accurately ripped
07 [4dfbd93f] (020/147) Accurately ripped
08 [b556d39b] (020/147) Accurately ripped
09 [9de95e38] (020/146) Accurately ripped
10 [487e8f82] (019/146) Accurately ripped
11 [55e9cea3] (019/143) Accurately ripped
12 [c084ae93] (019/146) Accurately ripped
13 [58e8f0d9] (016/140) Accurately ripped
Offsetted by 928:
01 [aa1a2222] (008/146) Accurately ripped
02 [6e60f405] (008/146) Accurately ripped
03 [ff76b9d6] (008/146) Accurately ripped
04 [1d09d326] (008/146) Accurately ripped
05 [1809ccf7] (008/147) Accurately ripped
06 [f91fbff6] (008/147) Accurately ripped
07 [79208013] (008/147) Accurately ripped
08 [56d03cfd] (008/147) Accurately ripped
09 [f781dee5] (008/146) Accurately ripped
10 [97233515] (008/146) Accurately ripped
11 [ee80de05] (008/143) Accurately ripped
12 [f36a9170] (008/146) Accurately ripped
13 [156a458f] (008/140) Accurately ripped
Offsetted by 1103:
01 [946c8e4b] (002/146) Accurately ripped
02 [9f954702] (002/146) Accurately ripped
03 [446d4bd7] (002/146) Accurately ripped
04 [0e2d06a8] (002/146) Accurately ripped
05 [b6894db5] (002/147) Accurately ripped
06 [6f30c93c] (002/147) Accurately ripped
07 [f26c8e8a] (002/147) Accurately ripped
08 [dca97474] (002/147) Accurately ripped
09 [1ccacda3] (002/146) Accurately ripped
10 [a4f250d2] (002/146) Accurately ripped
11 [2cac5199] (002/143) Accurately ripped
12 [967ede8d] (002/146) Accurately ripped
13 [2ba354f9] (002/140) Accurately ripped

Track Peak [ CRC32 ] [W/O NULL] [ LOG ]
– 99,8 [03E41272] [B71DA379] CRC32
01 95,6 [09C6CD4C] [E462D7B5]
02 95,1 [7758F07E] [34EBF4B8]
03 95,8 [F6D8BAE9] [6DA1B3D9]
04 95,4 [59593FF6] [69586993]
05 99,8 [C9130262] [6C36951B]
06 95,8 [980C2CCD] [EDC571A3]
07 96,4 [5CD9445E] [D02B4196]
08 95,6 [F2A8909E] [6E621BC7]
09 95,2 [AC2E4008] [BEE39043]
10 95,4 [CF7A493F] [BD3D7754]
11 95,2 [8292BFC9] [2CAE8B55]
12 95,3 [637AB425] [869D5937]
13 95,5 [44EFD478] [8F19FB5B]

––––-
[CUETools log; Date: 2015.05.12. 14:31:20; Version: 2.1.4]
[CTDB TOCID: 6Gt0AiOc4PpGVFJbL0Apik4R_BY-] found.
Track | CTDB Status
1 | (48/48) Accurately ripped
2 | (48/48) Accurately ripped
3 | (48/48) Accurately ripped
4 | (48/48) Accurately ripped
5 | (48/48) Accurately ripped
6 | (48/48) Accurately ripped
7 | (48/48) Accurately ripped
8 | (48/48) Accurately ripped
9 | (48/48) Accurately ripped
10 | (48/48) Accurately ripped
11 | (48/48) Accurately ripped
12 | (48/48) Accurately ripped
[AccurateRip ID: 001ee8ba-0120a6b8-a311020c] found.
Track [ CRC | V2 ] Status
01 [708be1ad|9a0a2322] (021+006/143) Accurately ripped
02 [a0a25513|f381d8fd] (021+006/144) Accurately ripped
03 [73c3fb61|9c871a9b] (021+006/142) Accurately ripped
04 [59caf356|fc76a82a] (021+006/142) Accurately ripped
05 [29431e59|b88c3d27] (021+006/142) Accurately ripped
06 [209eddc7|06502ae0] (020+006/140) Accurately ripped
07 [54032570|f33881b6] (021+006/142) Accurately ripped
08 [570b7070|8dbb1f94] (021+006/142) Accurately ripped
09 [a3605300|1db2f6af] (021+006/142) Accurately ripped
10 [1264b80c|1d4db290] (021+006/141) Accurately ripped
11 [378e1364|e6301ca9] (019+006/136) Accurately ripped
12 [ea0e883e|c67d38fd] (020+006/138) Accurately ripped
Offsetted by -2315:
01 [d9461950] (005/143) Accurately ripped
02 [8a12bc90] (006/144) Accurately ripped
03 [3912b922] (006/142) Accurately ripped
04 [0dab02c2] (006/142) Accurately ripped
05 [911fbcc4] (006/142) Accurately ripped
06 [269efcbf] (006/140) Accurately ripped
07 [a693e6a1] (006/142) Accurately ripped
08 [9111b0c0] (006/142) Accurately ripped
09 [19a35da4] (006/142) Accurately ripped
10 [46c4abae] (006/141) Accurately ripped
11 [2b05f44a] (006/136) Accurately ripped
12 [bb482106] (006/138) Accurately ripped
Offsetted by -1924:
01 [bb4fcbc4] (003/143) Accurately ripped
02 [96e3e4f8] (003/144) Accurately ripped
03 [f7b96e91] (003/142) Accurately ripped
04 [93522dcb] (003/142) Accurately ripped
05 [bcd35f75] (003/142) Accurately ripped
06 [31a9b127] (003/140) Accurately ripped
07 [3052e9ad] (003/142) Accurately ripped
08 [40a01512] (003/142) Accurately ripped
09 [8f8ae1c8] (003/142) Accurately ripped
10 [1091f14c] (003/141) Accurately ripped
11 [3185e8b3] (003/136) Accurately ripped
12 [4abf2327] (003/138) Accurately ripped
Offsetted by -1634:
01 [3c85b66a] (036/143) Accurately ripped
02 [e2a3cf8c] (036/144) Accurately ripped
03 [0607167c] (036/142) Accurately ripped
04 [f3c8e25c] (036/142) Accurately ripped
05 [8d306b59] (036/142) Accurately ripped
06 [f9f90c93] (036/140) Accurately ripped
07 [a2c92ccf] (036/142) Accurately ripped
08 [3c326ea0] (037/142) Accurately ripped
09 [c89195e4] (037/142) Accurately ripped
10 [ce60dcdd] (036/141) Accurately ripped
11 [90d148a7] (035/136) Accurately ripped
12 [ee4da50e] (036/138) Accurately ripped
Offsetted by -1030:
01 [de5a29fe] (003/143) Accurately ripped
02 [b12d5cdf] (003/144) Accurately ripped
03 [cc92b5b7] (003/142) Accurately ripped
04 [76c6d442] (003/142) Accurately ripped
05 [dd3ee791] (003/142) Accurately ripped
06 [a6dd62a7] (003/140) Accurately ripped
07 [d27c1c7e] (003/142) Accurately ripped
08 [347b4dc7] (003/142) Accurately ripped
09 [541ef7c1] (003/142) Accurately ripped
10 [a0b59d05] (003/141) Accurately ripped
11 [5aafca3e] (003/136) Accurately ripped
12 [344b8598] (003/138) Accurately ripped
Offsetted by -799:
01 [ae2c6da7] (009/143) Accurately ripped
02 [5f0d66f6] (009/144) Accurately ripped
03 [deda4f6e] (009/142) Accurately ripped
04 [fa03a6db] (009/142) Accurately ripped
05 [621e5e1b] (009/142) Accurately ripped
06 [dc990b1f] (009/140) Accurately ripped
07 [b11d6c67] (009/142) Accurately ripped
08 [1c42afff] (009/142) Accurately ripped
09 [4654aa62] (009/142) Accurately ripped
10 [d804d815] (009/141) Accurately ripped
11 [52919e6d] (009/136) Accurately ripped
12 [da699290] (008/138) Accurately ripped
Offsetted by -487:
01 [95de5656] (002/143) Accurately ripped
02 [fa794c44] (002/144) Accurately ripped
03 [187e7f12] (002/142) Accurately ripped
04 [52d9ad99] (002/142) Accurately ripped
05 [fe557973] (002/142) Accurately ripped
06 [13008098] (002/140) Accurately ripped
07 [5d21bd5d] (002/142) Accurately ripped
08 [cd1c7e1f] (002/142) Accurately ripped
09 [0ca32f6a] (002/142) Accurately ripped
10 [a2793bcf] (002/141) Accurately ripped
11 [73bc942d] (002/136) Accurately ripped
12 [bce8e8f4] (002/138) Accurately ripped
Offsetted by -449:
01 [08321e5b] (021/143) Accurately ripped
02 [cc6d29bd] (021/144) Accurately ripped
03 [130e80ec] (020/142) Accurately ripped
04 [e257182d] (020/142) Accurately ripped
05 [ce529ae5] (020/142) Accurately ripped
06 [4e2e66ff] (020/140) Accurately ripped
07 [3393e429] (020/142) Accurately ripped
08 [eac15223] (019/142) Accurately ripped
09 [0255c12a] (019/142) Accurately ripped
10 [3cc5a80a] (019/141) Accurately ripped
11 [7a42a42f] (018/136) Accurately ripped
12 [5127e248] (018/138) Accurately ripped

Track Peak [ CRC32 ] [W/O NULL] [ LOG ]
– 95,9 [BA4E32C1] [2C407587] CRC32
01 95,2 [EF799ACF] [EF2743E6]
02 95,2 [52ADACB2] [AE23B9FC]
03 95,9 [6E8A8755] [ACA5C217]
04 95,3 [0DBD2008] [9F3D3B0D]
05 95,9 [DB3A1B92] [8770076D]
06 94,9 [D6471C6C] [A95CCA12]
07 95,3 [8DEF5D1C] [DB71CE6C]
08 95,2 [72C46DCC] [670B7502]
09 95,4 [CBB20987] [94A0EDF1]
10 95,2 [E08B203E] [46961EEA]
11 95,4 [DA05943B] [EBB121CE]
12 95,2 [E79F2266] [ECC29B6B]


original uploader unknown, found in my archive
Neodrive

password: asd