Subcategories

Joe Bonamassa - Albums Collection 2000-2012 (17CD) [Re-Up]

Posted By: Designol
Joe Bonamassa - Albums Collection 2000-2012 (17CD) [Re-Up]

Joe Bonamassa - Albums Collection 2000-2012 (17CD)
EAC | FLAC | Image (Cue&Log) ~ 6.5 Gb (incl 5%) | Mp3 (CBR320) ~ 2.3 Gb (incl 5%) | Time: 16:19:07
Blues Rock, Hard Rock | Label: J&R Adventures | Complete Scans ~ 5.7 Gb

Collection includes 10 studio albums and 4 live albums by American blues-rock guitar virtuoso Joe Bonamassa.

Guitar mastermind Joe Bonamassa, a young player with the childhood dream of playing music similar to legends like Stevie Ray Vaughan, Eric Clapton, and Jimi Hendrix, was 22 when he inked a deal with Epic. Hailing from Utica, New York, Bonamassa could play the blues before he could drive a car. He first heard Stevie Ray Vaughan at age four and was instantly taken by Vaughan's high-powered playing. At age eight, he opened for B.B. King, and at age 12, he was playing regularly around upstate New York. It was soon thereafter that Bonamassa hooked up with the band Bloodline, which featured other musicians' sons: Waylon Krieger (Robby Krieger's son), Erin Davis (Miles Davis' drummer kid), and Berry Oakley, Jr. (son of the Allman Brothers bassist). Bloodline released a self-titled album, but Bonamassa wanted to move on. In summer 2000 he guested for Roger McGuinn on Jethro Tull's summer tour, later releasing his debut solo album, A New Day Yesterday. Produced by longtime fan Tom Dowd, the album marked a move toward a more organic and rock-sounding direction. He put together a power trio with drummer Kenny Kramme and bassist Eric Czar and hit the road to support the album.

Upon returning from the road, he hooked up with Dowd to record the muscular and sweeping studio disc So, It's Like That and released a document of the tour, A New Day Yesterday Live. The following year, Bonamassa put out Blues Deluxe, featuring nine cover versions of blues classics alongside three originals. The muscular You & Me appeared in 2006, followed by the more acoustic-tinged Sloe Gin in 2007. A year later, Bonamassa released the two-disc live album Live from Nowhere in Particular, followed in 2009 by The Ballad of John Henry. Late in 2009 he released the DVD Live from the Royal Albert Hall with guest spots from Eric Clapton and Paul Jones. In 2010, the guitarist released his first disc for the Premier Artists label, Black Rock, featuring a guest appearance by B.B. King. It was followed by the debut album from Black Country Communion, a blues-rock supergroup that put him in the company of bassist/vocalist Glenn Hughes, drummer Jason Bonham, and keyboardist Derek Sherinian. Bonamassa, ever the overachiever, released his earthy Dust Bowl in March of 2011, followed by Black Country Communion's 2 in June and by his unique collaboration with vocalist Beth Hart on a searing collection of soul covers entitled Don't Explain in September.

In May of 2012, Bonamassa released Driving Towards the Daylight. The album reunited the guitarist with producer Kevin Shirley, who brought in Aerosmith's Brad Whitford to play rhythm guitar on the 11 tracks. Driving Towards the Daylight was a significant blues hit – it topped the Billboard blues charts and debuted at number two on the overall British charts – and Bonamassa didn't slow down. Early in 2013, he released a live CD/DVD set called An Acoustic Evening at the Vienna Opera House and prepared SeeSaw, a studio album of classic covers with vocalist Beth Hart. SeeSaw was released later in 2013, and Bonamassa and Hart followed it up with Live in Amsterdam in March of 2014.

Biography by MacKenzie Wilson, Allmusic.com

Joe Bonamassa - Albums Collection 2000-2012 (17CD) [Re-Up]

Joe Bonamassa - Albums Collection 2000-2012 (17CD) [Re-Up]





Joe Bonamassa - Albums Collection 2000-2012 (17CD) [Re-Up]

Joe Bonamassa - A New Day Yesterday (2000) Issue 2004
EAC | FLAC | Image (Cue&Log) ~ 449 Mb (incl 5%) | Mp3 (CBR320) ~ 148 Mb (incl 5%)
Label: J&R Adventures | # 60027 | Time: 01:01:49 | Complete PNG Scans ~ 198 Mb

Named after the early Jethro Tull classic, which he expertly covers here in a jaw-dropping performance, A New Day Yesterday is a fine debut by guitar ace Joe Bonamassa. And though his record company tried to ride the coattails of teenage guitar prodigies like Kenny Wayne Shepard and Jonny Lang and position him (misguidedly and much too late) as a straight-up prodigal blues kid, Bonamassa is really much more than a traditional bluesman. Rather, as best exemplified by the Jethro Tull number cited above, his bluesy take on Free's "Walk in My Shadows," or his hard boogie romp through Al Kooper's "Nuthin' I Wouldn't Do (For a Woman Like You)," this excellent debut places the guitarist's influences as much in classic '70s hard rock as in the blues. Along with his deceptively age-wearied vocals (he was only 22 at the time of this recording), this unusual combination translates into the aggressive, soulful crunch heard on Bonamassa's many original compositions. Among these, the jolting double whammy of "Miss You, Hate You" and "Colour and the Shape" (note the Anglicized spelling) are the most obvious standouts, but the guitarist also makes the Warren Haynes-penned "If Heartaches Were Nickels" his own with a tense, riveting performance. All in all, a promising debut.

Review by Eduardo Rivadavia, Allmusic.com

Tracklist:

01. Cradle Rock - 3:51
02. Walk In My Shadows - 3:27
03. A New Day Yesterday - 4:45
04. I Know Where I Belong - 5:38
05. Miss You, Hate You (Rock Radio Remix) - 3:40
06. Nuthin' I Wouldn't Do (For A Woman Like You) - 5:10
07. Colour And Shape - 5:03
08. Headaches To Heartbreaks - 4:56
09. Trouble Waiting - 3:26
10. If Heartaches Were Nickels - 7:51
11. Current Situation - 3:36
12. Don't Burn Down That Bridge - 4:21
13. Miss You, Hate You (Original Full-Lenght Version - Bonus Track) - 6:05


Exact Audio Copy V1.0 beta 1 from 15. November 2010

EAC extraction logfile from 24. January 2012, 22:41

Joe Bonamassa / A New Day Yesterday

Used drive : Optiarc DVD RW AD-5200S Adapter: 2 ID: 0

Read mode : Secure
Utilize accurate stream : Yes
Defeat audio cache : Yes
Make use of C2 pointers : No

Read offset correction : 48
Overread into Lead-In and Lead-Out : No
Fill up missing offset samples with silence : Yes
Delete leading and trailing silent blocks : No
Null samples used in CRC calculations : Yes
Used interface : Native Win32 interface for Win NT & 2000

Used output format : User Defined Encoder
Selected bitrate : 1024 kBit/s
Quality : High
Add ID3 tag : No
Command line compressor : C:\Program Files (x86)\Exact Audio Copy\FLAC\FLAC.EXE
Additional command line options : -8 -V %s


TOC of the extracted CD

Track | Start | Length | Start sector | End sector
––––––––––––––––––––––––––––-
1 | 0:00.00 | 3:50.67 | 0 | 17316
2 | 3:50.67 | 3:27.21 | 17317 | 32862
3 | 7:18.13 | 4:45.11 | 32863 | 54248
4 | 12:03.24 | 5:38.27 | 54249 | 79625
5 | 17:41.51 | 3:39.45 | 79626 | 96095
6 | 21:21.21 | 5:10.17 | 96096 | 119362
7 | 26:31.38 | 5:03.04 | 119363 | 142091
8 | 31:34.42 | 4:56.28 | 142092 | 164319
9 | 36:30.70 | 3:25.39 | 164320 | 179733
10 | 39:56.34 | 7:51.08 | 179734 | 215066
11 | 47:47.42 | 3:35.43 | 215067 | 231234
12 | 51:23.10 | 4:21.29 | 231235 | 250838
13 | 55:44.39 | 6:04.55 | 250839 | 278193


Range status and errors

Selected range

Filename G:\Download\Музыка LossLess\Joe Bonamassa\Studio albums\1 - Joe Bonamassa - A New Day Yesterday (2000) [J&R Adventures - 60027]\Joe Bonamassa - A New Day Yesterday.wav

Peak level 99.8 %
Extraction speed 0.3 X
Range quality 99.9 %
Test CRC 33264F44
Copy CRC 33264F44
Copy OK

No errors occurred


AccurateRip summary

Track 1 cannot be verified as accurate (confidence 29) [2F8DE623], AccurateRip returned [31455035]
Track 2 accurately ripped (confidence 3) [33B23DB8]
Track 3 accurately ripped (confidence 3) [C0DCBC42]
Track 4 accurately ripped (confidence 3) [99C3B81F]
Track 5 accurately ripped (confidence 3) [CD67F32D]
Track 6 accurately ripped (confidence 3) [8301BA19]
Track 7 accurately ripped (confidence 3) [8393B43A]
Track 8 accurately ripped (confidence 3) [EE753F11]
Track 9 accurately ripped (confidence 3) [19F72ECE]
Track 10 accurately ripped (confidence 3) [08155C5A]
Track 11 accurately ripped (confidence 3) [33AEBF90]
Track 12 accurately ripped (confidence 3) [E076478C]
Track 13 accurately ripped (confidence 3) [7A12A36C]

12 track(s) accurately ripped
1 track(s) could not be verified as accurate

Some tracks could not be verified as accurate

End of status report




Joe Bonamassa - Albums Collection 2000-2012 (17CD) [Re-Up]

Joe Bonamassa - A New Day Yesterday Live (2002) Issue 2004
EAC | FLAC | Image (Cue&Log) ~ 486 Mb (incl 5%) | Mp3 (CBR320) ~ 170 Mb (incl 5%)
Label: J&R Adventures | # 60059 | Time: 01:11:02 | Complete PNG Scans ~ 186 Mb

Something of an odd release, A New Day Yesterday Live documents the final date of a 60-day jaunt during blues guitar prodigy Joe Bonamassa's 2001 tour in support of his major-label debut bearing the same title, and (this is the odd part), released just a few months earlier. Just why his record company felt the need for it, then, is up for grabs (more promotion…thinking Bonamassa's virtuosity came across stronger in a live setting…who knows?), but what's clear is that the young guitarist's trio lacked nothing in terms of on-stage presence and performing tightness as compared to what was heard on said studio album. Their kinetic reinventions of oft-overlooked '70s rock classics such as Free's "Walk in My Shadows" and Jethro Tull's "A New Day Yesterday" instantly distinguish Bonamassa from teenage blues competitors such as the overly Stevie Ray Vaughan-reliant Kenny Wayne Shepherd or the more purist (and technically less dazzling) Jonny Lang, and his better-conceived originals ("Colour & Shape," the wonderful "Miss You Hate You") stand up under any circumstance – but again, so what? Didn't listeners just buy their studio versions a few months ago? Yes, there's the additional benefit of extended jamming and incendiary guitar soloing to expand upon their themes, but suffice to say that this set need only be sought out by Bonamassa fanatics, or, in the event that they've yet to hear the studio version, first timers, too – why not?

Review by Eduardo Rivadavia, Allmusic.com

Tracklist:

01. Jam Intro - 3:21
02. Cradle Rock - 3:38
03. Steppin Out/Rice Pudding - 5:32
04. A New Day Yesterday - 8:05
05. Miss You, Hate You - 7:20
06. Walk In My Shadows - 5:57
07. I Know Where I Belong - 10:14
08. Colour & Shape - 6:13
09. Trouble Waiting - 4:37
10. If Heartaches Were Nickels - 7:43
11. Dont Burn Down That Bridge - 8:22


Exact Audio Copy V1.0 beta 1 from 15. November 2010

EAC extraction logfile from 24. January 2012, 23:58

Joe Bonamassa / A New Day Yesterday Live

Used drive : Optiarc DVD RW AD-5200S Adapter: 2 ID: 0

Read mode : Secure
Utilize accurate stream : Yes
Defeat audio cache : Yes
Make use of C2 pointers : No

Read offset correction : 48
Overread into Lead-In and Lead-Out : No
Fill up missing offset samples with silence : Yes
Delete leading and trailing silent blocks : No
Null samples used in CRC calculations : Yes
Used interface : Native Win32 interface for Win NT & 2000

Used output format : User Defined Encoder
Selected bitrate : 1024 kBit/s
Quality : High
Add ID3 tag : No
Command line compressor : C:\Program Files (x86)\Exact Audio Copy\FLAC\FLAC.EXE
Additional command line options : -8 -V %s


TOC of the extracted CD

Track | Start | Length | Start sector | End sector
––––––––––––––––––––––––––––-
1 | 0:00.00 | 3:21.06 | 0 | 15080
2 | 3:21.06 | 3:37.53 | 15081 | 31408
3 | 6:58.59 | 5:31.49 | 31409 | 56282
4 | 12:30.33 | 8:05.20 | 56283 | 92677
5 | 20:35.53 | 7:20.03 | 92678 | 125680
6 | 27:55.56 | 5:57.02 | 125681 | 152457
7 | 33:52.58 | 10:14.27 | 152458 | 198534
8 | 44:07.10 | 6:12.58 | 198535 | 226492
9 | 50:19.68 | 4:36.73 | 226493 | 247265
10 | 54:56.66 | 7:42.60 | 247266 | 281975
11 | 62:39.51 | 8:22.17 | 281976 | 319642


Range status and errors

Selected range

Filename G:\Download\Музыка LossLess\Joe Bonamassa\Live albums\2002 - Joe Bonamassa - A New Day Yesterday Live [2004, J&R Adventures - 60059]\Joe Bonamassa - A New Day Yesterday Live.wav

Peak level 100.0 %
Extraction speed 0.5 X
Range quality 100.0 %
Test CRC 11B7D58A
Copy CRC 11B7D58A
Copy OK

No errors occurred


AccurateRip summary

Track 1 cannot be verified as accurate (confidence 33) [1716DA72], AccurateRip returned [115D6AC1]
Track 2 cannot be verified as accurate (confidence 33) [BE0581E3], AccurateRip returned [6283D0C8]
Track 3 cannot be verified as accurate (confidence 32) [721ED009], AccurateRip returned [C0FF3ABF]
Track 4 cannot be verified as accurate (confidence 32) [9558881D], AccurateRip returned [46E3681B]
Track 5 cannot be verified as accurate (confidence 32) [5FA4F3BB], AccurateRip returned [E617F0B4]
Track 6 cannot be verified as accurate (confidence 32) [9431FC40], AccurateRip returned [954AED58]
Track 7 cannot be verified as accurate (confidence 33) [302F0E7C], AccurateRip returned [2A2D2B81]
Track 8 cannot be verified as accurate (confidence 31) [98F770EB], AccurateRip returned [52A15C30]
Track 9 cannot be verified as accurate (confidence 31) [71C28033], AccurateRip returned [F8D9302A]
Track 10 cannot be verified as accurate (confidence 29) [C138EBB6], AccurateRip returned [0079EC2E]
Track 11 cannot be verified as accurate (confidence 27) [854A66AC], AccurateRip returned [47084D75]

No tracks could be verified as accurate
You may have a different pressing from the one(s) in the database

End of status report




Joe Bonamassa - Albums Collection 2000-2012 (17CD) [Re-Up]

Joe Bonamassa - So, It's Like That (2002) Issue 2004
EAC | FLAC | Image (Cue&Log) ~ 470 Mb (incl 5%) | Mp3 (CBR320) ~ 149 Mb (incl 5%)
Label: J&R Adventures | # 60101 | Time: 01:02:02 | Complete PNG Scans ~ 248 Mb

Joe Bonamassa may well be a young guitar virtuoso, in line with the likes of Derek Trucks and John Mayer (like Jonny Lang and Kenny Wayne Shepherd before them) to be the Next Blues-Rock Guitar Hero. Unfortunately, he's not much of a songwriter. So, It's Like That, his sophomore solo effort, is filled with subpar tunes bloated with clichés. The production (by Clif Magness) is swell enough, though Bonamassa's guitar sometimes sounds too carefully dirty, and his band – comprised of drummer Kenny Kramme and bassist Eric Czar – far too generic. Bonamassa shines when he is allowed to stretch out and explore, on songs such as the sonically varied "Pain and Sorrow." There, on a long improvisation, he works through myriad modes of playing, textures, and musical ideas. And, since it is one of the album's only extended tracks, it is also one of the album's only redeeming moments – and the only thing that clearly separates Bonamassa from generic boorishness.

Review by Jesse Jarnow, Allmusic.com

Tracklist:

01. My Mistake - 4:53
02. Lie #1 - 4:22
03. No Slack - 5:05
04. Unbroken - 3:49
05. So, It's Like That - 2:49
06. Waiting For Me - 3:54
07. Never Say Goodbye - 3:32
08. Mountain Time - 3:42
09. Pain And Sorrow - 10:37
10. Takin' The Hit - 4:44
11. Under The Radar - 3:20
12. Sick In Love - 3:25
13. The Hard Way - 7:49


Exact Audio Copy V1.0 beta 1 from 15. November 2010

EAC extraction logfile from 25. January 2012, 7:51

Joe Bonamassa / So, It's Like That

Used drive : Optiarc DVD RW AD-5200S Adapter: 2 ID: 0

Read mode : Secure
Utilize accurate stream : Yes
Defeat audio cache : Yes
Make use of C2 pointers : No

Read offset correction : 48
Overread into Lead-In and Lead-Out : No
Fill up missing offset samples with silence : Yes
Delete leading and trailing silent blocks : No
Null samples used in CRC calculations : Yes
Used interface : Native Win32 interface for Win NT & 2000

Used output format : User Defined Encoder
Selected bitrate : 1024 kBit/s
Quality : High
Add ID3 tag : No
Command line compressor : C:\Program Files (x86)\Exact Audio Copy\FLAC\FLAC.EXE
Additional command line options : -8 -V %s


TOC of the extracted CD

Track | Start | Length | Start sector | End sector
––––––––––––––––––––––––––––-
1 | 0:00.00 | 4:53.10 | 0 | 21984
2 | 4:53.10 | 4:22.22 | 21985 | 41656
3 | 9:15.32 | 5:05.30 | 41657 | 64561
4 | 14:20.62 | 3:48.50 | 64562 | 81711
5 | 18:09.37 | 2:49.28 | 81712 | 94414
6 | 20:58.65 | 3:53.52 | 94415 | 111941
7 | 24:52.42 | 3:32.18 | 111942 | 127859
8 | 28:24.60 | 3:41.67 | 127860 | 144501
9 | 32:06.52 | 10:36.70 | 144502 | 192271
10 | 42:43.47 | 4:43.73 | 192272 | 213569
11 | 47:27.45 | 3:20.15 | 213570 | 228584
12 | 50:47.60 | 3:24.72 | 228585 | 243956
13 | 54:12.57 | 7:49.00 | 243957 | 279131


Range status and errors

Selected range

Filename G:\Download\Музыка LossLess\Joe Bonamassa\Studio albums\2002 - Joe Bonamassa - So, It's Like That [2004, J&R Adventures - 60101]\Joe Bonamassa - So, It's Like That.wav

Peak level 100.0 %
Extraction speed 0.5 X
Range quality 99.9 %
Test CRC 4CDB5FDD
Copy CRC 4CDB5FDD
Copy OK

No errors occurred


AccurateRip summary

Track 1 cannot be verified as accurate (confidence 30) [A3617D8D], AccurateRip returned [B3D2C1D9]
Track 2 cannot be verified as accurate (confidence 30) [7E289D1C], AccurateRip returned [195904D8]
Track 3 cannot be verified as accurate (confidence 28) [BD9761A1], AccurateRip returned [C0F0A279]
Track 4 cannot be verified as accurate (confidence 29) [FC229910], AccurateRip returned [4FD956AA]
Track 5 cannot be verified as accurate (confidence 30) [DD8B78C7], AccurateRip returned [AAFBFBB3]
Track 6 cannot be verified as accurate (confidence 29) [A179F753], AccurateRip returned [CD8C2C95]
Track 7 cannot be verified as accurate (confidence 29) [8A714173], AccurateRip returned [9649E485]
Track 8 cannot be verified as accurate (confidence 30) [BA766800], AccurateRip returned [1107F70E]
Track 9 cannot be verified as accurate (confidence 29) [F459021E], AccurateRip returned [BD441DFE]
Track 10 cannot be verified as accurate (confidence 31) [D846A0B0], AccurateRip returned [DEC02A18]
Track 11 cannot be verified as accurate (confidence 28) [1AC72153], AccurateRip returned [E2A812CB]
Track 12 cannot be verified as accurate (confidence 27) [EFC1D1B9], AccurateRip returned [0B845657]
Track 13 cannot be verified as accurate (confidence 27) [AD13E9F7], AccurateRip returned [7459D382]

No tracks could be verified as accurate
You may have a different pressing from the one(s) in the database

End of status report




Joe Bonamassa - Albums Collection 2000-2012 (17CD) [Re-Up]

Joe Bonamassa - Blues Deluxe (2003) Issue 2004
EAC | FLAC | Image (Cue&Log) ~ 364 Mb (incl 5%) | Mp3 (CBR320) ~ 123 Mb (incl 5%)
Label: J&R Adventures | # 60229 | Time: 00:51:26 | Complete PNG Scans ~ 218 Mb

Joe Bonamassa's first solo release in 2000, A New Day Yesterday, paid homage to classic '70s blues/hard rock. Three years later, with the release of Blues Deluxe, the young guitarist is doing the same with the roots of the blues. Eight of the 12 tracks are covers: B.B. King's "You Upset Me Baby," John Lee Hooker's "Burning Hell," Buddy Guy's "Man of Many Words," Elmore James' "Wild About You Baby," T-Bone Walker's "Long Distance Blues," Freddie King's "Pack It Up," Albert Collins' "Left Overs," and Robert Johnson's "Walking Blues." The problem with about half of the disc is the difficulty of covering this type of material without being able to add much to it. At this relatively early stage in Bonamassa's discography, it may have been a better idea if he would have mixed 70-percent originals with a few covers instead of vice-versa. It's obvious Bonamassa has devoured this material, but his take on "Burning Hell," for instance, doesn't come close to matching the strength and realism of the original. The album's strong points are the three originals – "Woke Up Dreaming," "I Don't Live Anywhere," and "Mumbling Word" – and the Jeff Beck Group's "Blues Deluxe," which features smokin' guitar pyrotechnics. Still, thanks to musicians like Bonamassa, the more traditional blues artists covered on this disc continue to gain just as much exposure as younger artists as Eric Clapton, Stevie Ray Vaughan, or Jimi Hendrix.

Review by Al Campbell, Allmusic.com

Tracklist:

01. You Upset Me Baby - 3:35
02. Burning Hell - 6:50
03. Blues Deluxe - 7:20
04. Man of Many Words - 4:11
05. Woke Up Dreaming - 2:51
06. I Don't Live Anywhere - 3:42
07. Wild About You Baby - 3:39
08. Long Distance Blues - 3:53
09. Pack It Up - 4:04
10. Left Overs - 3:24
11. Walking Blues - 4:29
12. Mumbling Word - 3:28


Exact Audio Copy V1.0 beta 1 from 15. November 2010

EAC extraction logfile from 24. January 2012, 23:13

Joe Bonamassa / Blues Deluxe

Used drive : Optiarc DVD RW AD-5200S Adapter: 2 ID: 0

Read mode : Secure
Utilize accurate stream : Yes
Defeat audio cache : Yes
Make use of C2 pointers : No

Read offset correction : 48
Overread into Lead-In and Lead-Out : No
Fill up missing offset samples with silence : Yes
Delete leading and trailing silent blocks : No
Null samples used in CRC calculations : Yes
Used interface : Native Win32 interface for Win NT & 2000

Used output format : User Defined Encoder
Selected bitrate : 1024 kBit/s
Quality : High
Add ID3 tag : No
Command line compressor : C:\Program Files (x86)\Exact Audio Copy\FLAC\FLAC.EXE
Additional command line options : -8 -V %s


TOC of the extracted CD

Track | Start | Length | Start sector | End sector
––––––––––––––––––––––––––––-
1 | 0:00.00 | 3:35.02 | 0 | 16126
2 | 3:35.02 | 6:49.68 | 16127 | 46869
3 | 10:24.70 | 7:20.15 | 46870 | 79884
4 | 17:45.10 | 4:10.72 | 79885 | 98706
5 | 21:56.07 | 2:51.15 | 98707 | 111546
6 | 24:47.22 | 3:41.65 | 111547 | 128186
7 | 28:29.12 | 3:39.24 | 128187 | 144635
8 | 32:08.36 | 3:52.70 | 144636 | 162105
9 | 36:01.31 | 4:04.31 | 162106 | 180436
10 | 40:05.62 | 3:23.50 | 180437 | 195711
11 | 43:29.37 | 4:29.06 | 195712 | 215892
12 | 47:58.43 | 3:27.40 | 215893 | 231457


Range status and errors

Selected range

Filename G:\Download\Музыка LossLess\Joe Bonamassa\Studio albums\3 - Joe Bonamassa - Blues Deluxe (2003) [J&R Adventures - 60229]\Joe Bonamassa - Blues Deluxe.wav

Peak level 99.8 %
Extraction speed 0.2 X
Range quality 100.0 %
Test CRC 8BE36FEA
Copy CRC 8BE36FEA
Copy OK

No errors occurred


AccurateRip summary

Track 1 accurately ripped (confidence 3) [9AA11CA3]
Track 2 accurately ripped (confidence 3) [99D0BC43]
Track 3 accurately ripped (confidence 3) [088A73DE]
Track 4 accurately ripped (confidence 3) [31FD6A6C]
Track 5 accurately ripped (confidence 3) [7A78CD42]
Track 6 accurately ripped (confidence 3) [43AAB929]
Track 7 accurately ripped (confidence 3) [C5794A79]
Track 8 accurately ripped (confidence 3) [1F24E223]
Track 9 accurately ripped (confidence 3) [490DF013]
Track 10 accurately ripped (confidence 3) [9CDF435E]
Track 11 accurately ripped (confidence 3) [009D3082]
Track 12 accurately ripped (confidence 3) [FBF4F1DC]

All tracks accurately ripped

End of status report




Joe Bonamassa - Albums Collection 2000-2012 (17CD) [Re-Up]

Joe Bonamassa - Had to Cry Today (2004)
EAC | FLAC | Image (Cue&Log) ~ 335 Mb (incl 5%) | Mp3 (CBR320) ~ 110 Mb (incl 5%)
Label: J&R Adventures | # 60280 | Time: 00:46:09 | Complete PNG Scans ~ 250 Mb

Guitar hero Bonamassa may have dropped the "Smokin'" prefix from his performing name that he carried as a teenager, but he still specializes in superheated fret work. And for him, the faster it is, the better. Bonamassa sought to showcase the "heavier side of blues" on his fourth studio recording, emphasizing the approach used by the classic English blues-rockers. And he does just that with a hyperactive "Travellin' South" that Ten Years After would have been proud to claim and a hard-edged remake of the B.B. King hit "Never Make Your Move Too Soon". The title track, a Blind Faith favorite, is transformed into a frenetic live jam while Lowell Fulson's "Reconsider Baby", a staple of Bonamassa's live show, is given an extended workout and features some of his most potent blues licks. Sometimes Bonamassa is in too much of a hurry for his own good, but his penchant for speed works especially well on a couple of instrumentals. He races through "Revenge of the 10 Gallon Hat", a country-flavored tribute to mentor Danny Gatton, and the rapid-fire, Al Di Meola-influenced closer "Faux Mantini."

Review by Michael Point, Amazon

Tracklist:

01. Never Make Your Move Too Soon - 4:06
02. Travellin' South - 3:51
03. Junction 61 - 0:49
04. Reconsider Baby - 6:52
05. Around the Bend - 5:11
06. Revenge Of The 10 Gallon Hat - 2:54
07. When She Dances - 4:54
08. Had to Cry Today - 6:50
09. The River - 5:30
10. When The Sun Goes Down - 2:45
11. Faux Mantini - 2:27


Exact Audio Copy V1.0 beta 1 from 15. November 2010

EAC extraction logfile from 25. January 2012, 0:42

Joe Bonamassa / Had to Cry Today

Used drive : Optiarc DVD RW AD-5200S Adapter: 2 ID: 0

Read mode : Secure
Utilize accurate stream : Yes
Defeat audio cache : Yes
Make use of C2 pointers : No

Read offset correction : 48
Overread into Lead-In and Lead-Out : No
Fill up missing offset samples with silence : Yes
Delete leading and trailing silent blocks : No
Null samples used in CRC calculations : Yes
Used interface : Native Win32 interface for Win NT & 2000

Used output format : User Defined Encoder
Selected bitrate : 1024 kBit/s
Quality : High
Add ID3 tag : No
Command line compressor : C:\Program Files (x86)\Exact Audio Copy\FLAC\FLAC.EXE
Additional command line options : -8 -V %s


TOC of the extracted CD

Track | Start | Length | Start sector | End sector
––––––––––––––––––––––––––––-
1 | 0:00.00 | 4:06.11 | 0 | 18460
2 | 4:06.11 | 3:50.52 | 18461 | 35762
3 | 7:56.63 | 0:48.71 | 35763 | 39433
4 | 8:45.59 | 6:51.72 | 39434 | 70330
5 | 15:37.56 | 5:11.26 | 70331 | 93681
6 | 20:49.07 | 2:54.24 | 93682 | 106755
7 | 23:43.31 | 4:53.53 | 106756 | 128783
8 | 28:37.09 | 6:49.45 | 128784 | 159503
9 | 35:26.54 | 5:30.03 | 159504 | 184256
10 | 40:56.57 | 2:44.71 | 184257 | 196627
11 | 43:41.53 | 2:26.63 | 196628 | 207640


Range status and errors

Selected range

Filename G:\Download\Музыка LossLess\Joe Bonamassa\Studio albums\2004 - Joe Bonamassa - Had to Cry Today [2004, J&R Adventures - 60280]\Joe Bonamassa - Had to Cry Today.wav

Peak level 98.8 %
Extraction speed 0.1 X
Range quality 100.0 %
Test CRC 74EA295D
Copy CRC 74EA295D
Copy OK

No errors occurred


AccurateRip summary

Track 1 accurately ripped (confidence 2) [C60D66AB]
Track 2 accurately ripped (confidence 2) [776F848B]
Track 3 accurately ripped (confidence 2) [803ADEE3]
Track 4 accurately ripped (confidence 2) [E8583626]
Track 5 accurately ripped (confidence 2) [32B9A000]
Track 6 accurately ripped (confidence 2) [84993D49]
Track 7 accurately ripped (confidence 2) [C63DBF13]
Track 8 accurately ripped (confidence 2) [0FA81841]
Track 9 accurately ripped (confidence 2) [80517C01]
Track 10 accurately ripped (confidence 2) [C627DDEE]
Track 11 accurately ripped (confidence 2) [0C529FF3]

All tracks accurately ripped

End of status report




Joe Bonamassa - Albums Collection 2000-2012 (17CD) [Re-Up]

Joe Bonamassa - You & Me (2006)
EAC | FLAC | Image (Cue&Log) ~ 338 Mb (incl 5%) | Mp3 (CBR320) ~ 120 Mb (incl 5%)
Label: J&R Adventures | # 60282 | Time: 00:50:18 | Complete PNG Scans ~ 229 Mb

Despite his statement in the liner notes that "In an era where it is best to play it safe, I chose to take a risk…," there isn't much surprising or risky about young guitarist Joe Bonamassa's fifth studio album. Most of his previous releases have mixed blues covers with his own originals, all played with a rocker's attitude, volume and less-than-subtle approach. This one follows suit and even though he goes on to say that he "wanted to make a blues album, not a rock album that has blues on it," as in the past; it's impossible to claim that he has succeeded with You & Me. That doesn't make this a bad or disappointing disc; quite the contrary, it's a solid blues-rock release and arguably his best work to date. But as early as the second track, an original rocker titled "Bridge to Better Days," Bonamassa takes off on an early Free/Savoy Brown-styled stomper. Things settle down and get more rootsy on the following two slow blues tracks, although a lovely Bonamassa original, "Asking Around for You," adds strings, not exactly a touch most would associate with pure blues. Regardless, it's extremely effective and when the strings return on a nine-and-a-half-minute cover of Led Zeppelin's "Tea for One," it is a spine-tingling experience and possibly this album's finest moment. Drummer Jason Bonham, who is excellent throughout, brings additional authenticity to the song his dad first played on. Bonamassa unplugs for a few mid-disc tracks, including a cover of "Tamp 'Em Up Solid" (oddly credited to Ry Cooder but typically known as a traditional piece, even on Cooder's version). Twelve-year-old harmonica whiz L.D. Miller does his best John Popper imitation on a hyperactive version of Sonny Boy Williamson's "Your Funeral and My Trial" (someone needs to inform the kid that playing lots of notes really fast doesn't mean he has soul), and the instrumental titled "Django" shows that Bonamassa has been listening to Gary Moore's "Parisienne Walkways." It adds up to a quality Bonamassa disc that will please existing fans and might bring some new ones into the fold, but it's also one that doesn't take the chances that he claims might push the guitarist into uncharted territory.

Review by Hal Horowitz, Allmusic.com

Tracklist:

01. High Water Everywhere - 4:07
02. Bridge to Better Days - 5:07
03. Asking Around for You - 4:18
04. So Many Roads - 7:06
05. I Don't Believe - 3:23
06. Tamp Em Up Solid - 2:31
07. Django - 4:57
08. Tea for One - 9:35
09. Palm Trees Helicopters and Gasoline - 1:47
10. Your Funeral and My Trial - 3:00
11. Torn Down - 4:28


Exact Audio Copy V1.0 beta 1 from 15. November 2010

EAC extraction logfile from 25. January 2012, 23:13

Joe Bonamassa / You & Me

Used drive : Optiarc DVD RW AD-5200S Adapter: 2 ID: 0

Read mode : Secure
Utilize accurate stream : Yes
Defeat audio cache : Yes
Make use of C2 pointers : No

Read offset correction : 48
Overread into Lead-In and Lead-Out : No
Fill up missing offset samples with silence : Yes
Delete leading and trailing silent blocks : No
Null samples used in CRC calculations : Yes
Used interface : Native Win32 interface for Win NT & 2000

Used output format : User Defined Encoder
Selected bitrate : 1024 kBit/s
Quality : High
Add ID3 tag : No
Command line compressor : C:\Program Files (x86)\Exact Audio Copy\FLAC\FLAC.EXE
Additional command line options : -8 -V %s


TOC of the extracted CD

Track | Start | Length | Start sector | End sector
––––––––––––––––––––––––––––-
1 | 0:00.00 | 4:06.42 | 0 | 18491
2 | 4:06.42 | 5:07.07 | 18492 | 41523
3 | 9:13.49 | 4:17.47 | 41524 | 60845
4 | 13:31.21 | 7:05.64 | 60846 | 92784
5 | 20:37.10 | 3:22.51 | 92785 | 107985
6 | 23:59.61 | 2:30.73 | 107986 | 119308
7 | 26:30.59 | 4:56.48 | 119309 | 141556
8 | 31:27.32 | 9:34.39 | 141557 | 184645
9 | 41:01.71 | 1:47.36 | 184646 | 192706
10 | 42:49.32 | 2:59.66 | 192707 | 206197
11 | 45:49.23 | 4:28.16 | 206198 | 226313


Range status and errors

Selected range

Filename G:\Download\Музыка LossLess\Joe Bonamassa\Studio albums\2006 - Joe Bonamassa - You & Me [2006, J&R Adventures - 60282]\Joe Bonamassa - You & Me.wav

Peak level 100.0 %
Extraction speed 0.3 X
Range quality 99.9 %
Test CRC DB6EAA74
Copy CRC DB6EAA74
Copy OK

No errors occurred


AccurateRip summary

Track 1 accurately ripped (confidence 2) [4D7E9091]
Track 2 accurately ripped (confidence 2) [25EB8C6E]
Track 3 accurately ripped (confidence 2) [0A76A755]
Track 4 accurately ripped (confidence 2) [C9127E9B]
Track 5 cannot be verified as accurate (confidence 60) [7C71DC95], AccurateRip returned [F87EBCCB]
Track 6 accurately ripped (confidence 2) [2DBC595E]
Track 7 accurately ripped (confidence 2) [59C95AB3]
Track 8 accurately ripped (confidence 2) [158D5695]
Track 9 accurately ripped (confidence 2) [E911A4E9]
Track 10 accurately ripped (confidence 2) [5CD6E396]
Track 11 accurately ripped (confidence 2) [5995475F]

10 track(s) accurately ripped
1 track(s) could not be verified as accurate

Some tracks could not be verified as accurate

End of status report




Joe Bonamassa - Albums Collection 2000-2012 (17CD) [Re-Up]

Joe Bonamassa - Sloe Gin (2007)
EAC | FLAC | Image (Cue&Log) ~ 323 Mb (incl 5%) | Mp3 (CBR320) ~ 117 Mb (incl 5%)
Label: J&R Adventures | # 60283 | Time: 00:48:58 | Complete PNG Scans ~ 222 Mb

For his seventh studio album, guitar wiz Joe Bonamassa has chosen to work again with producer Kevin Shirley, who produced the highly successful and huge-sounding You & Me for Bonamassa in 2006. This outing, though, is far from a ditto session, with a much more acoustic feel and a greater focus on Bonamassa's singing, which unfortunately has been generally (and unfairly) overshadowed by his guitar playing. Bonamassa has also stepped up his songwriting (four of the 11 tracks here are originals; the rest are blues and hard rock covers) and cut way down on his clichés, delivering in the process his most varied and impressive album yet. The lead track, a version of Chris Whitley's "Ball Peen Hammer," is an atmospheric gem, as is the title tune, a cover of a song written by Bob Ezrin and Michael Kamen that first appeared on Tim Curry's solo debut album in 1978. Bonamassa's singing on both of these is wonderfully nuanced and shows he can do way more than just shout out blues-rockers. Also worth noting is his Dobro work on a fine cover of John Martyn's "Jelly Roll," and then there are the four originals – "Dirt in My Pocket," "Richmond," "Around the Bend," and the striking "India" – which show Bonamassa's continued growth and confidence as a songwriter. There are less of those flashy and jaw-dropping guitar leads on Sloe Gin (rest assured, he stretches out a few times on guitar, though), which is mostly a good thing, since it allows his increasing maturity as a writer and singer to shine through. This is a fine album, and one gets the distinct feeling that an even better one may be lurking just around the bend.

Review by Steve Leggett, Allmusic.com

Tracklist:

01. Ball Peen Hammer - 3:27
02. One Of These Days - 5:40
03. Seagull - 3:49
04. Dirt In My Pocket - 4:55
05. Sloe Gin - 8:14
06. Another Kind Of Love - 3:11
07. Around The Bend - 5:16
08. Black Night - 4:22
09. Jelly Roll - 2:13
10. Richmond - 4:31
11. India - 3:20


Exact Audio Copy V1.0 beta 1 from 15. November 2010

EAC extraction logfile from 25. January 2012, 22:26

Joe Bonamassa / Sloe Gin

Used drive : Optiarc DVD RW AD-5200S Adapter: 2 ID: 0

Read mode : Secure
Utilize accurate stream : Yes
Defeat audio cache : Yes
Make use of C2 pointers : No

Read offset correction : 48
Overread into Lead-In and Lead-Out : No
Fill up missing offset samples with silence : Yes
Delete leading and trailing silent blocks : No
Null samples used in CRC calculations : Yes
Used interface : Native Win32 interface for Win NT & 2000

Used output format : User Defined Encoder
Selected bitrate : 1024 kBit/s
Quality : High
Add ID3 tag : No
Command line compressor : C:\Program Files (x86)\Exact Audio Copy\FLAC\FLAC.EXE
Additional command line options : -8 -V %s


TOC of the extracted CD

Track | Start | Length | Start sector | End sector
––––––––––––––––––––––––––––-
1 | 0:00.00 | 3:27.29 | 0 | 15553
2 | 3:27.29 | 5:40.14 | 15554 | 41067
3 | 9:07.43 | 3:49.37 | 41068 | 58279
4 | 12:57.05 | 4:54.71 | 58280 | 80400
5 | 17:52.01 | 8:13.45 | 80401 | 117420
6 | 26:05.46 | 3:10.57 | 117421 | 131727
7 | 29:16.28 | 5:15.65 | 131728 | 155417
8 | 34:32.18 | 4:22.23 | 155418 | 175090
9 | 38:54.41 | 2:12.62 | 175091 | 185052
10 | 41:07.28 | 4:31.24 | 185053 | 205401
11 | 45:38.52 | 3:19.54 | 205402 | 220380


Range status and errors

Selected range

Filename G:\Download\Музыка LossLess\Joe Bonamassa\Studio albums\2007 - Joe Bonamassa - Sloe Gin [2007, J&R Adventures - 60283]\Joe Bonamassa - Sloe Gin.wav

Peak level 96.5 %
Extraction speed 0.2 X
Range quality 99.9 %
Test CRC E5B84554
Copy CRC E5B84554
Copy OK

No errors occurred


AccurateRip summary

Track 1 accurately ripped (confidence 4) [5B008752]
Track 2 accurately ripped (confidence 4) [C8A366AC]
Track 3 accurately ripped (confidence 4) [0CBC85CA]
Track 4 accurately ripped (confidence 4) [7F0F938C]
Track 5 accurately ripped (confidence 4) [0D798B3E]
Track 6 accurately ripped (confidence 4) [3ABD4BBE]
Track 7 accurately ripped (confidence 4) [9A56458C]
Track 8 accurately ripped (confidence 4) [51104E4C]
Track 9 accurately ripped (confidence 4) [48058844]
Track 10 accurately ripped (confidence 4) [BAA6B67F]
Track 11 accurately ripped (confidence 4) [0F99E977]

All tracks accurately ripped

End of status report




Joe Bonamassa - Albums Collection 2000-2012 (17CD) [Re-Up]

Joe Bonamassa - Live from Nowhere in Particular (2008) 2CD
EAC | FLAC | Image (Cue&Log) ~ 651 Mb (incl 5%) | Mp3 (CBR320) ~ 237 Mb (incl 5%)
Label: J&R Adventures | # PARAR65328 | Time: 01:38:41 | Complete PNG Scans ~ 237 Mb

Two CD set. Live from Nowhere in Particular is the 2008 album from Joe Bonamassa, an US blues guitarist/singer. Guitar One Magazine has stated that 'he just might be the best guitarist of his generation.' His blues-rock style is similar to that of Stevie Ray Vaughan's. In an interview in 'Guitarist' magazine (issue 265), Joe Bonamassa cited the three albums that had the biggest influence on his playing: John Mayall & the Bluesbreakers with Eric Clapton (the 'Beano Album'), Rory Gallagher's 'Irish Tour' and 'Goodbye' by Cream.

Tracklist:

CD 1 - 00:44:13
01. Bridge to Better Days - 5:28
02. Walk in my Shadows - 5:15
03. So Many Roads - 6:10
04. India-Mountain Time - 10:18
05. Another Kinda Love - 3:48
06. Sloe Gin - 7:20
07. One of These Days - 5:54

CD 2 - 00:54:28
01. Ball Peen Hammer - 4:24
02. If Heartaches Were Nickels - 4:08
03. Woke Up Dreaming - 7:59
04. Django-Just Got Paid - 17:53
05. High Water Everywhere - 4:49
06. Asking Around For You - 7:24
07. A New Day Yesterday-Starship Trooper-Wurm - 7:51


Exact Audio Copy V1.0 beta 1 from 15. November 2010

EAC extraction logfile from 26. January 2012, 8:51

Joe Bonamassa / Live From Nowhere In Particular (CD1)

Used drive : Optiarc DVD RW AD-5200S Adapter: 2 ID: 0

Read mode : Secure
Utilize accurate stream : Yes
Defeat audio cache : Yes
Make use of C2 pointers : No

Read offset correction : 48
Overread into Lead-In and Lead-Out : No
Fill up missing offset samples with silence : Yes
Delete leading and trailing silent blocks : No
Null samples used in CRC calculations : Yes
Used interface : Native Win32 interface for Win NT & 2000

Used output format : User Defined Encoder
Selected bitrate : 1024 kBit/s
Quality : High
Add ID3 tag : No
Command line compressor : C:\Program Files (x86)\Exact Audio Copy\FLAC\FLAC.EXE
Additional command line options : -8 -V %s


TOC of the extracted CD

Track | Start | Length | Start sector | End sector
––––––––––––––––––––––––––––-
1 | 0:00.00 | 5:27.65 | 0 | 24589
2 | 5:27.65 | 5:15.31 | 24590 | 48245
3 | 10:43.21 | 6:09.55 | 48246 | 75975
4 | 16:53.01 | 10:17.50 | 75976 | 122300
5 | 27:10.51 | 3:47.69 | 122301 | 139394
6 | 30:58.45 | 7:20.35 | 139395 | 172429
7 | 38:19.05 | 5:53.56 | 172430 | 198960


Range status and errors

Selected range

Filename G:\Download\Музыка LossLess\Joe Bonamassa\Live albums\2008 - Joe Bonamassa - Live from Nowhere in Particular (2CD) [2008, J&R Adventures - PARAR65328]\CD1\Joe Bonamassa - Live From Nowhere In Particular (CD1).wav

Peak level 98.8 %
Extraction speed 0.4 X
Range quality 100.0 %
Test CRC BA4B2337
Copy CRC BA4B2337
Copy OK

No errors occurred


AccurateRip summary

Track 1 accurately ripped (confidence 2) [087B4EAF]
Track 2 accurately ripped (confidence 2) [3622E9BC]
Track 3 accurately ripped (confidence 2) [D9870D02]
Track 4 accurately ripped (confidence 2) [40E0A21B]
Track 5 accurately ripped (confidence 2) [DF4CA089]
Track 6 accurately ripped (confidence 2) [E8821F2B]
Track 7 accurately ripped (confidence 2) [0DFED065]

All tracks accurately ripped

End of status report

Exact Audio Copy V1.0 beta 1 from 15. November 2010

EAC extraction logfile from 26. January 2012, 7:58

Joe Bonamassa / Live From Nowhere In Particular (CD2)

Used drive : Optiarc DVD RW AD-5200S Adapter: 2 ID: 0

Read mode : Secure
Utilize accurate stream : Yes
Defeat audio cache : Yes
Make use of C2 pointers : No

Read offset correction : 48
Overread into Lead-In and Lead-Out : No
Fill up missing offset samples with silence : Yes
Delete leading and trailing silent blocks : No
Null samples used in CRC calculations : Yes
Used interface : Native Win32 interface for Win NT & 2000

Used output format : User Defined Encoder
Selected bitrate : 1024 kBit/s
Quality : High
Add ID3 tag : No
Command line compressor : C:\Program Files (x86)\Exact Audio Copy\FLAC\FLAC.EXE
Additional command line options : -8 -V %s


TOC of the extracted CD

Track | Start | Length | Start sector | End sector
––––––––––––––––––––––––––––-
1 | 0:00.00 | 4:23.57 | 0 | 19781
2 | 4:23.57 | 4:08.12 | 19782 | 38393
3 | 8:31.69 | 7:59.34 | 38394 | 74352
4 | 16:31.28 | 17:52.74 | 74353 | 154826
5 | 34:24.27 | 4:48.64 | 154827 | 176490
6 | 39:13.16 | 7:24.13 | 176491 | 209803
7 | 46:37.29 | 7:50.74 | 209804 | 245127


Range status and errors

Selected range

Filename G:\Download\Музыка LossLess\Joe Bonamassa\Live albums\2008 - Joe Bonamassa - Live from Nowhere in Particular (2CD) [2008, J&R Adventures - PARAR65328]\CD2\Joe Bonamassa - Live From Nowhere In Particular (CD2).wav

Peak level 100.0 %
Extraction speed 0.5 X
Range quality 100.0 %
Test CRC 814329B5
Copy CRC 814329B5
Copy OK

No errors occurred


AccurateRip summary

Track 1 cannot be verified as accurate (confidence 117) [5753EB5D], AccurateRip returned [F1D41327]
Track 2 cannot be verified as accurate (confidence 117) [B5C9BD29], AccurateRip returned [AFBE0A26]
Track 3 cannot be verified as accurate (confidence 115) [5EB62A8E], AccurateRip returned [59B29DE5]
Track 4 cannot be verified as accurate (confidence 115) [5C647FA0], AccurateRip returned [E005B457]
Track 5 cannot be verified as accurate (confidence 115) [7EF5085A], AccurateRip returned [CC60E0F7]
Track 6 cannot be verified as accurate (confidence 115) [4DC8D192], AccurateRip returned [31BE3FCF]
Track 7 cannot be verified as accurate (confidence 113) [8FCE18A9], AccurateRip returned [F2F53D36]

No tracks could be verified as accurate
You may have a different pressing from the one(s) in the database

End of status report




Joe Bonamassa - Albums Collection 2000-2012 (17CD) [Re-Up]

Joe Bonamassa - The Ballad of John Henry (2009)
EAC | FLAC | Image (Cue&Log) ~ 437 Mb (incl 5%) | Mp3 (CBR320) ~ 154 Mb (incl 5%)
Label: J&R Adventures | # PRAR91646 | Time: 01:04:28 | Complete PNG Scans ~ 318 Mb

In 2007, Joe Bonamassa titled his album after a Bob Ezrin song. In 2009, he named his seventh studio album The Ballad of John Henry after one of the most enduring tales in American folk music. The difference between these two songs should signal a great difference between the two albums and that's true, to a certain extent. The Ballad of John Henry is heavy on myth-making that translates to heavy guitars on several occasions, particularly on the epic six-minute title track, whose roiling minor-key riffs, orchestrations, and excursions into acoustic instruments are closer to prog than blues. While the rest of the record never gets as overblown as this, it shares similar thick sonics and a sober sensibility, an approach that treats Ike & Tina Turner's "Funkier Than a Mosquito's Tweeter" as sacred text and straightens out Tom Waits' "Jockey Full of Bourbon." This sobriety means that The Ballad isn't a whole lot of fun – when Bonamassa sings that he's "Feelin' Good," it feels a bit like drudgery – but this dogged approach does give the album some self-serious heft, adding the impression of weight that fits a record that feels like a summation of his strengths. His guitar and voice carry equal weight as he runs through SRV-styled slow blues, a shuffle or two, acoustic numbers, covers, and originals – everything that he's dabbled with on previous albums is pulled together here, making for his most varied album and possibly his best, even if that heaviness means that it's not necessarily the easiest to enjoy.

Review by Stephen Thomas Erlewine, Allmusic.com

Tracklist:

01. The Ballad Of John Henry - 6:27
02. Stop! - 6:48
03. Last Kiss - 7:15
04. Jockey Full Of Bourbon - 5:22
05. Story Of A Quarryman - 5:00
06. Lonesome Road Blues - 3:09
07. Happier Times - 6:40
08. Feelin' Good - 4:44
09. Funkier Than A Mosquito's Tweeter - 5:00
10. The Great Flood - 7:39
11. From The Valley - 2:24
12. As The Crow Flies - 3:59


Exact Audio Copy V1.0 beta 1 from 15. November 2010

EAC extraction logfile from 25. January 2012, 21:39

Joe Bonamassa / The Ballad Of John Henry

Used drive : Optiarc DVD RW AD-5200S Adapter: 2 ID: 0

Read mode : Secure
Utilize accurate stream : Yes
Defeat audio cache : Yes
Make use of C2 pointers : No

Read offset correction : 48
Overread into Lead-In and Lead-Out : No
Fill up missing offset samples with silence : Yes
Delete leading and trailing silent blocks : No
Null samples used in CRC calculations : Yes
Used interface : Native Win32 interface for Win NT & 2000

Used output format : User Defined Encoder
Selected bitrate : 1024 kBit/s
Quality : High
Add ID3 tag : No
Command line compressor : C:\Program Files (x86)\Exact Audio Copy\FLAC\FLAC.EXE
Additional command line options : -8 -V %s


TOC of the extracted CD

Track | Start | Length | Start sector | End sector
––––––––––––––––––––––––––––-
1 | 0:00.00 | 6:26.39 | 0 | 28988
2 | 6:26.39 | 6:48.35 | 28989 | 59623
3 | 13:14.74 | 7:15.25 | 59624 | 92273
4 | 20:30.24 | 5:22.18 | 92274 | 116441
5 | 25:52.42 | 4:59.54 | 116442 | 138920
6 | 30:52.21 | 3:08.43 | 138921 | 153063
7 | 34:00.64 | 6:40.25 | 153064 | 183088
8 | 40:41.14 | 4:44.02 | 183089 | 204390
9 | 45:25.16 | 5:00.16 | 204391 | 226906
10 | 50:25.32 | 7:39.31 | 226907 | 261362
11 | 58:04.63 | 2:24.27 | 261363 | 272189
12 | 60:29.15 | 3:58.74 | 272190 | 290113


Range status and errors

Selected range

Filename G:\Download\Музыка LossLess\Joe Bonamassa\Studio albums\2009 - Joe Bonamassa - The Ballad of John Henry [2009, J&R Adventures - PRAR91646]\Joe Bonamassa - The Ballad Of John Henry.wav

Peak level 96.5 %
Extraction speed 0.2 X
Range quality 100.0 %
Test CRC 2658F988
Copy CRC 2658F988
Copy OK

No errors occurred


AccurateRip summary

Track 1 accurately ripped (confidence 23) [6E1C5AAD]
Track 2 accurately ripped (confidence 22) [75E6EE11]
Track 3 accurately ripped (confidence 22) [7F43BD25]
Track 4 accurately ripped (confidence 22) [9F541068]
Track 5 accurately ripped (confidence 23) [9A75B5CA]
Track 6 accurately ripped (confidence 21) [FB89AC24]
Track 7 accurately ripped (confidence 22) [72893B07]
Track 8 accurately ripped (confidence 22) [E6045E50]
Track 9 accurately ripped (confidence 22) [B6BA137A]
Track 10 accurately ripped (confidence 22) [EAF5D313]
Track 11 accurately ripped (confidence 21) [1B76C6F8]
Track 12 accurately ripped (confidence 20) [763884D2]

All tracks accurately ripped

End of status report




Joe Bonamassa - Albums Collection 2000-2012 (17CD) [Re-Up]

Joe Bonamassa - Live from the Royal Albert Hall (2009) 2CD Issue 2010
EAC | FLAC | Image (Cue&Log) ~ 829 Mb (incl 5%) | Mp3 (CBR320) ~ 317 Mb (incl 5%)
Label: J&R Adventures | # PRAR92340 | Time: 02:12:09 | Complete PNG Scans ~ 410 Mb

Guitarist Joe Bonamassa was opening for B.B. King when he was only eight years old and was a veteran of the road and gigging by the time he was 12, so it’s tempting to toss him in the all flash but no soul prodigy trash bin that has been filling up pretty well since Stevie Ray Vaughan shuffled off to blues heaven – but that would be a big mistake. Bonamassa has soul, plenty of it, and he plays guitar with a reverent grace, and sometimes lost in all this is that he’s a pretty good singer, too, sounding more than a little bit like a reconstituted Paul Rodgers. His stunning headline show from the Royal Albert Hall, which featured guest spots by Eric Clapton and Paul Jones, was released in 2009 on DVD and download versions of the songs have been available on iTunes for a while, but this two-disc set marks the first official release of the concert as an album in and of itself, and it’s simply wonderful, full of great guitar playing, solid singing, and with a horn section and double drummers on board, the sound is full and even majestic. Bonamassa is the real deal, and tracks here like the elegant opener “Django,” “The Ballad of John Henry,” the marvelous cover of Charley Patton's “High Water Everywhere,” and a shifting, sprawling workout on Rod Stewart's “Blues Deluxe” show a musician at the top of his game, one who has learned that a guitar lead should serve the song and not the other way around. Bonamassa isn’t some kid prodigy anymore – he’s grown up into one of the most soulful blues-rock performers on the planet. There’s plenty of proof of that here.

Review by Steve Leggett, Allmusic.com

Tracklist:

CD 1 - 01:06:51
01. Django - 3:44
02. The Ballad Of John Henry - 6:47
03. So It's Like That - 2:56
04. Last Kiss - 7:18
05. So Many Roads - 6:16
06. Stop! - 5:56
07. Further On Up The Road (with Eric Clapton) - 5:45
08. Woke Up Dreaming - 10:06
09. High Water Everywhere - 5:07
10. Sloe Gin - 8:19
11. Lonesome Road Blues - 4:38

CD 2 - 01:05:18
01. Happier Times - 7:22
02. Your Funeral My Trial - 4:05
03. Blues Deluxe - 9:13
04. Story Of A Quarryman - 5:15
05. The Great Flood - 7:53
06. Just Got Paid - 10:44
07. Mountain Time - 10:43
08. Asking Around For You - 10:02


Exact Audio Copy V1.0 beta 1 from 15. November 2010

EAC extraction logfile from 26. January 2012, 22:40

Joe Bonamassa / Live From The Royal Albert Hall (CD 1)

Used drive : Optiarc DVD RW AD-5200S Adapter: 2 ID: 0

Read mode : Secure
Utilize accurate stream : Yes
Defeat audio cache : Yes
Make use of C2 pointers : No

Read offset correction : 48
Overread into Lead-In and Lead-Out : No
Fill up missing offset samples with silence : Yes
Delete leading and trailing silent blocks : No
Null samples used in CRC calculations : Yes
Used interface : Native Win32 interface for Win NT & 2000

Used output format : User Defined Encoder
Selected bitrate : 1024 kBit/s
Quality : High
Add ID3 tag : No
Command line compressor : C:\Program Files (x86)\Exact Audio Copy\FLAC\FLAC.EXE
Additional command line options : -8 -V %s


TOC of the extracted CD

Track | Start | Length | Start sector | End sector
––––––––––––––––––––––––––––-
1 | 0:00.00 | 3:43.56 | 0 | 16780
2 | 3:43.56 | 6:47.05 | 16781 | 47310
3 | 10:30.61 | 2:55.72 | 47311 | 60507
4 | 13:26.58 | 7:18.26 | 60508 | 93383
5 | 20:45.09 | 6:15.43 | 93384 | 121551
6 | 27:00.52 | 5:56.06 | 121552 | 148257
7 | 32:56.58 | 5:44.64 | 148258 | 174121
8 | 38:41.47 | 10:06.03 | 174122 | 219574
9 | 48:47.50 | 5:07.27 | 219575 | 242626
10 | 53:55.02 | 8:18.53 | 242627 | 280029
11 | 62:13.55 | 4:37.40 | 280030 | 300844


Range status and errors

Selected range

Filename G:\Download\Музыка LossLess\Joe Bonamassa\Live albums\2009 - Joe Bonamassa - Live from the Royal Albert Hall (2CD) [2010, J&R Adventures - PRAR92340]\CD1\Joe Bonamassa - Live From The Royal Albert Hall (CD 1).wav

Peak level 100.0 %
Extraction speed 0.2 X
Range quality 100.0 %
Test CRC EDF7E348
Copy CRC EDF7E348
Copy OK

No errors occurred


AccurateRip summary

Track 1 not present in database
Track 2 not present in database
Track 3 not present in database
Track 4 not present in database
Track 5 not present in database
Track 6 not present in database
Track 7 not present in database
Track 8 not present in database
Track 9 not present in database
Track 10 not present in database
Track 11 not present in database

None of the tracks are present in the AccurateRip database

End of status report

Exact Audio Copy V1.0 beta 1 from 15. November 2010

EAC extraction logfile from 26. January 2012, 23:18

Joe Bonamassa / Joe Bonamassa - Live From The Royal Albert Hall (CD 2)

Used drive : Optiarc DVD RW AD-5200S Adapter: 2 ID: 0

Read mode : Secure
Utilize accurate stream : Yes
Defeat audio cache : Yes
Make use of C2 pointers : No

Read offset correction : 48
Overread into Lead-In and Lead-Out : No
Fill up missing offset samples with silence : Yes
Delete leading and trailing silent blocks : No
Null samples used in CRC calculations : Yes
Used interface : Native Win32 interface for Win NT & 2000

Used output format : User Defined Encoder
Selected bitrate : 1024 kBit/s
Quality : High
Add ID3 tag : No
Command line compressor : C:\Program Files (x86)\Exact Audio Copy\FLAC\FLAC.EXE
Additional command line options : -8 -V %s


TOC of the extracted CD

Track | Start | Length | Start sector | End sector
––––––––––––––––––––––––––––-
1 | 0:00.00 | 7:22.34 | 0 | 33183
2 | 7:22.34 | 4:05.32 | 33184 | 51590
3 | 11:27.66 | 9:13.33 | 51591 | 93098
4 | 20:41.24 | 5:14.64 | 93099 | 116712
5 | 25:56.13 | 7:52.38 | 116713 | 152150
6 | 33:48.51 | 10:44.08 | 152151 | 200458
7 | 44:32.59 | 10:43.30 | 200459 | 248713
8 | 55:16.14 | 10:01.63 | 248714 | 293851


Range status and errors

Selected range

Filename G:\Download\Музыка LossLess\Joe Bonamassa\Live albums\2009 - Joe Bonamassa - Live from the Royal Albert Hall (2CD) [2010, J&R Adventures - PRAR92340]\CD2\Joe Bonamassa - Live From The Royal Albert Hall [cd2].wav

Peak level 100.0 %
Extraction speed 0.6 X
Range quality 99.9 %
Test CRC 8B818095
Copy CRC 8B818095
Copy OK

No errors occurred


AccurateRip summary

Track 1 accurately ripped (confidence 2) [8C64FBBD]
Track 2 accurately ripped (confidence 2) [8CB65CEC]
Track 3 accurately ripped (confidence 2) [6B0FAEE5]
Track 4 accurately ripped (confidence 2) [D704067A]
Track 5 accurately ripped (confidence 2) [22FB7C56]
Track 6 accurately ripped (confidence 2) [C0D99714]
Track 7 accurately ripped (confidence 2) [38FEFDD9]
Track 8 accurately ripped (confidence 2) [8B25398E]

All tracks accurately ripped

End of status report




Joe Bonamassa - Albums Collection 2000-2012 (17CD) [Re-Up]

Joe Bonamassa - Black Rock (2010)
EAC | FLAC | Image (Cue&Log) ~ 361 Mb (incl 5%) | Mp3 (CBR320) ~ 128 Mb (incl 5%)
Label: J&R Adventures | # PRAR92023 | Time: 00:53:17 | Complete PNG Scans ~ 505 Mb

It’s a sign of Joe Bonamassa’s increasing profile that he got blues legend B.B. King to guest on his eighth album Black Rock – and if what you’re doing is good enough to rope B.B. in, there’s not much reason to change, so Bonamassa doesn’t tinker with his formula here, retaining a little of the folky undertow of The Ballad of John Henry, but with its remaining roots in a thick, heavy blues-rock more redolent of ‘60s London than the ‘50s Delta. Of course, Bonamassa has never shied away from his love of Brit-blues, even underscoring it with a good streamlined cover of Jeff Beck’s “Spanish Boots,” but he retains a healthy respect for all manners of classic blues, kicking out a Chicago groove on a cover of Otis Rush’s “Three Times a Fool,” reaching back to Blind Boy Fuller for “Baby You Gotta Change Your Mind” and ably replicating B.B.’s latter-day soul groove on a horn-smacked cover of Willie Nelson’s “Night Life.” Bonamassa has an ear for non-blues writers too, cherrypicking Leonard Cohen’s “Bird on a Wire” and John Hiatt’s “I Know a Place,” tying it all together with beefy lead lines, but the provocative moments on Black Rock are all self-penned, whether it’s the clattering stomp “When the Fire Hits the Sea,” the British folk lilt of “Quarryman’s Lament” and “Athens to Athens,” or the droning dramatic epic “Blue and Evil.” These are easily the most intriguing songs here, suggesting Bonamassa realizes that the familiar covers allow him to stretch out elsewhere, and while it might be interesting hearing him follow this path for a full album, what’s here on Black Rock is both satisfying and admirably, if reservedly, ambitious.

Review by Stephen Thomas Erlewine, Allmusic.com

Tracklist:

01. Steal Your Heart Away - 3:48
02. I Know A Place - 4:19
03. When The Fire Hits The Sea - 3:55
04. Quarryman's Lament - 5:22
05. Spanish Boots - 4:39
06. Bird On A Wire - 5:21
07. Three Times A Fool - 2:03
08. Night Life - 3:26
09. Wandering Earth - 4:19
10. Look Over Yonder's Wall - 3:27
11. Athens To Athens - 2:27
12. Blue And Evil - 5:44
13. Baby You Gotta Change Your Mind - 4:25


Exact Audio Copy V1.0 beta 1 from 15. November 2010

EAC extraction logfile from 26. January 2012, 21:25

Joe Bonamassa / Black Rock

Used drive : Optiarc DVD RW AD-5200S Adapter: 2 ID: 0

Read mode : Secure
Utilize accurate stream : Yes
Defeat audio cache : Yes
Make use of C2 pointers : No

Read offset correction : 48
Overread into Lead-In and Lead-Out : No
Fill up missing offset samples with silence : Yes
Delete leading and trailing silent blocks : No
Null samples used in CRC calculations : Yes
Used interface : Native Win32 interface for Win NT & 2000

Used output format : User Defined Encoder
Selected bitrate : 1024 kBit/s
Quality : High
Add ID3 tag : No
Command line compressor : C:\Program Files (x86)\Exact Audio Copy\FLAC\FLAC.EXE
Additional command line options : -8 -V %s


TOC of the extracted CD

Track | Start | Length | Start sector | End sector
––––––––––––––––––––––––––––-
1 | 0:00.00 | 3:48.20 | 0 | 17119
2 | 3:48.20 | 4:19.13 | 17120 | 36557
3 | 8:07.33 | 3:55.23 | 36558 | 54205
4 | 12:02.56 | 5:22.22 | 54206 | 78377
5 | 17:25.03 | 4:38.63 | 78378 | 99290
6 | 22:03.66 | 5:21.07 | 99291 | 123372
7 | 27:24.73 | 2:02.65 | 123373 | 132587
8 | 29:27.63 | 3:26.08 | 132588 | 148045
9 | 32:53.71 | 4:19.32 | 148046 | 167502
10 | 37:13.28 | 3:27.25 | 167503 | 183052
11 | 40:40.53 | 2:26.55 | 183053 | 194057
12 | 43:07.33 | 5:44.33 | 194058 | 219890
13 | 48:51.66 | 4:25.24 | 219891 | 239789


Range status and errors

Selected range

Filename G:\Download\Музыка LossLess\Joe Bonamassa\Studio albums\2010 - Joe Bonamassa - Black Rock [2010, J&R Adventures - PRAR92023]\Joe Bonamassa - Black Rock.wav

Peak level 100.0 %
Extraction speed 0.3 X
Range quality 100.0 %
Test CRC 27CD68C9
Copy CRC 27CD68C9
Copy OK

No errors occurred


AccurateRip summary

Track 1 accurately ripped (confidence 16) [B6114E5B]
Track 2 accurately ripped (confidence 16) [FE2EEC87]
Track 3 accurately ripped (confidence 16) [149DE7D1]
Track 4 accurately ripped (confidence 16) [52618CDF]
Track 5 accurately ripped (confidence 16) [E603F480]
Track 6 accurately ripped (confidence 16) [FEDC430A]
Track 7 accurately ripped (confidence 16) [BF2FFDFD]
Track 8 accurately ripped (confidence 16) [74A83513]
Track 9 accurately ripped (confidence 16) [1A1DA4DD]
Track 10 accurately ripped (confidence 16) [DE0C1BF4]
Track 11 accurately ripped (confidence 16) [39FAFB9B]
Track 12 accurately ripped (confidence 16) [20D6DE2F]
Track 13 accurately ripped (confidence 16) [B6E26E5B]

All tracks accurately ripped

End of status report




Joe Bonamassa - Albums Collection 2000-2012 (17CD) [Re-Up]

Joe Bonamassa - Dust Bowl (2011)
EAC | FLAC | Image (Cue&Log) ~ 434 Mb (incl 5%) | Mp3 (CBR320) ~ 151 Mb (incl 5%)
Label: J&R Adventures | # PRAR93138 | Time: 01:03:05 | Complete PNG Scans ~ 484 Mb

For his second solo album in a year – not counting his excursion with Black Country Communion – Joe Bonamassa, the hardest working blues-rock guitarist of the 21st century, strikes up a bit of a smoky Black Keys vibe, signaling that he’s not quite as devoted to the past as he may initially seem. It’s not the only trick he has up his sleeve, either. Appropriately enough for an album entitled Dust Bowl, Bonamassa kicks up some country dirt on this record, enlisting John Hiatt for a duet on the songwriter’s “Tennessee Plates” and bringing Vince Gill in to play on the lazy shuffle “Sweet Rowena.” These are accents to an album that otherwise sticks to Bonamassa’s strong suit of blues in the vein of Cream, Stevie Ray, and Gary Moore, but it’s just enough of a difference to give Dust Bowl a distinctive flavor and suggests that the guitarist’s constant work is pushing him to synthesize his clear influences into something that is uniquely his own.

Review by Stephen Thomas Erlewine, Allmusic.com

Tracklist:

01. Slow Train - 6:50
02. Dust Bowl - 4:33
03. Tennessee Plates (feat. John Hiatt) - 4:19
04. The Meaning Of The Blues - 5:44
05. Black Lung Heartache - 4:14
06. You Better Watch Yourself - 3:31
07. The Last Matador Of Bayonne - 5:24
08. Heartbreaker (feat. Glenn Hughes) - 5:49
09. No Love On The Street - 6:32
10. The Whale That Swallowed Jonah - 4:46
11. Sweet Rowena (feat. Vince Gill) - 4:34
12. Prisoner - 6:49


Exact Audio Copy V1.0 beta 1 from 15. November 2010

EAC extraction logfile from 26. January 2012, 20:56

Joe Bonamassa / Dust Bowl

Used drive : Optiarc DVD RW AD-5200S Adapter: 2 ID: 0

Read mode : Secure
Utilize accurate stream : Yes
Defeat audio cache : Yes
Make use of C2 pointers : No

Read offset correction : 48
Overread into Lead-In and Lead-Out : No
Fill up missing offset samples with silence : Yes
Delete leading and trailing silent blocks : No
Null samples used in CRC calculations : Yes
Used interface : Native Win32 interface for Win NT & 2000

Used output format : User Defined Encoder
Selected bitrate : 1024 kBit/s
Quality : High
Add ID3 tag : No
Command line compressor : C:\Program Files (x86)\Exact Audio Copy\FLAC\FLAC.EXE
Additional command line options : -8 -V %s


TOC of the extracted CD

Track | Start | Length | Start sector | End sector
––––––––––––––––––––––––––––-
1 | 0:00.00 | 6:49.54 | 0 | 30728
2 | 6:49.54 | 4:33.03 | 30729 | 51206
3 | 11:22.57 | 4:18.59 | 51207 | 70615
4 | 15:41.41 | 5:44.23 | 70616 | 96438
5 | 21:25.64 | 4:14.10 | 96439 | 115498
6 | 25:39.74 | 3:30.42 | 115499 | 131290
7 | 29:10.41 | 5:23.59 | 131291 | 155574
8 | 34:34.25 | 5:49.22 | 155575 | 181771
9 | 40:23.47 | 6:32.11 | 181772 | 211182
10 | 46:55.58 | 4:46.07 | 211183 | 232639
11 | 51:41.65 | 4:34.12 | 232640 | 253201
12 | 56:16.02 | 6:48.69 | 253202 | 283870


Range status and errors

Selected range

Filename G:\Download\Музыка LossLess\Joe Bonamassa\Studio albums\2011 - Joe Bonamassa - Dust Bowl [2011, J&R Adventures - PRAR93138]\Joe Bonamassa - Dust Bowl.wav

Peak level 100.0 %
Extraction speed 0.4 X
Range quality 100.0 %
Test CRC 79592964
Copy CRC 79592964
Copy OK

No errors occurred


AccurateRip summary

Track 1 accurately ripped (confidence 18) [2DEA3D0B]
Track 2 accurately ripped (confidence 18) [5979BE52]
Track 3 accurately ripped (confidence 18) [9EBE0F1D]
Track 4 accurately ripped (confidence 18) [55467D07]
Track 5 accurately ripped (confidence 18) [21C0EC19]
Track 6 accurately ripped (confidence 18) [87FF23BE]
Track 7 accurately ripped (confidence 18) [D1E915DD]
Track 8 accurately ripped (confidence 18) [66A8452C]
Track 9 accurately ripped (confidence 18) [EC40FA93]
Track 10 accurately ripped (confidence 18) [44DE96D5]
Track 11 accurately ripped (confidence 18) [F1F20745]
Track 12 accurately ripped (confidence 18) [910936F2]

All tracks accurately ripped

End of status report




Joe Bonamassa - Albums Collection 2000-2012 (17CD) [Re-Up]

Joe Bonamassa - Beacon Theatre: Live From New York (2012) 2CD
EAC | FLAC | Image (Cue&Log) ~ 802 Mb (incl 5%) | Mp3 (CBR320) ~ 286 Mb (incl 5%)
Label: J&R Adventures | # PRAR935487 | Time: 01:59:10 | Complete PNG Scans ~ 393 Mb

Joe Bonamassa is a guitar hero and a road dog – the blues-rock crusher plays up to 200 shows a year, and it's significant that of the 15 albums he released between 2000 and 2012, four of them were live sets. When Bonamassa played the Beacon Theatre in New York City in November 2011, the marquee declared it "the guitar event of the year," and something that important would certainly merit another live album, wouldn't it? Beacon Theatre: Live from New York is a hefty two-disc set that features plenty of Bonamassa's trademark guitar work, at once precise and bombastic and firmly rooted in the traditions of British blues, and for this show he had Paul Rodgers on hand to lend appropriately swaggering lead vocals to a pair of Free covers, "Fire and Water" and "Walk in My Shadows." Two other guest singers pop up on this set: John Hiatt, whose craggy tone lends a welcome bit of texture to versions of two of his tunes, "Down Around My Place" and "I Know a Place," and Beth Hart, who has collaborated with Bonamassa in the past and lends her voice to spirited versions of "Sinner's Prayer" and "I'll Take Care of You." There's no arguing the technical skill of Bonamassa and his band (Carmine Rojas on bass, Rick Melick on keys, and Tal Bergman on drums), who perform with the accuracy of a Swiss watch, but some might question his taste – there's nothing the least bit subtle about Bonamassa's big, burly sound, and the emotional shadings of these songs are pretty much trampled into the dirt by the end of disc one, while the presence of the guest stars unfortunately reminds listeners that Bonamassa's vocals are not on a par with his skills on the fretboard. But if you're already a convert, Beacon Theatre: Live from New York finds Bonamassa playing with all his might for a crowd who are clearly digging what he has to offer, and if, like many of his fans, you're convinced he sounds stronger and more powerful on-stage, this album will tide you over nicely until he next rolls into your area.

Mark Deming, Allmusic.com

Tracklist:

CD1:

01. 72nd St. Subway Blues (01:05)
02. Slow Train (06:35)
03. Cradle Rock (04:22)
04. When the Fire Hits the Sea (03:43)
05. Midnight Blues (07:49)
06. Dust Bowl (07:06)
07. The River (06:36)
08. I'll Take Care of You (05:41)
09. Sinner's Prayer (05:04)
10. You Better Watch Yourself (04:10)
11. Steal Your Heart Away (03:52)

CD2:

01. Bird On a Wire (05:45)
02. Down Around My Place (05:51)
03. I Know a Place (04:38)
04. Blue And Evil (06:50)
05. Walk in My Shadows (04:58)
06. Fire and Water (04:38)
07. Mountain Time (12:32)
08. Young Man Blues (09:39)
09. If Heartaches Were Nickels (08:06)


Exact Audio Copy V1.0 beta 3 from 29. August 2011

EAC extraction logfile from 17. October 2012, 1:04

Joe Bonamassa / Beacon Theatre: Live From New York (2CD) Disc1

Used drive : Optiarc DVD RW AD-5200S Adapter: 2 ID: 0

Read mode : Secure
Utilize accurate stream : Yes
Defeat audio cache : Yes
Make use of C2 pointers : No

Read offset correction : 48
Overread into Lead-In and Lead-Out : No
Fill up missing offset samples with silence : Yes
Delete leading and trailing silent blocks : No
Null samples used in CRC calculations : Yes
Used interface : Native Win32 interface for Win NT & 2000

Used output format : User Defined Encoder
Selected bitrate : 1024 kBit/s
Quality : High
Add ID3 tag : No
Command line compressor : C:\Program Files (x86)\Exact Audio Copy\FLAC\FLAC.EXE
Additional command line options : -8 -V -T "ARTIST=%artist%" -T "TITLE=%title%" -T "ALBUM=%albumtitle%" -T "DATE=%year%" -T "TRACKNUMBER=%tracknr%" -T "GENRE=%genre%" -T "PERFORMER=%albuminterpret%" -T "COMPOSER=%composer%" %haslyrics%–tag-from-file=LYRICS="%lyricsfile%"%haslyrics% -T "ALBUMARTIST=%albumartist%" -T "DISCNUMBER=%cdnumber%" -T "TOTALDISCS=%totalcds%" -T "TOTALTRACKS=%numtracks%" -T "COMMENT=%comment%" %source% -o %dest%


TOC of the extracted CD

Track | Start | Length | Start sector | End sector
––––––––––––––––––––––––––––-
1 | 0:00.00 | 1:05.72 | 0 | 4946
2 | 1:05.72 | 6:35.60 | 4947 | 34631
3 | 7:41.57 | 4:22.52 | 34632 | 54333
4 | 12:04.34 | 3:43.52 | 54334 | 71110
5 | 15:48.11 | 7:49.57 | 71111 | 106342
6 | 23:37.68 | 7:06.23 | 106343 | 138315
7 | 30:44.16 | 6:36.00 | 138316 | 168015
8 | 37:20.16 | 5:41.35 | 168016 | 193625
9 | 43:01.51 | 5:04.22 | 193626 | 216447
10 | 48:05.73 | 4:10.69 | 216448 | 235266
11 | 52:16.67 | 3:52.40 | 235267 | 252706


Range status and errors

Selected range

Filename G:\CD\Joe Bonamassa - Beacon Theatre- Live From New York (2CD) Disc1.wav

Peak level 100.0 %
Extraction speed 3.7 X
Range quality 99.9 %
Test CRC B8E29E33
Copy CRC B8E29E33
Copy OK

No errors occurred


AccurateRip summary

Track 1 accurately ripped (confidence 1) [39D9BBD0] (AR v1)
Track 2 accurately ripped (confidence 1) [75730585] (AR v1)
Track 3 cannot be verified as accurate (confidence 1) [68A02DF3], AccurateRip returned [073129F4] (AR v2)
Track 4 accurately ripped (confidence 1) [DF7EE962] (AR v1)
Track 5 accurately ripped (confidence 1) [DAD7BE61] (AR v1)
Track 6 accurately ripped (confidence 1) [E35F5448] (AR v1)
Track 7 accurately ripped (confidence 1) [00A8A66F] (AR v1)
Track 8 accurately ripped (confidence 1) [4FACE30F] (AR v1)
Track 9 accurately ripped (confidence 1) [62A9688C] (AR v1)
Track 10 accurately ripped (confidence 1) [3A3F1BC7] (AR v1)
Track 11 accurately ripped (confidence 1) [F0231E52] (AR v1)

10 track(s) accurately ripped
1 track(s) could not be verified as accurate

Some tracks could not be verified as accurate

End of status report

==== Log checksum 55B7A2A4DC0890A63285AD34AD07B8A0136E148D01D00CBBFF9CAB07A83905E8 ====

foobar2000 1.2 / Dynamic Range Meter 1.1.1
log date: 2014-03-27 02:35:31

––––––––––––––––––––––––––––––––––––––––
Analyzed: Joe Bonamassa / Beacon Theatre: Live From New York (2CD) Disc1
––––––––––––––––––––––––––––––––––––––––

DR Peak RMS Duration Track
––––––––––––––––––––––––––––––––––––––––
DR10 -1.66 dB -14.01 dB 1:06 01-72nd St. Subway Blues
DR5 0.00 dB -6.44 dB 6:36 02-Slow Train
DR6 0.00 dB -6.09 dB 4:23 03-Cradle Rock
DR5 0.00 dB -6.18 dB 3:44 04-When the Fire Hits the Sea
DR6 0.00 dB -8.99 dB 7:50 05-Midnight Blues
DR5 0.00 dB -6.81 dB 7:06 06-Dust Bowl
DR6 0.00 dB -7.67 dB 6:36 07-The River
DR6 0.00 dB -8.00 dB 5:41 08-I'll Take Care of You
DR6 0.00 dB -6.80 dB 5:04 09-Sinner's Prayer
DR5 0.00 dB -6.33 dB 4:11 10-You Better Watch Yourself
DR6 0.00 dB -7.19 dB 3:53 11-Steal Your Heart Away
––––––––––––––––––––––––––––––––––––––––

Number of tracks: 11
Official DR value: DR6

Samplerate: 44100 Hz
Channels: 2
Bits per sample: 16
Bitrate: 916 kbps
Codec: FLAC
================================================================================


Exact Audio Copy V1.0 beta 3 from 29. August 2011

EAC extraction logfile from 16. October 2012, 23:30

Joe Bonamassa / Beacon Theatre: Live From New York (2CD) Disc2

Used drive : Optiarc DVD RW AD-5200S Adapter: 2 ID: 0

Read mode : Secure
Utilize accurate stream : Yes
Defeat audio cache : Yes
Make use of C2 pointers : No

Read offset correction : 48
Overread into Lead-In and Lead-Out : No
Fill up missing offset samples with silence : Yes
Delete leading and trailing silent blocks : No
Null samples used in CRC calculations : Yes
Used interface : Native Win32 interface for Win NT & 2000

Used output format : User Defined Encoder
Selected bitrate : 1024 kBit/s
Quality : High
Add ID3 tag : No
Command line compressor : C:\Program Files (x86)\Exact Audio Copy\FLAC\FLAC.EXE
Additional command line options : -8 -V -T "ARTIST=%artist%" -T "TITLE=%title%" -T "ALBUM=%albumtitle%" -T "DATE=%year%" -T "TRACKNUMBER=%tracknr%" -T "GENRE=%genre%" -T "PERFORMER=%albuminterpret%" -T "COMPOSER=%composer%" %haslyrics%–tag-from-file=LYRICS="%lyricsfile%"%haslyrics% -T "ALBUMARTIST=%albumartist%" -T "DISCNUMBER=%cdnumber%" -T "TOTALDISCS=%totalcds%" -T "TOTALTRACKS=%numtracks%" -T "COMMENT=%comment%" %source% -o %dest%


TOC of the extracted CD

Track | Start | Length | Start sector | End sector
––––––––––––––––––––––––––––-
1 | 0:00.00 | 5:45.61 | 0 | 25935
2 | 5:45.61 | 5:51.33 | 25936 | 52293
3 | 11:37.19 | 4:38.74 | 52294 | 73217
4 | 16:16.18 | 6:50.22 | 73218 | 103989
5 | 23:06.40 | 4:58.10 | 103990 | 126349
6 | 28:04.50 | 4:38.48 | 126350 | 147247
7 | 32:43.23 | 12:32.01 | 147248 | 203648
8 | 45:15.24 | 9:39.50 | 203649 | 247123
9 | 54:54.74 | 8:06.27 | 247124 | 283600


Range status and errors

Selected range

Filename G:\CD\Joe Bonamassa - Beacon Theatre- Live From New York (2CD) Disc2.wav

Peak level 100.0 %
Extraction speed 4.0 X
Range quality 100.0 %
Test CRC 12DA1918
Copy CRC 12DA1918
Copy OK

No errors occurred


AccurateRip summary

Track 1 not present in database
Track 2 not present in database
Track 3 not present in database
Track 4 not present in database
Track 5 not present in database
Track 6 not present in database
Track 7 not present in database
Track 8 not present in database
Track 9 not present in database

None of the tracks are present in the AccurateRip database

End of status report

==== Log checksum 70F97D7DAF4C2F523FE4560B6771D2DBD5D45297FD36FE6F40FCD592402441B8 ====

foobar2000 1.2 / Dynamic Range Meter 1.1.1
log date: 2014-03-27 02:35:48

––––––––––––––––––––––––––––––––––––––––
Analyzed: Joe Bonamassa / Beacon Theatre: Live From New York (2CD) Disc2
––––––––––––––––––––––––––––––––––––––––

DR Peak RMS Duration Track
––––––––––––––––––––––––––––––––––––––––
DR6 0.00 dB -10.19 dB 5:46 01-Bird On a Wire
DR5 0.00 dB -9.99 dB 5:51 02-Down Around My Place
DR5 0.00 dB -6.04 dB 4:39 03-I Know a Place
DR5 0.00 dB -6.20 dB 6:50 04-Blue And Evil
DR5 0.00 dB -7.09 dB 4:58 05-Walk in My Shadows
DR5 0.00 dB -6.73 dB 4:39 06-Fire and Water
DR5 0.00 dB -8.64 dB 12:32 07-Mountain Time
DR5 0.00 dB -7.25 dB 9:40 08-Young Man Blues
DR6 0.00 dB -9.11 dB 8:06 09-If Heartaches Were Nickels
––––––––––––––––––––––––––––––––––––––––

Number of tracks: 9
Official DR value: DR5

Samplerate: 44100 Hz
Channels: 2
Bits per sample: 16
Bitrate: 876 kbps
Codec: FLAC
================================================================================




Joe Bonamassa - Albums Collection 2000-2012 (17CD) [Re-Up]

Joe Bonamassa - Driving Towards The Daylight (2012) Special Edition
EAC | FLAC | Image (Cue&Log) ~ 407 Mb (incl 5%) | Mp3 (CBR320) ~ 136 Mb (incl 5%)
Label: J&R Adventures | # PRD 7370 2 | Time: 00:56:33 | Complete PNG Scans ~ 1.9 Gb

He'll never be the new Stevie Ray Vaughan, but at the rate blues-rock (emphasis on the latter) guitarist Joe Bonamassa is going, he can take a stab at being the next Gary Moore. Like the Irish guitarist, Bonamassa is influenced by the British blues-rockers more than the Americans they lifted their licks from. He's also just as prolific; this is his thirteenth album in twelve years and that's not including side projects with Black Country Communion and Beth Hart, and DVDs grabbed from his 200-night-a-year road schedule filled with sweaty, high-energy performances. Makes you tired just reading about it. Bonamassa isn't much of a songwriter so he wisely contributes only four tunes to this disc's eleven, with some relatively obscure deep blues covers from Howlin' Wolf ("Who's Been Talkin'"), Willie Dixon ("I Got All You Need"), and Robert Johnson ("Stones in My Passway") gravitating toward his roots side. Also included are offbeat choices from Bill Withers ("Lonely Town/Lonely Street") and Tom Waits ("New Coat of Paint"). For better or worse, they all end up sounding like Joe Bonamassa tracks, since he feeds them into his leathery rock sensibilities, churning out requisite hot guitar solos whether they serve the song or not. He's left his road-hardened band on the sidelines and calls in top-notch session guys, including Aerosmith's Brad Whitford, David Letterman drummer Anton Fig, and keyboardist Arlen Schierbaum, whose piano and organ add some much-needed R&B attitude to the hard rock attack. Bonamassa even relinquishes lead vocals to Australian Jimmy Barnes, who goes so over the top singing his own "Too Much Ain't Enough Love" it seems like he is auditioning for AC/DC. Longtime producer Kevin Shirley gets a slick, professional sound from these guys, and when everyone is cooking and the material is solid, such as on the grinding Bonamassa original "Dislocated Boy" and the Wolf cover (including a spoken word sample of the blues legend that kicks off the tune), the arrangements and guitars mesh together like whisky and soda. What Bonamassa lacks in a distinctive sound and singing, he makes up for with sheer determination, which is almost enough to push the album from pretty good to pretty great, especially on the horn-enhanced slow blues of "A Place in My Heart" that explodes out of the speakers in a way Gary Moore could summon at will. In other words, this is a keeper if you've already bought into the guitarist's more-is-more approach that has served him well thus far, and he shows no signs of abandoning it now.

Hal Horowitz, Allmusic.com

Tracklist:

01. Dislocated Boy (06:39)
02. Stones In My Passway (03:56)
03. Driving Towards The Daylight (04:49)
04. Who's Been Talking? (03:27)
05. I Got All You Need (03:03)
06. A Place In My Heart (06:47)
07. Lonely Town Lonely Street (07:05)
08. Heavenly Soul (05:55)
09. New Coat Of Paint (04:06)
10. Somewhere Trouble Don't Go (04:58)
11. Too Much Ain't Enough Love (w\ Jimmy Barnes) (05:37)


Exact Audio Copy V1.0 beta 1 from 15. November 2010

EAC extraction logfile from 5. June 2012, 20:29

Joe Bonamassa / Driving Towards The Daylight (Provogue-PRD73702)

Used drive : Optiarc DVD RW AD-5200S Adapter: 2 ID: 0

Read mode : Secure
Utilize accurate stream : Yes
Defeat audio cache : Yes
Make use of C2 pointers : No

Read offset correction : 48
Overread into Lead-In and Lead-Out : No
Fill up missing offset samples with silence : Yes
Delete leading and trailing silent blocks : No
Null samples used in CRC calculations : Yes
Used interface : Native Win32 interface for Win NT & 2000

Used output format : User Defined Encoder
Selected bitrate : 1024 kBit/s
Quality : High
Add ID3 tag : No
Command line compressor : C:\Program Files (x86)\Exact Audio Copy\FLAC\FLAC.EXE
Additional command line options : -8 -V %s


TOC of the extracted CD

Track | Start | Length | Start sector | End sector
––––––––––––––––––––––––––––-
1 | 0:00.00 | 6:39.56 | 0 | 29980
2 | 6:39.56 | 3:57.68 | 29981 | 47823
3 | 10:37.49 | 4:50.18 | 47824 | 69591
4 | 15:27.67 | 3:28.12 | 69592 | 85203
5 | 18:56.04 | 3:03.63 | 85204 | 98991
6 | 21:59.67 | 6:47.63 | 98992 | 129579
7 | 28:47.55 | 7:07.63 | 129580 | 161667
8 | 35:55.43 | 5:55.22 | 161668 | 188314
9 | 41:50.65 | 4:06.17 | 188315 | 206781
10 | 45:57.07 | 4:58.55 | 206782 | 229186
11 | 50:55.62 | 5:37.19 | 229187 | 254480


Range status and errors

Selected range

Filename G:\2012 - Joe Bonamassa - Driving Towards The Daylight [2012, Limited Edition, Digibox, Provogue - PRD73702]\Joe Bonamassa - Driving Towards The Daylight (Provogue-PRD73702).wav

Peak level 100.0 %
Extraction speed 0.3 X
Range quality 100.0 %
Test CRC 5D36D63D
Copy CRC 5D36D63D
Copy OK

No errors occurred


AccurateRip summary

Track 1 accurately ripped (confidence 4) [658B0CBC]
Track 2 accurately ripped (confidence 4) [39BEF7D2]
Track 3 accurately ripped (confidence 4) [ED885DBE]
Track 4 accurately ripped (confidence 4) [9F9F9BB4]
Track 5 accurately ripped (confidence 4) [51F137FD]
Track 6 accurately ripped (confidence 4) [60512F23]
Track 7 accurately ripped (confidence 4) [4A53D2EF]
Track 8 accurately ripped (confidence 4) [7E642B11]
Track 9 accurately ripped (confidence 4) [95D9EC15]
Track 10 accurately ripped (confidence 4) [8D696B3C]
Track 11 accurately ripped (confidence 4) [F38E8A9D]

All tracks accurately ripped

End of status report

foobar2000 1.2 / Dynamic Range Meter 1.1.1
log date: 2014-03-27 01:53:25

––––––––––––––––––––––––––––––––––––––––
Analyzed: Joe Bonamassa / Driving Towards The Daylight (Provogue-PRD73702)
––––––––––––––––––––––––––––––––––––––––

DR Peak RMS Duration Track
––––––––––––––––––––––––––––––––––––––––
DR5 0.00 dB -6.42 dB 6:40 01-Dislocated Boy
DR5 0.00 dB -5.93 dB 3:58 02-Stones In My Passway
DR5 0.00 dB -7.99 dB 4:50 03-Driving Towards The Daylight
DR5 0.00 dB -6.38 dB 3:28 04-Who's Been Talking?
DR6 0.00 dB -6.76 dB 3:04 05-I Got All You Need
DR5 0.00 dB -6.32 dB 6:48 06-A Place In My Heart
DR5 0.00 dB -6.89 dB 7:08 07-Lonely Town Lonely Street
DR5 0.00 dB -6.14 dB 5:55 08-Heavenly Soul
DR5 -0.03 dB -6.24 dB 4:06 09-New Coat Of Paint
DR5 0.00 dB -5.92 dB 4:59 10-Somewhere Trouble Don't Go
DR5 0.00 dB -5.56 dB 5:37 11-Too Much Ain't Enough Love (w\ Jimmy Barnes)
––––––––––––––––––––––––––––––––––––––––

Number of tracks: 11
Official DR value: DR5

Samplerate: 44100 Hz
Channels: 2
Bits per sample: 16
Bitrate: 957 kbps
Codec: FLAC
================================================================================




NitroFlare:
>> Folder <<