Subcategories

Herbert Grönemeyer – Live (1995)

Posted By: Designol
Herbert Grönemeyer – Live (1995)

Herbert Grönemeyer – Live (1995)
EAC | FLAC | Image+Cue+Log+Scans ~ 556 Mb (incl 5%) | Mp3 320kbps ~ 206 Mb (incl 5%)
Genre: Rock, Pop-rock, Soft-rock | Label: EMI Electrola | # 724383612727 | Time: 01:17:42

Although this live album was recorded years before Herbert Grönemeyer's commercial peak, the songwriter had plenty of hits in his catalog at the time of its release, many of which are reprised here. Several months prior, Grönemeyer broke the language barrier on MTV Unplugged by becoming the first non-English-speaking artist to perform on the show. He sounds similarly confident here, breezing his way through singles like "Bochum" and "Deine Liebe Klebt" to an audience that sings along to every word.
Herbert Grönemeyer – Live (1995)

Perhaps best known to international audiences for his performance in Wolfgang Petersen's highly-acclaimed film Das Boot, Herbert Grönemeyer is celebrated in his native Germany as one of the most successful rock singers of his generation. Born in Göttingen on April 12, 1956, Grönemeyer first earned attention as an actor, beginning his career in the 1977 German telefilm Die Geisel. His debut LP, Ocean Orchestra, appeared a year later to little notice, and the follow-up, Grönemeyer, attracted scant attention as well. In 1981, he landed the role of Lt. Werner in the World War II epic Das Boot, which emerged as an international commercial and critical hit, earning six Academy Award nominations. Grönemeyer nevertheless walked away from film to concentrate on his music career.

In 1984, he signed to EMI and issued Bochum, which went on to become the biggest-selling German-language LP in music history to date. A gravel-voiced, blue-collar stadium rocker best likened to American acts such as Bob Seger and John Mellencamp, Grönemeyer also favored topical lyrics that mirrored his growing influence as an activist. In the mid-'80s, he led protests against ozone-depleting CFC gases, and in 1992 founded the anti-racism group Ich Bin ein Ausländer (I Am a Foreigner). Albums including 1986's Sprünge and 1988's Ö kept Grönemeyer atop the German charts, and in 1991 he recorded his first English-language effort, Luxus, which failed to accurately translate the intricacies and nuances of his original lyrics. He became the first German act to appear on MTV Unplugged in 1995, and a year later again tried to crack the English-language market, with Chaos.

In the wake of 1998's Bleibt Alles Anders, Grönemeyer suffered extraordinary personal tragedy when his wife Anna and his brother Wilhelm both died of cancer within the same week; he dropped from sight in the weeks and months to follow, although in 1999 he co-founded his own label, Grönland, which boasted a vast and eclectic catalog including the complete output of the pioneering Krautrock outfit Neu! Grönemeyer finally resurfaced in 2002 with a new LP, Mensch, a deeply personal effort informed by his recent losses. The title track went on to become his first-ever number one single, and the album sold in excess of 3.2 million copies at home, making it Germany's highest-selling album of all time. Time Magazine awarded Grönemeyer the title of "European Hero" in 2005 on behalf of his humanitarian efforts, which by this time included his work leading the Deine Stimme Gegen Armut (Your Voice Against Poverty) campaign. The following summer he recorded "Zeit Dass Sich Was Dreht" (Celebrate the Day), the official anthem of World Cup 2006.

Official Website
Last.fm
Wiki

Tracklist:


1. Chaos - 5:21
2. Deine Liebe Klebt - 4:05
3. Kein Verlust - 4:15
4. Männer - 2:02
5. Kinder An Die Macht - 2:27
6. Alkohol - 5:14
7. Land Unter - 5:03
8. Morgenrot - 4:10
9. Halt Mich - 3:32
10. Bochum - 4:31
11. Die Härte - 3:32
12. Sie - 3:44
13. Was Soll Das - 4:49
14. Vollmond - 6:10
15. Flugzeuge Im Bauch - 4:23
16. Marie - 4:35
17. Mambo - 5:11
18. Ich Hab Dich Lieb - 4:29


Exact Audio Copy V0.99 prebeta 4 from 23. January 2008

EAC Auslese-Logdatei vom 31. August 2008, 20:59

Herbert Grцnemeyer / Grцnemeyer Live

Benutztes Laufwerk : HL-DT-STDVDRAM GSA-4163B Adapter: 0 ID: 0

Lesemodus : Sicher
Benutze Accurate Stream : Ja
Audio Puffer abgeschaltet : Ja
Benutze C2 Fehlerinformationen : Nein

Leseoffset Korrektur : 667
Ьberlesen in das Lead-In und Lead-Out : Nein
Fьlle fehlende Offsetsample mit Stille auf : Ja
Lцsche fьhrende und nachfolgende stille Blцcke : Nein
Null Samples gehen in CRC Berechnungen ein : Ja
Benutzte Schnittstelle : Natьrliche Win32 Schnittstelle fьr Win NT/2000/XP

Benutztes Ausgabeformat : Benutzerdefinierter Komprimierer
Gewдhlte Bitrate : 896 kBit/s
Qualitдt : Hoch
Fьge ID3 Tag hinzu : Nein
Kommandozeilen Komprimierer : C:\Programme\Exact Audio Copy\FLAC\FLAC.EXE
Zusдtzliche Kommandozeilenoptionen : -6 -V -T "ARTIST=%a" -T "TITLE=%t" -T "ALBUM=%g" -T "DATE=%y" -T "TRACKNUMBER=%n" -T "GENRE=%m" -T "COMMENT=%e" %s -o %d


TOC der ausgelesenen CD

Track | Start | Lдnge | Startsektor | Endsektor
–––––––––––––––––––––––––––-
1 | 0:00.00 | 5:21.22 | 0 | 24096
2 | 5:21.22 | 4:05.00 | 24097 | 42471
3 | 9:26.22 | 4:15.25 | 42472 | 61621
4 | 13:41.47 | 2:02.58 | 61622 | 70829
5 | 15:44.30 | 2:27.72 | 70830 | 81926
6 | 18:12.27 | 5:14.08 | 81927 | 105484
7 | 23:26.35 | 5:03.35 | 105485 | 128244
8 | 28:29.70 | 4:10.70 | 128245 | 147064
9 | 32:40.65 | 3:32.32 | 147065 | 162996
10 | 36:13.22 | 4:31.68 | 162997 | 183389
11 | 40:45.15 | 3:32.22 | 183390 | 199311
12 | 44:17.37 | 3:44.65 | 199312 | 216176
13 | 48:02.27 | 4:49.10 | 216177 | 237861
14 | 52:51.37 | 6:10.65 | 237862 | 265676
15 | 59:02.27 | 4:23.15 | 265677 | 285416
16 | 63:25.42 | 4:35.25 | 285417 | 306066
17 | 68:00.67 | 5:11.55 | 306067 | 329446
18 | 73:12.47 | 4:29.68 | 329447 | 349689


Bereichsstatus und Fehler

Gewдhlter Bereich

Dateiname K:\Lossless\Herbert Grцnemeyer\Herbert Grцnemeyer - Grцnemeyer Live.wav

Spitzenpegel 100.0 %
Bereichsqualitдt 99.9 %
Test CRC 4CCDECAF
Kopie CRC 4CCDECAF
Kopie OK

Keine Fehler aufgetreten

Ende des Statusreports

[CUETools log; Date: 28.02.2011 4:42:26; Version: 2.0.9]
[CTDB TOCID: r2OgbaYf5MNbevqPswWUujv042o-] disk not present in database.
[AccurateRip ID: 0030cb53-028e0e76-13123612] found.
Track [ CRC ] Status
01 [f212bbcc] (069/177) Accurately ripped
02 [fd88cdd4] (069/180) Accurately ripped
03 [4841e3ee] (072/182) Accurately ripped
04 [e77d39c2] (072/183) Accurately ripped
05 [880fde68] (070/182) Accurately ripped
06 [d6d19731] (068/177) Accurately ripped
07 [bab4a264] (071/177) Accurately ripped
08 [2a9af9dd] (070/180) Accurately ripped
09 [0c07c3f6] (069/179) Accurately ripped
10 [96666296] (070/180) Accurately ripped
11 [a1696b29] (070/181) Accurately ripped
12 [0718a504] (069/179) Accurately ripped
13 [36338f64] (069/178) Accurately ripped
14 [7a768a7d] (069/173) Accurately ripped
15 [1e1a2fd0] (069/177) Accurately ripped
16 [541c68be] (068/175) Accurately ripped
17 [55e3f02d] (064/170) Accurately ripped
18 [5ca78ee3] (061/166) Accurately ripped
Offsetted by -329:
01 [a160328a] (042/177) Accurately ripped
02 [9748d5df] (043/180) Accurately ripped
03 [73c3a4c3] (043/182) Accurately ripped
04 [a8fc7e4c] (042/183) Accurately ripped
05 [2c1d591d] (043/182) Accurately ripped
06 [4b6b30ae] (042/177) Accurately ripped
07 [a3596ec5] (042/177) Accurately ripped
08 [b3569f77] (043/180) Accurately ripped
09 [8aa1f0fd] (043/179) Accurately ripped
10 [7ed4a0f6] (043/180) Accurately ripped
11 [f86ea13e] (043/181) Accurately ripped
12 [9e6e7ace] (043/179) Accurately ripped
13 [2cd31e34] (043/178) Accurately ripped
14 [704d7b90] (041/173) Accurately ripped
15 [2ca8719f] (041/177) Accurately ripped
16 [8902badc] (042/175) Accurately ripped
17 [21372513] (040/170) Accurately ripped
18 [9d566793] (040/166) Accurately ripped
Offsetted by -59:
01 [c40be8ae] (059/177) Accurately ripped
02 [6abb59d7] (061/180) Accurately ripped
03 [11e279e3] (060/182) Accurately ripped
04 [67fafd04] (062/183) Accurately ripped
05 [2b5880d2] (062/182) Accurately ripped
06 [e52ca10e] (060/177) Accurately ripped
07 [1145457a] (057/177) Accurately ripped
08 [33be706b] (060/180) Accurately ripped
09 [bae8723e] (060/179) Accurately ripped
10 [3b818115] (060/180) Accurately ripped
11 [d4a26b1e] (061/181) Accurately ripped
12 [f26e3c29] (060/179) Accurately ripped
13 [66031cad] (059/178) Accurately ripped
14 [43bf4106] (056/173) Accurately ripped
15 [32a6da87] (060/177) Accurately ripped
16 [ce19389a] (058/175) Accurately ripped
17 [983cdc39] (059/170) Accurately ripped
18 [57f5d237] (058/166) Accurately ripped
Offsetted by -1323:
01 [b4516c6e] (002/177) Accurately ripped
02 [265ed7e8] (002/180) Accurately ripped
03 [8fbe2699] (002/182) Accurately ripped
04 [f704bf35] (002/183) Accurately ripped
05 [cfd85fac] (002/182) Accurately ripped
06 [8ff4b431] (002/177) Accurately ripped
07 [400cc43c] (002/177) Accurately ripped
08 [ecf569bf] (002/180) Accurately ripped
09 [01efe48e] (002/179) Accurately ripped
10 [fedb5d5e] (002/180) Accurately ripped
11 [6b981898] (002/181) Accurately ripped

Herbert Grönemeyer – Live (1995)

Herbert Grönemeyer – Live (1995)