Subcategories

Herbert Grönemeyer – 4630 Bochum (1984)

Posted By: Designol
Herbert Grönemeyer – 4630 Bochum (1984)

Herbert Grönemeyer – 4630 Bochum (1984)
EAC | FLAC (tracks)+Cue+Log+Scans ~ 268 Mb (incl 5%) | MP3 320kbps ~ 105 Mb (incl 5%) |
Label: EMI Music, Grönland Records | # 07243 499502 2 1 | Time: 00:39:05
Genre: Rock, Pop-rock, Soft-rock

Herbert Grönemeyer – 4630 Bochum (1984)

Although his first four solo albums were commercial disappointments, 1984's Bochum turned Herbert Grönemeyer into the biggest musician in Germany. Featuring a blue-collar, stadium rock sound and highly literate lyrics including double entendres, puns, and other creative word play Bochum became the best-selling German album of all time, a record it held until Grönemeyer's Mensch beat it two decades later.
Herbert Grönemeyer – 4630 Bochum (1984)

Perhaps best known to international audiences for his performance in Wolfgang Petersen's highly-acclaimed film Das Boot, Herbert Grönemeyer is celebrated in his native Germany as one of the most successful rock singers of his generation. Born in Göttingen on April 12, 1956, Grönemeyer first earned attention as an actor, beginning his career in the 1977 German telefilm Die Geisel. His debut LP, Ocean Orchestra, appeared a year later to little notice, and the follow-up, Grönemeyer, attracted scant attention as well. In 1981, he landed the role of Lt. Werner in the World War II epic Das Boot, which emerged as an international commercial and critical hit, earning six Academy Award nominations. Grönemeyer nevertheless walked away from film to concentrate on his music career.

In 1984, he signed to EMI and issued Bochum, which went on to become the biggest-selling German-language LP in music history to date. A gravel-voiced, blue-collar stadium rocker best likened to American acts such as Bob Seger and John Mellencamp, Grönemeyer also favored topical lyrics that mirrored his growing influence as an activist. In the mid-'80s, he led protests against ozone-depleting CFC gases, and in 1992 founded the anti-racism group Ich Bin ein Ausländer (I Am a Foreigner). Albums including 1986's Sprünge and 1988's Ö kept Grönemeyer atop the German charts, and in 1991 he recorded his first English-language effort, Luxus, which failed to accurately translate the intricacies and nuances of his original lyrics. He became the first German act to appear on MTV Unplugged in 1995, and a year later again tried to crack the English-language market, with Chaos.

In the wake of 1998's Bleibt Alles Anders, Grönemeyer suffered extraordinary personal tragedy when his wife Anna and his brother Wilhelm both died of cancer within the same week; he dropped from sight in the weeks and months to follow, although in 1999 he co-founded his own label, Grönland, which boasted a vast and eclectic catalog including the complete output of the pioneering Krautrock outfit Neu! Grönemeyer finally resurfaced in 2002 with a new LP, Mensch, a deeply personal effort informed by his recent losses. The title track went on to become his first-ever number one single, and the album sold in excess of 3.2 million copies at home, making it Germany's highest-selling album of all time. Time Magazine awarded Grönemeyer the title of "European Hero" in 2005 on behalf of his humanitarian efforts, which by this time included his work leading the Deine Stimme Gegen Armut (Your Voice Against Poverty) campaign. The following summer he recorded "Zeit Dass Sich Was Dreht" (Celebrate the Day), the official anthem of World Cup 2006.

Official Website
Last.fm
Wiki

Tracklist:

1. Bochum 3:46
2. Männer 3:58
3. Flugzeuge Im Bauch 3:51
4. Alkohol 4:27
5. Amerika 3:24
6. Für Dich Da 3:22
7. Jetzt Oder Nie 4:56
8. Fangfragen 4:15
9. Erwischt 3:59
10. Mambo 2:47


Exact Audio Copy V1.0 beta 1 from 15. November 2010

EAC extraction logfile from 25. January 2011, 15:32

Herbert Grönemeyer / 4630 Bochum

Used drive : ASUS DRW-24B1ST Adapter: 0 ID: 0

Read mode : Secure
Utilize accurate stream : Yes
Defeat audio cache : Yes
Make use of C2 pointers : No

Read offset correction : 6
Overread into Lead-In and Lead-Out : No
Fill up missing offset samples with silence : Yes
Delete leading and trailing silent blocks : No
Null samples used in CRC calculations : Yes
Used interface : Native Win32 interface for Win NT & 2000

Used output format : User Defined Encoder
Selected bitrate : 768 kBit/s
Quality : High
Add ID3 tag : No
Command line compressor : C:\Program Files\Exact Audio Copy\FLAC\FLAC.EXE
Additional command line options : -8 -V -T "ARTIST=%a" -T "TITLE=%t" -T "ALBUM=%g" -T "DATE=%y" -T "TRACKNUMBER=%n" -T "GENRE=%m" -T "COMMENT=%e" %j–picture="%i"%j %s -o %d


TOC of the extracted CD

Track | Start | Length | Start sector | End sector
––––––––––––––––––––––––––––-
1 | 0:00.20 | 3:50.60 | 20 | 17329
2 | 3:51.05 | 4:00.25 | 17330 | 35354
3 | 7:51.30 | 3:54.25 | 35355 | 52929
4 | 11:45.55 | 4:28.57 | 52930 | 73086
5 | 16:14.37 | 3:27.25 | 73087 | 88636
6 | 19:41.62 | 3:23.18 | 88637 | 103879
7 | 23:05.05 | 4:58.00 | 103880 | 126229
8 | 28:03.05 | 4:15.52 | 126230 | 145406
9 | 32:18.57 | 4:00.73 | 145407 | 163479
10 | 36:19.55 | 2:45.65 | 163480 | 175919


Range status and errors

Selected range

Filename C:\_Audiorips\Herbert Groenemeyer - 4630 Bochum\Herbert Grönemeyer - 4630 Bochum.wav

Peak level 81.3 %
Extraction speed 0.2 X
Range quality 100.0 %
Test CRC 4B9EC945
Copy CRC 4B9EC945
Copy OK

No errors occurred


AccurateRip summary

Track 1 accurately ripped (confidence 4) [D08C3E5A]
Track 2 accurately ripped (confidence 4) [E8E5C8B0]
Track 3 accurately ripped (confidence 4) [D561B6B2]
Track 4 accurately ripped (confidence 4) [24C54533]
Track 5 accurately ripped (confidence 3) [B2E1FDE8]
Track 6 accurately ripped (confidence 3) [0CEB59C4]
Track 7 accurately ripped (confidence 4) [032C8C0D]
Track 8 accurately ripped (confidence 4) [69975A42]
Track 9 accurately ripped (confidence 4) [22F9AACD]
Track 10 accurately ripped (confidence 4) [7EF7A632]

All tracks accurately ripped

End of status report

Herbert Grönemeyer – 4630 Bochum (1984)

Herbert Grönemeyer – 4630 Bochum (1984)

Herbert Grönemeyer – 4630 Bochum (1984)