Subcategories

Herbert Groenemeyer - The American: Original Motion Picture Soundtrack (2010)

Posted By: Designol
Herbert Groenemeyer - The American: Original Motion Picture Soundtrack (2010)

Herbert Grönemeyer - The American: Original Motion Picture Soundtrack (2010)
EAC | FLAC | Image (Cue&Log) ~ 264 Mb (incl 5%) | Mp3 (CBR320/Stereo) ~ 141 Mb (incl 5%) | Scans included
Genre: Soundtrack, Score | Label: EMI | # 50999 9 18377 2 1 | Time: 00:51:27

The American is a 2010 American thriller film directed by Anton Corbijn and starring George Clooney, Thekla Reuten, Violante Placido, Irina Björklund, and Paolo Bonacelli. It is an adaptation of the 1990 novel A Very Private Gentleman by Martin Booth. The film score was written and composed by German singer-songwriter (and longtime friend of Anton Corbijn) Herbert Grönemeyer. A 1967 song called "Window of My Eyes" by the Dutch blues band Cuby & the Blizzards is played over the ending credits. The aria "Un bel dì vedremo" ("One fine day we'll see") from Puccini's opera Madama Butterfly can be heard in the background of one scene and "Tu vuò fà l'americano" in another. In another scene the Italian song "La Bambola" by Patty Pravo plays.

Herbert Groenemeyer - The American: Original Motion Picture Soundtrack (2010)

Herbert Groenemeyer - The American: Original Motion Picture Soundtrack (2010)

Herbert Grönemeyer Biography
Herbert Grönemeyer at Wiki

Film at IMDB
Film at Wiki


Tracklist:

01. Main title (3:20)
02. The chalet (2:07)
03. 1st call to Pavel (0:17)
04. Gun assembly (1:55)
05. La bambola (2:59) (Patty Pravo)
06. Madama Butterfly Lib. Giacosa And Illica, ACT 2: Un Bel Dì Vedremo (4:31)
(Maria Callas/Philharmonia Orchestra/Tullio Serafin)
07. Test of trust (0:38)
08. Filling the bullets (1:26)
09. Let's meet somewhere new (1:46)
10. Car chase (1:31)
11. Tu vuт fа l'americano (3:22) (Renato Carosone)
12. Bad dreams (1:11)
13. Dinner date (0:54)
14. After dinner (1:03)
15. The sweets tin (2:21)
16. Stay forever (0:40)
17. Drive to exchange (2:06)
18. Nel giardino dell' amore (3:02) (Patty Pravo)
19. The procession (2:16)
20. Mr. Butterfly's last journey (2:48)
21. End credits (Guitar) (0:57)
22. End credits (Piano) (1:55)
23. Window of my eyes (3:28) (Cuby & The Blizzards)
24. Jack gathers parts (1:37)
25. The tunnel (3:14)


Exact Audio Copy V0.99 prebeta 5 from 4. May 2009

EAC extraction logfile from 3. November 2010, 14:21

Herbert Grцnemeyer / The American

Used drive : HL-DT-STDVDRAM GH22NS50 Adapter: 1 ID: 1

Read mode : Secure
Utilize accurate stream : Yes
Defeat audio cache : Yes
Make use of C2 pointers : No

Read offset correction : 667
Overread into Lead-In and Lead-Out : No
Fill up missing offset samples with silence : Yes
Delete leading and trailing silent blocks : No
Null samples used in CRC calculations : Yes
Used interface : Native Win32 interface for Win NT & 2000

Used output format : User Defined Encoder
Selected bitrate : 128 kBit/s
Quality : High
Add ID3 tag : No
Command line compressor : C:\Program Files\FLAC\flac.exe
Additional command line options : -8 -V -T "artist=%a" -T "title=%t" -T "album=%g" -T "date=%y" -T "tracknumber=%n" -T "genre=%m" %s


TOC of the extracted CD

Track | Start | Length | Start sector | End sector
––––––––––––––––––––––––––––-
1 | 0:00.00 | 3:20.36 | 0 | 15035
2 | 3:20.36 | 2:07.29 | 15036 | 24589
3 | 5:27.65 | 0:16.50 | 24590 | 25839
4 | 5:44.40 | 1:55.14 | 25840 | 34478
5 | 7:39.54 | 2:59.32 | 34479 | 47935
6 | 10:39.11 | 4:31.32 | 47936 | 68292
7 | 15:10.43 | 0:37.69 | 68293 | 71136
8 | 15:48.37 | 1:26.10 | 71137 | 77596
9 | 17:14.47 | 1:46.24 | 77597 | 85570
10 | 19:00.71 | 1:31.03 | 85571 | 92398
11 | 20:31.74 | 3:21.70 | 92399 | 107543
12 | 23:53.69 | 1:11.15 | 107544 | 112883
13 | 25:05.09 | 0:53.73 | 112884 | 116931
14 | 25:59.07 | 1:02.70 | 116932 | 121651
15 | 27:02.02 | 2:21.32 | 121652 | 132258
16 | 29:23.34 | 0:39.67 | 132259 | 135250
17 | 30:03.26 | 2:06.35 | 135251 | 144735
18 | 32:09.61 | 3:02.02 | 144736 | 158387
19 | 35:11.63 | 2:16.26 | 158388 | 168613
20 | 37:28.14 | 2:47.44 | 168614 | 181182
21 | 40:15.58 | 0:57.04 | 181183 | 185461
22 | 41:12.62 | 1:55.34 | 185462 | 194120
23 | 43:08.21 | 3:27.71 | 194121 | 209716
24 | 46:36.17 | 1:36.66 | 209717 | 216982
25 | 48:13.08 | 3:13.69 | 216983 | 231526


Range status and errors

Selected range

Filename C:\Users\usuario\Music\Herbert Grцnemeyer - The American.wav

Peak level 98.0 %
Range quality 100.0 %
Test CRC 7A1664E7
Copy CRC 7A1664E7
Copy OK

No errors occurred

End of status report

[CUETools log; Date: 24.01.2014 1:18:18; Version: 2.1.4]
[CTDB TOCID: iR7k3zlMuID5HD1r_nZeHoT9qIc-] found.
Track | CTDB Status
1 | (4/4) Accurately ripped
2 | (4/4) Accurately ripped
3 | (4/4) Accurately ripped
4 | (4/4) Accurately ripped
5 | (4/4) Accurately ripped
6 | (4/4) Accurately ripped
7 | (4/4) Accurately ripped
8 | (4/4) Accurately ripped
9 | (4/4) Accurately ripped
10 | (4/4) Accurately ripped
11 | (4/4) Accurately ripped
12 | (4/4) Accurately ripped
13 | (4/4) Accurately ripped
14 | (4/4) Accurately ripped
15 | (4/4) Accurately ripped
16 | (4/4) Accurately ripped
17 | (4/4) Accurately ripped
18 | (4/4) Accurately ripped
19 | (4/4) Accurately ripped
20 | (4/4) Accurately ripped
21 | (4/4) Accurately ripped
22 | (4/4) Accurately ripped
23 | (4/4) Accurately ripped
24 | (4/4) Accurately ripped
25 | (4/4) Accurately ripped
[AccurateRip ID: 002d2b03-0324a93b-410c0f19] found.
Track [ CRC | V2 ] Status
01 [5bdbfce0|2acea7cb] (08+02/10) Accurately ripped
02 [1649ba01|8d35c0d5] (08+02/10) Accurately ripped
03 [498234db|85ff3fa1] (08+02/10) Accurately ripped
04 [f28663e5|f47e4d21] (08+02/10) Accurately ripped
05 [b5b3741d|b0bc3384] (08+02/10) Accurately ripped
06 [b6cfa9c2|cfb275ef] (08+02/10) Accurately ripped
07 [6d98c576|dda87a00] (08+02/10) Accurately ripped
08 [9a31f5da|8314b731] (08+02/10) Accurately ripped
09 [2b73a68d|5aa87013] (08+02/10) Accurately ripped
10 [2339ce7f|4b8a4d61] (08+02/10) Accurately ripped
11 [432168ac|e1a875c7] (08+02/10) Accurately ripped
12 [1da1e1a9|951aee57] (08+02/10) Accurately ripped
13 [f4266538|9a447c9c] (08+02/10) Accurately ripped
14 [dd52781c|f47ffbef] (08+02/10) Accurately ripped
15 [36b9b72a|8bb58679] (08+02/10) Accurately ripped
16 [4bf7138b|50945f0d] (08+02/10) Accurately ripped
17 [d405dba1|449c3103] (08+02/10) Accurately ripped
18 [36922d1d|8effc0d3] (08+02/10) Accurately ripped
19 [796db1bc|37000c6e] (08+02/10) Accurately ripped
20 [1cdf7128|19aea89f] (08+02/10) Accurately ripped
21 [6d48f7cf|a2f9c2d2] (08+02/10) Accurately ripped
22 [666bf5bc|cc1e4a88] (08+02/10) Accurately ripped
23 [d03b9f94|028614ab] (08+02/10) Accurately ripped
24 [52b0bcc4|59661969] (08+02/10) Accurately ripped
25 [d9960b25|055fcf71] (08+00/08) Accurately ripped

Track Peak [ CRC32 ] [W/O NULL]
– 98,0 [7A1664E7] [8FEEE733]
01 98,0 [C18CDB2F] [D6C4AAF0]
02 59,5 [0D5EC1C5] [B0C9A19F]
03 22,9 [A160B12B] [E427FCA8]
04 77,1 [C5619766] [FA16AEA7]
05 44,6 [2CEC6894] [BFCD9873]
06 74,5 [20BE0AB1] [A5B513B7]
07 50,5 [2C2470B9] [339D6B87]
08 48,1 [D5725974] [EDBD6907]
09 66,4 [7C532343] [88857440]
10 98,0 [EDF3F1EB] [939D1B7C]
11 36,0 [83A719B1] [AD16B1A1]
12 33,5 [6BC5C5E9] [F27300CB]
13 56,7 [D822669E] [648B69E7]
14 92,9 [9E4F4F3B] [FC2AE2D3]
15 94,8 [D0351147] [60F2A90D]
16 54,5 [F998ABDC] [A36155B5]
17 84,5 [93CFD135] [479D8887]
18 41,7 [B3275C96] [0404E275]
19 92,7 [B030F06F] [E1A03590]
20 97,3 [454A55DF] [4F6DD155]
21 51,7 [92249B0E] [08DC0889]
22 74,5 [A4DA0D76] [BEDF63B1]
23 67,2 [F6880C26] [FC9AAC60]
24 98,0 [AA88CBE2] [252C7BA1]
25 98,0 [8BA6C715] [D767D4EF]

foobar2000 1.2 / Dynamic Range Meter 1.1.1
log date: 2014-01-24 01:25:12

––––––––––––––––––––––––––––––––––––––––
Analyzed: Herbert Groenemeyer / The American - OST
––––––––––––––––––––––––––––––––––––––––

DR Peak RMS Duration Track
––––––––––––––––––––––––––––––––––––––––
DR10 -0.17 dB -12.97 dB 3:20 01-Main title
DR12 -4.50 dB -21.42 dB 2:07 02-The chalet
DR9 -12.78 dB -25.78 dB 0:17 03-1st call to Pavel
DR12 -2.26 dB -21.49 dB 1:55 04-Gun assembly
DR8 -7.00 dB -17.26 dB 2:59 05-La bambola
DR11 -2.55 dB -20.61 dB 4:31 06-Un bel dм vedremo
DR9 -5.93 dB -20.86 dB 0:38 07-Test of trust
DR11 -6.35 dB -22.51 dB 1:26 08-Filling the bullets
DR12 -3.55 dB -21.80 dB 1:46 09-Let's meet somewhere new
DR11 -0.17 dB -16.07 dB 1:31 10-Car chase
DR12 -8.86 dB -23.23 dB 3:22 11-Tu vuт fа l'americano
DR10 -9.48 dB -26.31 dB 1:11 12-Bad dreams
DR15 -4.93 dB -25.48 dB 0:54 13-Dinner date
DR12 -0.63 dB -17.99 dB 1:03 14-After dinner
DR10 -0.46 dB -14.16 dB 2:21 15-The sweets tin
DR14 -5.26 dB -23.98 dB 0:40 16-Stay forever
DR11 -1.45 dB -17.46 dB 2:06 17-Drive to exchange
DR8 -7.59 dB -17.78 dB 3:02 18-Nel giardino dell' amore
DR11 -0.66 dB -16.89 dB 2:16 19-The procession
DR12 -0.24 dB -19.22 dB 2:48 20-Mr. Butterfly's last journey
DR11 -5.73 dB -20.22 dB 0:57 21-End credits (Guitar)
DR9 -2.55 dB -15.61 dB 1:55 22-End credits (Piano)
DR11 -3.44 dB -17.15 dB 3:28 23-Window of my eyes
DR9 -0.17 dB -11.89 dB 1:37 24-Jack gathers parts
DR12 -0.17 dB -15.74 dB 3:14 25-The tunnel
––––––––––––––––––––––––––––––––––––––––

Number of tracks: 25
Official DR value: DR11

Samplerate: 44100 Hz
Channels: 2
Bits per sample: 16
Bitrate: 640 kbps
Codec: FLAC
================================================================================

Herbert Groenemeyer - The American: Original Motion Picture Soundtrack (2010)

Herbert Groenemeyer - The American: Original Motion Picture Soundtrack (2010)